<?xml version="1.0" standalone="no"?>
<!DOCTYPE svg PUBLIC "-//W3C//DTD SVG 1.1//EN" "http://www.w3.org/Graphics/SVG/1.1/DTD/svg11.dtd" >
<svg xmlns="http://www.w3.org/2000/svg" xmlns:xlink="http://www.w3.org/1999/xlink" version="1.1">
<metadata>
Created by FontForge 20190801 at Wed Jul  5 12:52:21 2017
 By Jimmy Wärting
Copyright 2015 \(c\) Newlyn Works Limited
</metadata>
<defs>
<font id="HeroNew-SemiBold" horiz-adv-x="680" >
  <font-face 
    font-family="Hero New SemiBold"
    font-weight="600"
    font-stretch="normal"
    units-per-em="1000"
    panose-1="2 0 7 0 0 0 0 0 0 0"
    ascent="800"
    descent="-200"
    x-height="550"
    cap-height="745"
    bbox="-208.427 -306 1337 1050"
    underline-thickness="50"
    underline-position="-100"
    stemh="129"
    stemv="140"
    unicode-range="U+000D-FB02"
  />
<missing-glyph horiz-adv-x="743" 
d="M672 745v-745h-601v745h601zM504 651h-264l132 -201zM169 601v-457l150 228zM575 601l-151 -229l151 -228v457zM372 294l-132 -200h264z" />
    <glyph glyph-name="fi" unicode="fi" horiz-adv-x="710" 
d="M110 0v435h-76v115h77v64c0 105 75 196 206 196c36 0 68 -6 101 -16v-119c-19 7 -49 13 -78 13c-61 0 -93 -26 -93 -87v-51h149v-115h-148v-435h-138zM568 642c-44 0 -78 33 -78 76s34 77 78 77c43 0 77 -34 77 -77s-34 -76 -77 -76zM499 0v550h138v-550h-138z" />
    <glyph glyph-name="fl" unicode="fl" horiz-adv-x="714" 
d="M110 0v435h-76v115h77v64c0 105 75 196 206 196c36 0 68 -6 101 -16v-119c-19 7 -49 13 -78 13c-61 0 -93 -26 -93 -87v-51h149v-115h-148v-435h-138zM503 0v802h138v-802h-138z" />
    <glyph glyph-name=".notdef" horiz-adv-x="743" 
d="M672 745v-745h-601v745h601zM504 651h-264l132 -201zM169 601v-457l150 228zM575 601l-151 -229l151 -228v457zM372 294l-132 -200h264z" />
    <glyph glyph-name="NULL" horiz-adv-x="0" 
 />
    <glyph glyph-name="CR" unicode="&#xd;" horiz-adv-x="283" 
 />
    <glyph glyph-name="space" unicode=" " horiz-adv-x="257" 
 />
    <glyph glyph-name="uni00A0" unicode="&#xa0;" horiz-adv-x="257" 
 />
    <glyph glyph-name="A" unicode="A" horiz-adv-x="742" 
d="M737 0h-147l-73 196h-292l-72 -196h-146l283 745h161zM370 597l-105 -283h211z" />
    <glyph glyph-name="B" unicode="B" horiz-adv-x="670" 
d="M491 384c87 -28 133 -92 133 -176c0 -112 -85 -208 -262 -208h-274v745h262c166 0 253 -86 253 -197c0 -85 -48 -139 -112 -164zM227 625v-194h119c80 0 123 43 123 98c0 58 -43 96 -119 96h-123zM353 121c87 0 133 44 133 104c0 64 -52 103 -129 103h-130v-207h126z" />
    <glyph glyph-name="C" unicode="C" horiz-adv-x="671" 
d="M625 35c-51 -28 -116 -51 -202 -51c-202 0 -379 153 -379 389s177 389 379 389c86 0 151 -23 202 -51v-141c-59 39 -114 61 -189 61c-131 0 -249 -99 -249 -258c0 -158 118 -259 249 -259c75 0 130 25 189 64v-143z" />
    <glyph glyph-name="D" unicode="D" horiz-adv-x="743" 
d="M295 745c242 0 403 -148 403 -372c0 -225 -164 -373 -403 -373h-207v745h207zM228 617v-488h73c150 0 254 88 254 243c0 157 -104 245 -253 245h-74z" />
    <glyph glyph-name="E" unicode="E" horiz-adv-x="597" 
d="M88 0v745h449v-127h-309v-181h283v-118h-283v-192h309v-127h-449z" />
    <glyph glyph-name="F" unicode="F" horiz-adv-x="578" 
d="M88 0v745h441v-128h-301v-210h284v-122h-284v-285h-140z" />
    <glyph glyph-name="G" unicode="G" horiz-adv-x="733" 
d="M187 370c0 -151 104 -257 239 -257c49 0 84 10 120 27v262h129v-346c-71 -44 -150 -73 -251 -73c-203 0 -380 152 -380 389s176 390 381 390c87 0 164 -22 224 -56v-141c-65 45 -139 64 -209 64c-147 0 -253 -109 -253 -259z" />
    <glyph glyph-name="H" unicode="H" horiz-adv-x="790" 
d="M562 0v310h-334v-310h-140v745h140v-306h334v306h140v-745h-140z" />
    <glyph glyph-name="I" unicode="I" horiz-adv-x="316" 
d="M88 0v745h140v-745h-140z" />
    <glyph glyph-name="J" unicode="J" horiz-adv-x="484" 
d="M27 177c31 -34 71 -60 122 -60c69 0 114 44 114 131v497h140v-515c0 -141 -84 -243 -231 -243c-54 0 -109 19 -145 50v140z" />
    <glyph glyph-name="K" unicode="K" horiz-adv-x="699" 
d="M699 0h-170l-301 359v-359h-140v745h140v-355l299 355h166l-314 -368z" />
    <glyph glyph-name="L" unicode="L" horiz-adv-x="565" 
d="M88 0v745h140v-616h315v-129h-455z" />
    <glyph glyph-name="M" unicode="M" horiz-adv-x="978" 
d="M249 548l-72 -548h-135l110 745h166l174 -532h1l169 532h165l109 -745h-136l-71 551h-3l-177 -551h-121l-176 548h-3z" />
    <glyph glyph-name="N" unicode="N" horiz-adv-x="802" 
d="M714 745v-745h-132l-358 522h-1v-522h-135v745h137l353 -512h1v512h135z" />
    <glyph glyph-name="O" unicode="O" horiz-adv-x="848" 
d="M425 -17c-217 0 -381 165 -381 390c0 224 164 389 381 389c216 0 379 -165 379 -389c0 -225 -163 -390 -379 -390zM425 113c121 0 237 95 237 260c0 164 -116 259 -237 259c-124 0 -238 -95 -238 -259c0 -166 115 -260 238 -260z" />
    <glyph glyph-name="P" unicode="P" horiz-adv-x="640" 
d="M88 0v745h208c196 0 313 -97 313 -255c0 -151 -112 -266 -306 -266h-75v-224h-140zM310 351c94 0 158 49 158 134c0 86 -64 132 -159 132h-81v-266h82z" />
    <glyph glyph-name="Q" unicode="Q" horiz-adv-x="857" 
d="M832 32l-90 -93l-106 105c-60 -39 -132 -61 -211 -61c-217 0 -381 165 -381 390c0 224 164 389 381 389c216 0 379 -165 379 -389c0 -92 -27 -175 -75 -239zM425 113c39 0 78 10 112 29l-133 132l90 92l134 -133c21 39 34 86 34 140c0 164 -116 259 -237 259
c-124 0 -238 -95 -238 -259c0 -166 115 -260 238 -260z" />
    <glyph glyph-name="R" unicode="R" horiz-adv-x="650" 
d="M388 283l240 -283h-171l-221 275h-8v-275h-140v745h223c178 0 283 -88 283 -235c0 -99 -56 -198 -206 -227zM228 385h74c101 0 150 45 150 117c0 73 -54 115 -145 115h-79v-232z" />
    <glyph glyph-name="S" unicode="S" horiz-adv-x="586" 
d="M312 761c74 0 141 -21 189 -50v-132c-50 36 -121 57 -182 57c-69 0 -122 -30 -122 -85c0 -51 45 -75 131 -111c108 -45 216 -92 216 -228c0 -138 -110 -228 -265 -228c-91 0 -172 32 -221 68v141c52 -49 132 -84 209 -84c76 0 133 37 133 98c0 56 -53 83 -141 121
c-98 41 -201 89 -201 217c0 130 104 216 254 216z" />
    <glyph glyph-name="T" unicode="T" horiz-adv-x="629" 
d="M245 0v617h-224v128h587v-128h-223v-617h-140z" />
    <glyph glyph-name="U" unicode="U" horiz-adv-x="760" 
d="M377 -17c-185 0 -298 127 -298 307v455h140v-457c0 -110 60 -175 158 -175c100 0 164 65 164 176v456h140v-455c0 -180 -117 -307 -304 -307z" />
    <glyph glyph-name="V" unicode="V" horiz-adv-x="738" 
d="M733 745l-287 -745h-151l-291 745h147l220 -594l216 594h146z" />
    <glyph glyph-name="W" unicode="W" horiz-adv-x="1102" 
d="M725 0l-171 554h-1l-170 -554h-147l-222 745h143l156 -572h2l172 572h132l175 -573h1l151 573h140l-218 -745h-143z" />
    <glyph glyph-name="X" unicode="X" horiz-adv-x="688" 
d="M10 0l245 374l-243 371h162l173 -270l169 270h159l-242 -370l247 -375h-161l-177 273l-172 -273h-160z" />
    <glyph glyph-name="Y" unicode="Y" horiz-adv-x="694" 
d="M278 0v303l-276 442h157l190 -316h3l188 316h151l-274 -441v-304h-139z" />
    <glyph glyph-name="Z" unicode="Z" horiz-adv-x="609" 
d="M591 745l-357 -616h331v-129h-548l357 617h-326v128h543z" />
    <glyph glyph-name="Aacute" unicode="&#xc1;" horiz-adv-x="742" 
d="M396 993h138l-145 -174h-107zM737 0h-147l-73 196h-292l-72 -196h-146l283 745h161zM370 597l-105 -283h211z" />
    <glyph glyph-name="Abreve" unicode="&#x102;" horiz-adv-x="742" 
d="M555 991c6 -117 -96 -171 -185 -171s-191 54 -186 171h93c2 -47 35 -84 93 -84s90 37 92 84h93zM737 0h-147l-73 196h-292l-72 -196h-146l283 745h161zM370 597l-105 -283h211z" />
    <glyph glyph-name="Acircumflex" unicode="&#xc2;" horiz-adv-x="742" 
d="M421 993l140 -174h-121l-70 93l-70 -93h-120l140 174h101zM737 0h-147l-73 196h-292l-72 -196h-146l283 745h161zM370 597l-105 -283h211z" />
    <glyph glyph-name="Adieresis" unicode="&#xc4;" horiz-adv-x="742" 
d="M259 834c-37 0 -68 30 -68 67s31 67 68 67c38 0 69 -30 69 -67s-31 -67 -69 -67zM482 834c-38 0 -68 30 -68 67s30 67 68 67s68 -30 68 -67s-30 -67 -68 -67zM737 0h-147l-73 196h-292l-72 -196h-146l283 745h161zM370 597l-105 -283h211z" />
    <glyph glyph-name="Agrave" unicode="&#xc0;" horiz-adv-x="742" 
d="M350 993l114 -174h-107l-145 174h138zM737 0h-147l-73 196h-292l-72 -196h-146l283 745h161zM370 597l-105 -283h211z" />
    <glyph glyph-name="Amacron" unicode="&#x100;" horiz-adv-x="742" 
d="M192 857v89h355v-89h-355zM737 0h-147l-73 196h-292l-72 -196h-146l283 745h161zM370 597l-105 -283h211z" />
    <glyph glyph-name="Aogonek" unicode="&#x104;" horiz-adv-x="742" 
d="M647 -91c0 -32 27 -49 58 -49c11 0 27 2 32 5v-77c-7 -5 -33 -12 -61 -12c-79 0 -133 44 -133 111c0 36 16 74 59 113h-12l-73 196h-292l-72 -196h-146l283 745h161l286 -745c-53 -29 -90 -59 -90 -91zM265 314h211l-106 283z" />
    <glyph glyph-name="Aring" unicode="&#xc5;" horiz-adv-x="742" 
d="M371 1036c67 0 117 -47 117 -109c0 -63 -50 -109 -117 -109s-118 46 -118 109c0 62 51 109 118 109zM371 977c-31 0 -53 -22 -53 -50c0 -29 22 -51 53 -51c30 0 52 22 52 51c0 28 -22 50 -52 50zM737 0h-147l-73 196h-292l-72 -196h-146l283 745h161zM370 597l-105 -283
h211z" />
    <glyph glyph-name="Atilde" unicode="&#xc3;" horiz-adv-x="742" 
d="M577 972c6 -101 -52 -144 -122 -144c-73 0 -104 58 -158 58c-37 0 -51 -29 -50 -56h-85c-6 101 52 145 122 145c73 0 104 -59 158 -59c37 0 51 30 50 56h85zM737 0h-147l-73 196h-292l-72 -196h-146l283 745h161zM370 597l-105 -283h211z" />
    <glyph glyph-name="AE" unicode="&#xc6;" horiz-adv-x="1042" 
d="M981 617h-299v-180h274v-118h-274v-190h299v-129h-439v201h-264l-126 -201h-165l472 745h522v-128zM351 318h191v301h-2z" />
    <glyph glyph-name="Cacute" unicode="&#x106;" horiz-adv-x="671" 
d="M443 993h138l-145 -174h-107zM625 35c-51 -28 -116 -51 -202 -51c-202 0 -379 153 -379 389s177 389 379 389c86 0 151 -23 202 -51v-141c-59 39 -114 61 -189 61c-131 0 -249 -99 -249 -258c0 -158 118 -259 249 -259c75 0 130 25 189 64v-143z" />
    <glyph glyph-name="Ccaron" unicode="&#x10c;" horiz-adv-x="671" 
d="M607 993l-142 -174h-97l-142 174h121l70 -94l70 94h120zM625 35c-51 -28 -116 -51 -202 -51c-202 0 -379 153 -379 389s177 389 379 389c86 0 151 -23 202 -51v-141c-59 39 -114 61 -189 61c-131 0 -249 -99 -249 -258c0 -158 118 -259 249 -259c75 0 130 25 189 64v-143
z" />
    <glyph glyph-name="Ccedilla" unicode="&#xc7;" horiz-adv-x="671" 
d="M436 631c-131 0 -249 -99 -249 -258c0 -158 118 -259 249 -259c75 0 130 25 189 64v-143c-45 -25 -101 -46 -174 -50c-5 -64 -28 -117 -66 -163h-134c46 52 82 106 90 171c-165 35 -297 176 -297 380c0 236 177 389 379 389c86 0 151 -23 202 -51v-141
c-59 39 -114 61 -189 61z" />
    <glyph glyph-name="Cdotaccent" unicode="&#x10a;" horiz-adv-x="671" 
d="M416 834c-37 0 -68 30 -68 67s31 67 68 67c38 0 69 -30 69 -67s-31 -67 -69 -67zM625 35c-51 -28 -116 -51 -202 -51c-202 0 -379 153 -379 389s177 389 379 389c86 0 151 -23 202 -51v-141c-59 39 -114 61 -189 61c-131 0 -249 -99 -249 -258c0 -158 118 -259 249 -259
c75 0 130 25 189 64v-143z" />
    <glyph glyph-name="Eth" unicode="&#xd0;" horiz-adv-x="756" 
d="M309 745c242 0 403 -148 403 -372c0 -225 -164 -373 -403 -373h-207v321h-87v104h87v320h207zM315 129c150 0 254 88 254 243c0 157 -104 245 -253 245h-74v-192h165v-104h-165v-192h73z" />
    <glyph glyph-name="Dcaron" unicode="&#x10e;" horiz-adv-x="743" 
d="M551 993l-142 -174h-97l-142 174h121l70 -94l70 94h120zM295 745c242 0 403 -148 403 -372c0 -225 -164 -373 -403 -373h-207v745h207zM228 617v-488h73c150 0 254 88 254 243c0 157 -104 245 -253 245h-74z" />
    <glyph glyph-name="Dcroat" unicode="&#x110;" horiz-adv-x="756" 
d="M309 745c242 0 403 -148 403 -372c0 -225 -164 -373 -403 -373h-207v321h-87v104h87v320h207zM315 129c150 0 254 88 254 243c0 157 -104 245 -253 245h-74v-192h165v-104h-165v-192h73z" />
    <glyph glyph-name="Eacute" unicode="&#xc9;" horiz-adv-x="597" 
d="M335 993h138l-145 -174h-107zM88 0v745h449v-127h-309v-181h283v-118h-283v-192h309v-127h-449z" />
    <glyph glyph-name="Ecaron" unicode="&#x11a;" horiz-adv-x="597" 
d="M499 993l-142 -174h-97l-142 174h121l70 -94l70 94h120zM88 0v745h449v-127h-309v-181h283v-118h-283v-192h309v-127h-449z" />
    <glyph glyph-name="Ecircumflex" unicode="&#xca;" horiz-adv-x="597" 
d="M360 993l140 -174h-121l-70 93l-70 -93h-120l140 174h101zM88 0v745h449v-127h-309v-181h283v-118h-283v-192h309v-127h-449z" />
    <glyph glyph-name="Edieresis" unicode="&#xcb;" horiz-adv-x="597" 
d="M198 834c-37 0 -68 30 -68 67s31 67 68 67c38 0 69 -30 69 -67s-31 -67 -69 -67zM421 834c-38 0 -68 30 -68 67s30 67 68 67s68 -30 68 -67s-30 -67 -68 -67zM88 0v745h449v-127h-309v-181h283v-118h-283v-192h309v-127h-449z" />
    <glyph glyph-name="Edotaccent" unicode="&#x116;" horiz-adv-x="597" 
d="M308 834c-37 0 -68 30 -68 67s31 67 68 67c38 0 69 -30 69 -67s-31 -67 -69 -67zM88 0v745h449v-127h-309v-181h283v-118h-283v-192h309v-127h-449z" />
    <glyph glyph-name="Egrave" unicode="&#xc8;" horiz-adv-x="597" 
d="M289 993l114 -174h-107l-145 174h138zM88 0v745h449v-127h-309v-181h283v-118h-283v-192h309v-127h-449z" />
    <glyph glyph-name="Emacron" unicode="&#x112;" horiz-adv-x="597" 
d="M131 857v89h355v-89h-355zM88 0v745h449v-127h-309v-181h283v-118h-283v-192h309v-127h-449z" />
    <glyph glyph-name="Eogonek" unicode="&#x118;" horiz-adv-x="597" 
d="M537 618h-309v-181h283v-118h-283v-192h309v-127h-10c-53 -29 -90 -59 -90 -91s27 -49 58 -49c11 0 27 2 32 5v-77c-7 -5 -33 -12 -61 -12c-79 0 -133 44 -133 111c0 36 16 74 59 113h-304v745h449v-127z" />
    <glyph glyph-name="Gbreve" unicode="&#x11e;" horiz-adv-x="733" 
d="M601 991c6 -117 -96 -171 -185 -171s-191 54 -186 171h93c2 -47 35 -84 93 -84s90 37 92 84h93zM187 370c0 -151 104 -257 239 -257c49 0 84 10 120 27v262h129v-346c-71 -44 -150 -73 -251 -73c-203 0 -380 152 -380 389s176 390 381 390c87 0 164 -22 224 -56v-141
c-65 45 -139 64 -209 64c-147 0 -253 -109 -253 -259z" />
    <glyph glyph-name="uni0122" unicode="&#x122;" horiz-adv-x="733" 
d="M187 370c0 -151 104 -257 239 -257c49 0 84 10 120 27v262h129v-346c-71 -44 -150 -73 -251 -73c-203 0 -380 152 -380 389s176 390 381 390c87 0 164 -22 224 -56v-141c-65 45 -139 64 -209 64c-147 0 -253 -109 -253 -259zM456 -79c13 -75 -7 -154 -51 -227h-97
c34 78 43 159 25 227h123z" />
    <glyph glyph-name="Gdotaccent" unicode="&#x120;" horiz-adv-x="733" 
d="M415 834c-37 0 -68 30 -68 67s31 67 68 67c38 0 69 -30 69 -67s-31 -67 -69 -67zM187 370c0 -151 104 -257 239 -257c49 0 84 10 120 27v262h129v-346c-71 -44 -150 -73 -251 -73c-203 0 -380 152 -380 389s176 390 381 390c87 0 164 -22 224 -56v-141
c-65 45 -139 64 -209 64c-147 0 -253 -109 -253 -259z" />
    <glyph glyph-name="Hbar" unicode="&#x126;" horiz-adv-x="810" 
d="M782 642v-104h-69v-538h-140v310h-334v-310h-140v538h-78v104h78v103h140v-103h334v103h140v-103h69zM573 439v99h-334v-99h334z" />
    <glyph glyph-name="IJ" unicode="&#x132;" horiz-adv-x="798" 
d="M88 0v745h140v-745h-140zM342 177c31 -34 71 -60 122 -60c69 0 114 44 114 131v497h140v-515c0 -141 -84 -243 -231 -243c-54 0 -109 19 -145 50v140z" />
    <glyph glyph-name="Iacute" unicode="&#xcd;" horiz-adv-x="316" 
d="M184 993h138l-145 -174h-107zM88 0v745h140v-745h-140z" />
    <glyph glyph-name="Icircumflex" unicode="&#xce;" horiz-adv-x="316" 
d="M209 993l140 -174h-121l-70 93l-70 -93h-120l140 174h101zM88 0v745h140v-745h-140z" />
    <glyph glyph-name="Idieresis" unicode="&#xcf;" horiz-adv-x="316" 
d="M47 834c-37 0 -68 30 -68 67s31 67 68 67c38 0 69 -30 69 -67s-31 -67 -69 -67zM270 834c-38 0 -68 30 -68 67s30 67 68 67s68 -30 68 -67s-30 -67 -68 -67zM88 0v745h140v-745h-140z" />
    <glyph glyph-name="Idotaccent" unicode="&#x130;" horiz-adv-x="316" 
d="M157 834c-37 0 -68 30 -68 67s31 67 68 67c38 0 69 -30 69 -67s-31 -67 -69 -67zM88 0v745h140v-745h-140z" />
    <glyph glyph-name="Igrave" unicode="&#xcc;" horiz-adv-x="316" 
d="M138 993l114 -174h-107l-145 174h138zM88 0v745h140v-745h-140z" />
    <glyph glyph-name="Imacron" unicode="&#x12a;" horiz-adv-x="316" 
d="M-20 857v89h355v-89h-355zM88 0v745h140v-745h-140z" />
    <glyph glyph-name="Iogonek" unicode="&#x12e;" horiz-adv-x="316" 
d="M228 0c-53 -29 -90 -59 -90 -91s27 -49 58 -49c11 0 27 2 32 5v-77c-7 -5 -33 -12 -61 -12c-79 0 -133 44 -133 111c0 36 16 74 59 113h-5v745h140v-745z" />
    <glyph glyph-name="uni0136" unicode="&#x136;" horiz-adv-x="699" 
d="M379 377l320 -377h-170l-301 359v-359h-140v745h140v-355l299 355h166zM306 -79h123c13 -75 -7 -154 -51 -227h-97c34 78 43 159 25 227z" />
    <glyph glyph-name="Lacute" unicode="&#x139;" horiz-adv-x="565" 
d="M184 993h138l-145 -174h-107zM88 0v745h140v-616h315v-129h-455z" />
    <glyph glyph-name="Lcaron" unicode="&#x13d;" horiz-adv-x="566" 
d="M306 579c5 34 12 66 12 117c0 38 -6 72 -17 106h121c4 -20 7 -42 7 -65c0 -41 -6 -89 -36 -158h-87zM88 0v745h140v-616h315v-129h-455z" />
    <glyph glyph-name="uni013B" unicode="&#x13b;" horiz-adv-x="565" 
d="M88 0v745h140v-616h315v-129h-455zM374 -79c13 -75 -7 -154 -51 -227h-97c34 78 43 159 25 227h123z" />
    <glyph glyph-name="Ldot" unicode="&#x13f;" horiz-adv-x="591" 
d="M88 0v745h140v-616h315v-129h-455zM442 325c-46 0 -81 36 -81 81c0 46 35 81 81 81c45 0 81 -35 81 -81c0 -45 -36 -81 -81 -81z" />
    <glyph glyph-name="Lslash" unicode="&#x141;" horiz-adv-x="597" 
d="M261 129h315v-129h-455v229l-97 -56v125l97 56v391h140v-310l179 104v-125l-179 -104v-181z" />
    <glyph glyph-name="Nacute" unicode="&#x143;" horiz-adv-x="802" 
d="M437 993h138l-145 -174h-107zM714 745v-745h-132l-358 522h-1v-522h-135v745h137l353 -512h1v512h135z" />
    <glyph glyph-name="Ncaron" unicode="&#x147;" horiz-adv-x="802" 
d="M601 993l-142 -174h-97l-142 174h121l70 -94l70 94h120zM714 745v-745h-132l-358 522h-1v-522h-135v745h137l353 -512h1v512h135z" />
    <glyph glyph-name="uni0145" unicode="&#x145;" horiz-adv-x="802" 
d="M714 745v-745h-132l-358 522h-1v-522h-135v745h137l353 -512h1v512h135zM467 -79c13 -75 -7 -154 -51 -227h-97c34 78 43 159 25 227h123z" />
    <glyph glyph-name="Eng" unicode="&#x14a;" horiz-adv-x="814" 
d="M591 745h135v-726c0 -142 -83 -243 -230 -243c-55 0 -109 19 -145 49v140c30 -34 70 -60 121 -60c62 0 107 35 117 103l-366 527h-1v-535h-134v745h137l365 -525h1v525z" />
    <glyph glyph-name="Ntilde" unicode="&#xd1;" horiz-adv-x="802" 
d="M618 972c6 -101 -52 -144 -122 -144c-73 0 -104 58 -158 58c-37 0 -51 -29 -50 -56h-85c-6 101 52 145 122 145c73 0 104 -59 158 -59c37 0 51 30 50 56h85zM714 745v-745h-132l-358 522h-1v-522h-135v745h137l353 -512h1v512h135z" />
    <glyph glyph-name="Oacute" unicode="&#xd3;" horiz-adv-x="848" 
d="M451 993h138l-145 -174h-107zM425 -17c-217 0 -381 165 -381 390c0 224 164 389 381 389c216 0 379 -165 379 -389c0 -225 -163 -390 -379 -390zM425 113c121 0 237 95 237 260c0 164 -116 259 -237 259c-124 0 -238 -95 -238 -259c0 -166 115 -260 238 -260z" />
    <glyph glyph-name="Ocircumflex" unicode="&#xd4;" horiz-adv-x="848" 
d="M476 993l140 -174h-121l-70 93l-70 -93h-120l140 174h101zM425 -17c-217 0 -381 165 -381 390c0 224 164 389 381 389c216 0 379 -165 379 -389c0 -225 -163 -390 -379 -390zM425 113c121 0 237 95 237 260c0 164 -116 259 -237 259c-124 0 -238 -95 -238 -259
c0 -166 115 -260 238 -260z" />
    <glyph glyph-name="Odieresis" unicode="&#xd6;" horiz-adv-x="848" 
d="M314 834c-37 0 -68 30 -68 67s31 67 68 67c38 0 69 -30 69 -67s-31 -67 -69 -67zM537 834c-38 0 -68 30 -68 67s30 67 68 67s68 -30 68 -67s-30 -67 -68 -67zM425 -17c-217 0 -381 165 -381 390c0 224 164 389 381 389c216 0 379 -165 379 -389
c0 -225 -163 -390 -379 -390zM425 113c121 0 237 95 237 260c0 164 -116 259 -237 259c-124 0 -238 -95 -238 -259c0 -166 115 -260 238 -260z" />
    <glyph glyph-name="Ograve" unicode="&#xd2;" horiz-adv-x="848" 
d="M405 993l114 -174h-107l-145 174h138zM425 -17c-217 0 -381 165 -381 390c0 224 164 389 381 389c216 0 379 -165 379 -389c0 -225 -163 -390 -379 -390zM425 113c121 0 237 95 237 260c0 164 -116 259 -237 259c-124 0 -238 -95 -238 -259c0 -166 115 -260 238 -260z
" />
    <glyph glyph-name="Ohungarumlaut" unicode="&#x150;" horiz-adv-x="848" 
d="M527 993l-180 -174h-109l148 174h141zM725 993l-181 -174h-109l148 174h142zM425 -17c-217 0 -381 165 -381 390c0 224 164 389 381 389c216 0 379 -165 379 -389c0 -225 -163 -390 -379 -390zM425 113c121 0 237 95 237 260c0 164 -116 259 -237 259
c-124 0 -238 -95 -238 -259c0 -166 115 -260 238 -260z" />
    <glyph glyph-name="Omacron" unicode="&#x14c;" horiz-adv-x="848" 
d="M247 857v89h355v-89h-355zM425 -17c-217 0 -381 165 -381 390c0 224 164 389 381 389c216 0 379 -165 379 -389c0 -225 -163 -390 -379 -390zM425 113c121 0 237 95 237 260c0 164 -116 259 -237 259c-124 0 -238 -95 -238 -259c0 -166 115 -260 238 -260z" />
    <glyph glyph-name="Oslash" unicode="&#xd8;" horiz-adv-x="852" 
d="M723 623c53 -66 84 -153 84 -250c0 -225 -163 -390 -380 -390c-92 0 -174 30 -239 81l-76 -80l-65 62l79 82c-50 66 -79 150 -79 245c0 224 164 389 380 389c89 0 169 -28 232 -76l71 74l64 -63zM187 373c0 -57 13 -105 35 -144l345 361c-40 30 -89 46 -140 46
c-126 0 -240 -96 -240 -263zM427 110c124 0 240 95 240 263c0 59 -15 110 -39 150l-348 -363c42 -33 94 -50 147 -50z" />
    <glyph glyph-name="Otilde" unicode="&#xd5;" horiz-adv-x="848" 
d="M632 972c6 -101 -52 -144 -122 -144c-73 0 -104 58 -158 58c-37 0 -51 -29 -50 -56h-85c-6 101 52 145 122 145c73 0 104 -59 158 -59c37 0 51 30 50 56h85zM425 -17c-217 0 -381 165 -381 390c0 224 164 389 381 389c216 0 379 -165 379 -389
c0 -225 -163 -390 -379 -390zM425 113c121 0 237 95 237 260c0 164 -116 259 -237 259c-124 0 -238 -95 -238 -259c0 -166 115 -260 238 -260z" />
    <glyph glyph-name="OE" unicode="&#x152;" horiz-adv-x="998" 
d="M938 745v-127h-299v-181h274v-118h-274v-192h299v-127l-397 1c-37 -12 -76 -18 -116 -18c-217 0 -381 165 -381 390c0 224 164 389 381 389c40 0 80 -6 116 -17h397zM499 620c-24 8 -49 12 -74 12c-124 0 -238 -95 -238 -259c0 -166 115 -260 238 -260c25 0 50 5 74 13
v494z" />
    <glyph glyph-name="Thorn" unicode="&#xde;" horiz-adv-x="652" 
d="M88 0v745h140v-106h90c187 0 304 -94 304 -255c0 -153 -112 -265 -296 -265h-98v-119h-140zM332 245c87 0 147 52 147 134c0 84 -59 132 -147 132h-104v-266h104z" />
    <glyph glyph-name="Racute" unicode="&#x154;" horiz-adv-x="650" 
d="M495 993l-145 -174h-107l114 174h138zM388 283l240 -283h-171l-221 275h-8v-275h-140v745h223c178 0 283 -88 283 -235c0 -99 -56 -198 -206 -227zM228 385h74c101 0 150 45 150 117c0 73 -54 115 -145 115h-79v-232z" />
    <glyph glyph-name="Rcaron" unicode="&#x158;" horiz-adv-x="650" 
d="M379 819h-97l-142 174h121l70 -94l70 94h120zM388 283l240 -283h-171l-221 275h-8v-275h-140v745h223c178 0 283 -88 283 -235c0 -99 -56 -198 -206 -227zM228 385h74c101 0 150 45 150 117c0 73 -54 115 -145 115h-79v-232z" />
    <glyph glyph-name="uni0156" unicode="&#x156;" horiz-adv-x="650" 
d="M388 283l240 -283h-171l-221 275h-8v-275h-140v745h223c178 0 283 -88 283 -235c0 -99 -56 -198 -206 -227zM228 385h74c101 0 150 45 150 117c0 73 -54 115 -145 115h-79v-232zM272 -79h123c13 -75 -7 -154 -51 -227h-97c34 78 43 159 25 227z" />
    <glyph glyph-name="Sacute" unicode="&#x15a;" horiz-adv-x="586" 
d="M333 993h138l-145 -174h-107zM312 761c74 0 141 -21 189 -50v-132c-50 36 -121 57 -182 57c-69 0 -122 -30 -122 -85c0 -51 45 -75 131 -111c108 -45 216 -92 216 -228c0 -138 -110 -228 -265 -228c-91 0 -172 32 -221 68v141c52 -49 132 -84 209 -84c76 0 133 37 133 98
c0 56 -53 83 -141 121c-98 41 -201 89 -201 217c0 130 104 216 254 216z" />
    <glyph glyph-name="Scaron" unicode="&#x160;" horiz-adv-x="586" 
d="M497 993l-142 -174h-97l-142 174h121l70 -94l70 94h120zM312 761c74 0 141 -21 189 -50v-132c-50 36 -121 57 -182 57c-69 0 -122 -30 -122 -85c0 -51 45 -75 131 -111c108 -45 216 -92 216 -228c0 -138 -110 -228 -265 -228c-91 0 -172 32 -221 68v141
c52 -49 132 -84 209 -84c76 0 133 37 133 98c0 56 -53 83 -141 121c-98 41 -201 89 -201 217c0 130 104 216 254 216z" />
    <glyph glyph-name="uni015E" unicode="&#x15e;" horiz-adv-x="587" 
d="M544 212c0 -118 -81 -201 -201 -223c-5 -66 -29 -120 -67 -167h-134c45 51 80 103 90 165c-72 8 -134 35 -174 65v141c52 -49 132 -84 209 -84c76 0 133 37 133 98c0 56 -53 83 -141 121c-98 41 -201 89 -201 217c0 130 104 216 254 216c74 0 141 -21 189 -50v-132
c-50 36 -121 57 -182 57c-69 0 -122 -30 -122 -85c0 -51 45 -75 131 -111c108 -45 216 -92 216 -228z" />
    <glyph glyph-name="uni0218" unicode="&#x218;" horiz-adv-x="586" 
d="M312 761c74 0 141 -21 189 -50v-132c-50 36 -121 57 -182 57c-69 0 -122 -30 -122 -85c0 -51 45 -75 131 -111c108 -45 216 -92 216 -228c0 -138 -110 -228 -265 -228c-91 0 -172 32 -221 68v141c52 -49 132 -84 209 -84c76 0 133 37 133 98c0 56 -53 83 -141 121
c-98 41 -201 89 -201 217c0 130 104 216 254 216zM346 -79c13 -75 -7 -154 -51 -227h-97c34 78 43 159 25 227h123z" />
    <glyph glyph-name="uni1E9E" unicode="&#x1e9e;" horiz-adv-x="766" 
d="M521 418c115 -8 200 -90 200 -204c0 -120 -93 -230 -266 -230c-65 0 -120 19 -159 45v127c35 -30 83 -52 135 -52c94 0 149 57 149 125c0 65 -52 118 -149 118h-100l190 248c-26 18 -64 37 -121 37c-101 0 -181 -65 -181 -180v-452h-140v465c0 173 134 297 335 297
c111 0 211 -39 289 -107z" />
    <glyph glyph-name="Tbar" unicode="&#x166;" horiz-adv-x="651" 
d="M619 617h-223v-214h150v-120h-150v-283h-140v283h-150v120h150v214h-224v128h587v-128z" />
    <glyph glyph-name="Tcaron" unicode="&#x164;" horiz-adv-x="629" 
d="M505 993l-142 -174h-97l-142 174h121l70 -94l70 94h120zM245 0v617h-224v128h587v-128h-223v-617h-140z" />
    <glyph glyph-name="uni0162" unicode="&#x162;" horiz-adv-x="629" 
d="M21 745h587v-128h-223v-617h-13c-4 -71 -28 -128 -68 -178h-134c48 54 85 110 91 178h-16v617h-224v128z" />
    <glyph glyph-name="uni021A" unicode="&#x21a;" horiz-adv-x="629" 
d="M245 0v617h-224v128h587v-128h-223v-617h-140zM374 -79c13 -75 -7 -154 -51 -227h-97c34 78 43 159 25 227h123z" />
    <glyph glyph-name="Uacute" unicode="&#xda;" horiz-adv-x="760" 
d="M406 993h138l-145 -174h-107zM377 -17c-185 0 -298 127 -298 307v455h140v-457c0 -110 60 -175 158 -175c100 0 164 65 164 176v456h140v-455c0 -180 -117 -307 -304 -307z" />
    <glyph glyph-name="Ucircumflex" unicode="&#xdb;" horiz-adv-x="760" 
d="M431 993l140 -174h-121l-70 93l-70 -93h-120l140 174h101zM377 -17c-185 0 -298 127 -298 307v455h140v-457c0 -110 60 -175 158 -175c100 0 164 65 164 176v456h140v-455c0 -180 -117 -307 -304 -307z" />
    <glyph glyph-name="Udieresis" unicode="&#xdc;" horiz-adv-x="760" 
d="M269 834c-37 0 -68 30 -68 67s31 67 68 67c38 0 69 -30 69 -67s-31 -67 -69 -67zM492 834c-38 0 -68 30 -68 67s30 67 68 67s68 -30 68 -67s-30 -67 -68 -67zM377 -17c-185 0 -298 127 -298 307v455h140v-457c0 -110 60 -175 158 -175c100 0 164 65 164 176v456h140v-455
c0 -180 -117 -307 -304 -307z" />
    <glyph glyph-name="Ugrave" unicode="&#xd9;" horiz-adv-x="760" 
d="M360 993l114 -174h-107l-145 174h138zM377 -17c-185 0 -298 127 -298 307v455h140v-457c0 -110 60 -175 158 -175c100 0 164 65 164 176v456h140v-455c0 -180 -117 -307 -304 -307z" />
    <glyph glyph-name="Uhungarumlaut" unicode="&#x170;" horiz-adv-x="760" 
d="M482 993l-180 -174h-109l148 174h141zM680 993l-181 -174h-109l148 174h142zM377 -17c-185 0 -298 127 -298 307v455h140v-457c0 -110 60 -175 158 -175c100 0 164 65 164 176v456h140v-455c0 -180 -117 -307 -304 -307z" />
    <glyph glyph-name="Umacron" unicode="&#x16a;" horiz-adv-x="760" 
d="M202 857v89h355v-89h-355zM377 -17c-185 0 -298 127 -298 307v455h140v-457c0 -110 60 -175 158 -175c100 0 164 65 164 176v456h140v-455c0 -180 -117 -307 -304 -307z" />
    <glyph glyph-name="Uogonek" unicode="&#x172;" horiz-adv-x="760" 
d="M541 745h140v-455c0 -103 -40 -200 -131 -259c-71 -49 -113 -84 -113 -122c0 -33 27 -48 59 -48c11 0 27 2 31 5v-77c-8 -7 -44 -12 -63 -12c-82 0 -130 46 -130 109c0 31 13 64 43 97c-185 0 -298 127 -298 307v455h140v-457c0 -110 60 -175 158 -175
c100 0 164 65 164 176v456z" />
    <glyph glyph-name="Uring" unicode="&#x16e;" horiz-adv-x="760" 
d="M381 1036c67 0 117 -47 117 -109c0 -63 -50 -109 -117 -109s-118 46 -118 109c0 62 51 109 118 109zM381 977c-31 0 -53 -22 -53 -50c0 -29 22 -51 53 -51c30 0 52 22 52 51c0 28 -22 50 -52 50zM377 -17c-185 0 -298 127 -298 307v455h140v-457c0 -110 60 -175 158 -175
c100 0 164 65 164 176v456h140v-455c0 -180 -117 -307 -304 -307z" />
    <glyph glyph-name="Wacute" unicode="&#x1e82;" horiz-adv-x="1102" 
d="M579 993h138l-145 -174h-107zM725 0l-171 554h-1l-170 -554h-147l-222 745h143l156 -572h2l172 572h132l175 -573h1l151 573h140l-218 -745h-143z" />
    <glyph glyph-name="Wcircumflex" unicode="&#x174;" horiz-adv-x="1102" 
d="M604 993l140 -174h-121l-70 93l-70 -93h-120l140 174h101zM725 0l-171 554h-1l-170 -554h-147l-222 745h143l156 -572h2l172 572h132l175 -573h1l151 573h140l-218 -745h-143z" />
    <glyph glyph-name="Wdieresis" unicode="&#x1e84;" horiz-adv-x="1102" 
d="M442 834c-37 0 -68 30 -68 67s31 67 68 67c38 0 69 -30 69 -67s-31 -67 -69 -67zM665 834c-38 0 -68 30 -68 67s30 67 68 67s68 -30 68 -67s-30 -67 -68 -67zM725 0l-171 554h-1l-170 -554h-147l-222 745h143l156 -572h2l172 572h132l175 -573h1l151 573h140l-218 -745
h-143z" />
    <glyph glyph-name="Wgrave" unicode="&#x1e80;" horiz-adv-x="1102" 
d="M533 993l114 -174h-107l-145 174h138zM725 0l-171 554h-1l-170 -554h-147l-222 745h143l156 -572h2l172 572h132l175 -573h1l151 573h140l-218 -745h-143z" />
    <glyph glyph-name="Yacute" unicode="&#xdd;" horiz-adv-x="694" 
d="M375 993h138l-145 -174h-107zM278 0v303l-276 442h157l190 -316h3l188 316h151l-274 -441v-304h-139z" />
    <glyph glyph-name="Ycircumflex" unicode="&#x176;" horiz-adv-x="694" 
d="M400 993l140 -174h-121l-70 93l-70 -93h-120l140 174h101zM278 0v303l-276 442h157l190 -316h3l188 316h151l-274 -441v-304h-139z" />
    <glyph glyph-name="Ydieresis" unicode="&#x178;" horiz-adv-x="694" 
d="M238 834c-37 0 -68 30 -68 67s31 67 68 67c38 0 69 -30 69 -67s-31 -67 -69 -67zM461 834c-38 0 -68 30 -68 67s30 67 68 67s68 -30 68 -67s-30 -67 -68 -67zM278 0v303l-276 442h157l190 -316h3l188 316h151l-274 -441v-304h-139z" />
    <glyph glyph-name="Ygrave" unicode="&#x1ef2;" horiz-adv-x="694" 
d="M329 993l114 -174h-107l-145 174h138zM278 0v303l-276 442h157l190 -316h3l188 316h151l-274 -441v-304h-139z" />
    <glyph glyph-name="Zacute" unicode="&#x179;" horiz-adv-x="609" 
d="M340 993h138l-145 -174h-107zM591 745l-357 -616h331v-129h-548l357 617h-326v128h543z" />
    <glyph glyph-name="Zcaron" unicode="&#x17d;" horiz-adv-x="609" 
d="M504 993l-142 -174h-97l-142 174h121l70 -94l70 94h120zM591 745l-357 -616h331v-129h-548l357 617h-326v128h543z" />
    <glyph glyph-name="Zdotaccent" unicode="&#x17b;" horiz-adv-x="609" 
d="M313 834c-37 0 -68 30 -68 67s31 67 68 67c38 0 69 -30 69 -67s-31 -67 -69 -67zM591 745l-357 -616h331v-129h-548l357 617h-326v128h543z" />
    <glyph glyph-name="a" unicode="a" horiz-adv-x="675" 
d="M287 -14c-125 0 -246 115 -246 288c0 175 121 289 246 289c81 0 148 -40 186 -103l14 90h116v-550h-116l-14 90c-38 -63 -105 -104 -186 -104zM325 112c81 0 142 67 142 163s-61 163 -142 163c-83 0 -145 -68 -145 -163s62 -163 145 -163z" />
    <glyph glyph-name="b" unicode="b" horiz-adv-x="676" 
d="M210 802v-338c36 61 108 99 181 99c128 0 243 -112 243 -288s-120 -289 -248 -289c-79 0 -146 41 -184 104l-14 -90h-116v802h138zM350 438c-80 0 -142 -67 -142 -163s62 -163 143 -163c82 0 144 67 144 162c0 96 -62 164 -145 164z" />
    <glyph glyph-name="c" unicode="c" horiz-adv-x="533" 
d="M180 275c0 -102 76 -163 164 -163c44 0 95 9 141 42v-129c-44 -24 -100 -39 -159 -39c-162 0 -285 122 -285 290c0 166 124 287 285 287c56 0 113 -11 159 -38v-130c-46 31 -90 43 -142 43c-87 0 -163 -62 -163 -163z" />
    <glyph glyph-name="d" unicode="d" horiz-adv-x="675" 
d="M289 -14c-128 0 -248 113 -248 289s118 288 247 288c75 0 142 -38 177 -98v337h138v-802h-116l-14 90c-38 -63 -105 -104 -184 -104zM325 112c81 0 142 67 142 163s-61 163 -142 163c-83 0 -145 -68 -145 -163s62 -163 145 -163z" />
    <glyph glyph-name="e" unicode="e" horiz-adv-x="603" 
d="M563 285c0 -19 -2 -35 -4 -50h-385c19 -89 90 -137 180 -137c61 0 121 22 175 60v-118c-56 -35 -121 -54 -191 -54c-186 0 -297 119 -297 287c0 176 123 290 273 290c137 0 249 -96 249 -278zM172 322h259c-2 85 -54 130 -118 130c-68 0 -126 -50 -141 -130z" />
    <glyph glyph-name="f" unicode="f" horiz-adv-x="411" 
d="M110 0v435h-76v115h77v64c0 105 75 196 206 196c36 0 68 -6 101 -16v-119c-19 7 -49 13 -78 13c-61 0 -93 -26 -93 -87v-51h149v-115h-148v-435h-138z" />
    <glyph glyph-name="g" unicode="g" horiz-adv-x="672" 
d="M289 562c78 0 144 -40 181 -98l15 86h115v-488c0 -184 -128 -286 -296 -286c-76 0 -150 24 -207 65v135c55 -48 129 -78 196 -78c97 0 169 59 169 147v61c-35 -55 -98 -95 -175 -95c-129 0 -246 111 -246 276c0 161 120 275 248 275zM323 439c-82 0 -143 -67 -143 -153
s61 -153 143 -153c81 0 142 68 142 155c0 86 -61 151 -142 151z" />
    <glyph glyph-name="h" unicode="h" horiz-adv-x="625" 
d="M210 802v-309h2c31 41 86 70 150 70c119 0 195 -69 195 -197v-366h-138v326c0 76 -33 112 -99 112c-61 0 -110 -36 -110 -106v-332h-138v802h138z" />
    <glyph glyph-name="i" unicode="i" horiz-adv-x="285" 
d="M143 642c-44 0 -78 33 -78 76s34 77 78 77c43 0 77 -34 77 -77s-34 -76 -77 -76zM74 0v550h138v-550h-138z" />
    <glyph glyph-name="j" unicode="j" horiz-adv-x="286" 
d="M144 642c-44 0 -78 33 -78 76s34 77 78 77c43 0 77 -34 77 -77s-34 -76 -77 -76zM-29 -210c70 76 104 155 104 288v472h138v-461c0 -121 -23 -215 -88 -299h-154z" />
    <glyph glyph-name="k" unicode="k" horiz-adv-x="600" 
d="M597 0h-171l-216 271v-271h-138v802h138v-506l214 254h166l-227 -262z" />
    <glyph glyph-name="l" unicode="l" horiz-adv-x="285" 
d="M74 0v802h138v-802h-138z" />
    <glyph glyph-name="m" unicode="m" horiz-adv-x="903" 
d="M659 563c120 0 176 -79 176 -198v-365h-138v338c0 66 -24 99 -83 99s-91 -44 -91 -95v-342h-138v338c0 66 -24 99 -84 99s-91 -48 -91 -101v-336h-138v550h107l15 -78h3c28 50 77 91 150 91c78 0 127 -36 154 -94c35 58 87 94 158 94z" />
    <glyph glyph-name="n" unicode="n" horiz-adv-x="624" 
d="M363 563c120 0 194 -75 194 -196v-367h-138v325c0 76 -34 112 -100 112c-63 0 -109 -45 -109 -108v-329h-138v550h107l15 -79h3c32 51 90 92 166 92z" />
    <glyph glyph-name="o" unicode="o" horiz-adv-x="649" 
d="M325 -14c-161 0 -284 120 -284 289s124 288 284 288c161 0 283 -119 283 -288c0 -168 -122 -289 -283 -289zM325 112c74 0 144 60 144 163c0 104 -70 163 -144 163s-145 -59 -145 -163s71 -163 145 -163z" />
    <glyph glyph-name="p" unicode="p" horiz-adv-x="676" 
d="M72 -210v760h116l14 -90c38 63 105 103 184 103c129 0 248 -112 248 -288s-116 -289 -245 -289c-73 0 -144 40 -179 99v-295h-138zM350 112c83 0 145 68 145 164c0 95 -62 162 -144 162c-81 0 -143 -67 -143 -163s62 -163 142 -163z" />
    <glyph glyph-name="q" unicode="q" horiz-adv-x="675" 
d="M286 563c83 0 150 -40 187 -103l15 90h115v-760h-138v295c-37 -62 -104 -99 -179 -99c-129 0 -244 116 -244 285c0 177 113 292 244 292zM325 438c-82 0 -144 -68 -144 -163s62 -163 144 -163c81 0 143 67 143 163s-62 163 -143 163z" />
    <glyph glyph-name="r" unicode="r" horiz-adv-x="406" 
d="M72 0v550h110l14 -84h2c37 68 103 90 152 90c15 0 28 -1 40 -4v-129c-15 3 -29 4 -44 4c-69 0 -136 -39 -136 -144v-283h-138z" />
    <glyph glyph-name="s" unicode="s" horiz-adv-x="511" 
d="M267 563c64 0 130 -17 171 -44v-121c-39 29 -103 51 -166 51c-56 0 -87 -21 -87 -54c0 -35 36 -49 103 -67c88 -23 184 -53 184 -167c0 -106 -83 -175 -225 -175c-77 0 -145 21 -194 56v131c45 -40 108 -72 188 -72c62 0 97 23 97 59c0 39 -43 52 -117 74
c-89 25 -170 59 -170 158s81 171 216 171z" />
    <glyph glyph-name="t" unicode="t" horiz-adv-x="424" 
d="M237 678v-128h150v-115h-150v-222c0 -74 47 -103 111 -103c15 0 32 2 49 5v-118c-18 -4 -43 -8 -79 -8c-137 0 -215 82 -215 217v229h-80v115h81v128h133z" />
    <glyph glyph-name="u" unicode="u" horiz-adv-x="616" 
d="M307 -14c-151 0 -241 97 -241 233v331h138v-331c0 -69 38 -107 103 -107c66 0 106 38 106 108v330h138v-330c0 -137 -93 -234 -244 -234z" />
    <glyph glyph-name="v" unicode="v" horiz-adv-x="577" 
d="M216 0l-200 550h147l128 -403h3l128 403h142l-201 -550h-147z" />
    <glyph glyph-name="w" unicode="w" horiz-adv-x="890" 
d="M560 0l-112 381h-3l-113 -381h-158l-150 550h145l92 -402h3l116 402h137l114 -402h3l96 402h136l-149 -550h-157z" />
    <glyph glyph-name="x" unicode="x" horiz-adv-x="568" 
d="M549 550l-184 -270l191 -280h-156l-117 185h-2l-117 -185h-149l188 275l-186 275h151l116 -183h1l115 183h149z" />
    <glyph glyph-name="y" unicode="y" horiz-adv-x="577" 
d="M565 550l-299 -760h-139l94 227l-207 533h149l128 -380h3l129 380h142z" />
    <glyph glyph-name="z" unicode="z" horiz-adv-x="533" 
d="M514 550l-279 -424h249v-126h-467l278 425h-242v125h461z" />
    <glyph glyph-name="aacute" unicode="&#xe1;" horiz-adv-x="675" 
d="M376 797h138l-145 -174h-107zM287 -14c-125 0 -246 115 -246 288c0 175 121 289 246 289c81 0 148 -40 186 -103l14 90h116v-550h-116l-14 90c-38 -63 -105 -104 -186 -104zM325 112c81 0 142 67 142 163s-61 163 -142 163c-83 0 -145 -68 -145 -163s62 -163 145 -163z
" />
    <glyph glyph-name="abreve" unicode="&#x103;" horiz-adv-x="675" 
d="M535 795c6 -117 -96 -171 -185 -171s-191 54 -186 171h93c2 -47 35 -84 93 -84s90 37 92 84h93zM287 -14c-125 0 -246 115 -246 288c0 175 121 289 246 289c81 0 148 -40 186 -103l14 90h116v-550h-116l-14 90c-38 -63 -105 -104 -186 -104zM325 112c81 0 142 67 142 163
s-61 163 -142 163c-83 0 -145 -68 -145 -163s62 -163 145 -163z" />
    <glyph glyph-name="acircumflex" unicode="&#xe2;" horiz-adv-x="675" 
d="M401 797l140 -174h-121l-70 93l-70 -93h-120l140 174h101zM287 -14c-125 0 -246 115 -246 288c0 175 121 289 246 289c81 0 148 -40 186 -103l14 90h116v-550h-116l-14 90c-38 -63 -105 -104 -186 -104zM325 112c81 0 142 67 142 163s-61 163 -142 163
c-83 0 -145 -68 -145 -163s62 -163 145 -163z" />
    <glyph glyph-name="adieresis" unicode="&#xe4;" horiz-adv-x="675" 
d="M239 638c-37 0 -68 30 -68 67s31 67 68 67c38 0 69 -30 69 -67s-31 -67 -69 -67zM462 638c-38 0 -68 30 -68 67s30 67 68 67s68 -30 68 -67s-30 -67 -68 -67zM287 -14c-125 0 -246 115 -246 288c0 175 121 289 246 289c81 0 148 -40 186 -103l14 90h116v-550h-116l-14 90
c-38 -63 -105 -104 -186 -104zM325 112c81 0 142 67 142 163s-61 163 -142 163c-83 0 -145 -68 -145 -163s62 -163 145 -163z" />
    <glyph glyph-name="agrave" unicode="&#xe0;" horiz-adv-x="675" 
d="M330 797l114 -174h-107l-145 174h138zM287 -14c-125 0 -246 115 -246 288c0 175 121 289 246 289c81 0 148 -40 186 -103l14 90h116v-550h-116l-14 90c-38 -63 -105 -104 -186 -104zM325 112c81 0 142 67 142 163s-61 163 -142 163c-83 0 -145 -68 -145 -163
s62 -163 145 -163z" />
    <glyph glyph-name="amacron" unicode="&#x101;" horiz-adv-x="675" 
d="M172 661v89h355v-89h-355zM287 -14c-125 0 -246 115 -246 288c0 175 121 289 246 289c81 0 148 -40 186 -103l14 90h116v-550h-116l-14 90c-38 -63 -105 -104 -186 -104zM325 112c81 0 142 67 142 163s-61 163 -142 163c-83 0 -145 -68 -145 -163s62 -163 145 -163z" />
    <glyph glyph-name="aogonek" unicode="&#x105;" horiz-adv-x="675" 
d="M603 0c-53 -29 -90 -59 -90 -91s27 -49 58 -49c11 0 27 2 32 5v-77c-7 -5 -33 -12 -61 -12c-79 0 -133 44 -133 111c0 40 20 84 76 127l-12 76c-38 -63 -105 -104 -186 -104c-125 0 -246 115 -246 288c0 175 121 289 246 289c81 0 148 -40 186 -103l14 90h116v-550z
M325 112c81 0 142 67 142 163s-61 163 -142 163c-83 0 -145 -68 -145 -163s62 -163 145 -163z" />
    <glyph glyph-name="aring" unicode="&#xe5;" horiz-adv-x="675" 
d="M351 840c67 0 117 -47 117 -109c0 -63 -50 -109 -117 -109s-118 46 -118 109c0 62 51 109 118 109zM351 781c-31 0 -53 -22 -53 -50c0 -29 22 -51 53 -51c30 0 52 22 52 51c0 28 -22 50 -52 50zM287 -14c-125 0 -246 115 -246 288c0 175 121 289 246 289
c81 0 148 -40 186 -103l14 90h116v-550h-116l-14 90c-38 -63 -105 -104 -186 -104zM325 112c81 0 142 67 142 163s-61 163 -142 163c-83 0 -145 -68 -145 -163s62 -163 145 -163z" />
    <glyph glyph-name="atilde" unicode="&#xe3;" horiz-adv-x="675" 
d="M557 776c6 -101 -52 -144 -122 -144c-73 0 -104 58 -158 58c-37 0 -51 -29 -50 -56h-85c-6 101 52 145 122 145c73 0 104 -59 158 -59c37 0 51 30 50 56h85zM287 -14c-125 0 -246 115 -246 288c0 175 121 289 246 289c81 0 148 -40 186 -103l14 90h116v-550h-116l-14 90
c-38 -63 -105 -104 -186 -104zM325 112c81 0 142 67 142 163s-61 163 -142 163c-83 0 -145 -68 -145 -163s62 -163 145 -163z" />
    <glyph glyph-name="ae" unicode="&#xe6;" horiz-adv-x="934" 
d="M894 285c0 -19 -2 -35 -4 -50h-382c17 -89 87 -137 177 -137c61 0 121 22 175 60v-118c-56 -35 -121 -54 -191 -54c-103 0 -177 38 -222 99c-47 -59 -125 -99 -212 -99c-116 0 -200 72 -200 175c0 91 68 172 205 172c48 0 101 -10 139 -18v34c0 57 -38 99 -118 99
c-65 0 -131 -27 -175 -60v118c50 33 117 57 192 57c86 0 147 -34 182 -85c47 55 115 85 190 85c131 0 244 -96 244 -278zM508 324h254c-2 83 -54 128 -118 128c-67 0 -122 -49 -136 -128zM255 95c67 0 124 47 124 111v29c-33 10 -70 16 -107 16c-78 0 -112 -36 -112 -79
c0 -45 37 -77 95 -77z" />
    <glyph glyph-name="cacute" unicode="&#x107;" horiz-adv-x="533" 
d="M334 797h138l-145 -174h-107zM180 275c0 -102 76 -163 164 -163c44 0 95 9 141 42v-129c-44 -24 -100 -39 -159 -39c-162 0 -285 122 -285 290c0 166 124 287 285 287c56 0 113 -11 159 -38v-130c-46 31 -90 43 -142 43c-87 0 -163 -62 -163 -163z" />
    <glyph glyph-name="ccaron" unicode="&#x10d;" horiz-adv-x="533" 
d="M498 797l-142 -174h-97l-142 174h121l70 -94l70 94h120zM180 275c0 -102 76 -163 164 -163c44 0 95 9 141 42v-129c-44 -24 -100 -39 -159 -39c-162 0 -285 122 -285 290c0 166 124 287 285 287c56 0 113 -11 159 -38v-130c-46 31 -90 43 -142 43
c-87 0 -163 -62 -163 -163z" />
    <glyph glyph-name="ccedilla" unicode="&#xe7;" horiz-adv-x="533" 
d="M343 438c-87 0 -163 -62 -163 -163c0 -102 76 -163 164 -163c44 0 95 9 141 42v-129c-34 -19 -76 -32 -121 -37c-6 -66 -29 -119 -67 -166h-134c46 53 83 107 91 173c-125 30 -213 139 -213 281c0 166 124 287 285 287c56 0 113 -11 159 -38v-130c-46 31 -90 43 -142 43z
" />
    <glyph glyph-name="cdotaccent" unicode="&#x10b;" horiz-adv-x="533" 
d="M307 638c-37 0 -68 30 -68 67s31 67 68 67c38 0 69 -30 69 -67s-31 -67 -69 -67zM180 275c0 -102 76 -163 164 -163c44 0 95 9 141 42v-129c-44 -24 -100 -39 -159 -39c-162 0 -285 122 -285 290c0 166 124 287 285 287c56 0 113 -11 159 -38v-130c-46 31 -90 43 -142 43
c-87 0 -163 -62 -163 -163z" />
    <glyph glyph-name="eth" unicode="&#xf0;" horiz-adv-x="653" 
d="M435 703c113 -144 174 -270 174 -408c0 -188 -123 -309 -284 -309c-160 0 -284 122 -284 286c0 166 117 279 254 279c61 0 103 -25 135 -55l2 1c-15 35 -49 89 -105 158l-94 -42l-26 58l77 34c-27 30 -57 63 -91 97h159c15 -17 29 -33 42 -49l94 41l25 -57zM325 112
c74 0 145 61 145 165c0 99 -71 159 -145 159s-145 -60 -145 -162s71 -162 145 -162z" />
    <glyph glyph-name="dcaron" unicode="&#x10f;" horiz-adv-x="743" 
d="M289 -14c-128 0 -248 113 -248 289s118 288 247 288c75 0 142 -38 177 -98v337h138v-802h-116l-14 90c-38 -63 -105 -104 -184 -104zM680 579c5 34 12 66 12 117c0 38 -6 72 -17 106h121c4 -20 7 -42 7 -65c0 -41 -6 -89 -36 -158h-87zM325 112c81 0 142 67 142 163
s-61 163 -142 163c-83 0 -145 -68 -145 -163s62 -163 145 -163z" />
    <glyph glyph-name="dcroat" unicode="&#x111;" horiz-adv-x="675" 
d="M680 722v-96h-77v-626h-116l-14 90c-38 -63 -105 -104 -184 -104c-128 0 -248 113 -248 289s118 288 247 288c75 0 142 -38 177 -98v161h-151v96h151v80h138v-80h77zM325 112c81 0 142 67 142 163s-61 163 -142 163c-83 0 -145 -68 -145 -163s62 -163 145 -163z" />
    <glyph glyph-name="eacute" unicode="&#xe9;" horiz-adv-x="603" 
d="M480 797l-145 -174h-107l114 174h138zM563 285c0 -19 -2 -35 -4 -50h-385c19 -89 90 -137 180 -137c61 0 121 22 175 60v-118c-56 -35 -121 -54 -191 -54c-186 0 -297 119 -297 287c0 176 123 290 273 290c137 0 249 -96 249 -278zM172 322h259c-2 85 -54 130 -118 130
c-68 0 -126 -50 -141 -130z" />
    <glyph glyph-name="ecaron" unicode="&#x11b;" horiz-adv-x="603" 
d="M364 623h-97l-142 174h121l70 -94l70 94h120zM563 285c0 -19 -2 -35 -4 -50h-385c19 -89 90 -137 180 -137c61 0 121 22 175 60v-118c-56 -35 -121 -54 -191 -54c-186 0 -297 119 -297 287c0 176 123 290 273 290c137 0 249 -96 249 -278zM172 322h259
c-2 85 -54 130 -118 130c-68 0 -126 -50 -141 -130z" />
    <glyph glyph-name="ecircumflex" unicode="&#xea;" horiz-adv-x="603" 
d="M316 716l-70 -93h-120l140 174h101l140 -174h-121zM563 285c0 -19 -2 -35 -4 -50h-385c19 -89 90 -137 180 -137c61 0 121 22 175 60v-118c-56 -35 -121 -54 -191 -54c-186 0 -297 119 -297 287c0 176 123 290 273 290c137 0 249 -96 249 -278zM172 322h259
c-2 85 -54 130 -118 130c-68 0 -126 -50 -141 -130z" />
    <glyph glyph-name="edieresis" unicode="&#xeb;" horiz-adv-x="603" 
d="M205 638c-37 0 -68 30 -68 67s31 67 68 67c38 0 69 -30 69 -67s-31 -67 -69 -67zM428 638c-38 0 -68 30 -68 67s30 67 68 67s68 -30 68 -67s-30 -67 -68 -67zM563 285c0 -19 -2 -35 -4 -50h-385c19 -89 90 -137 180 -137c61 0 121 22 175 60v-118
c-56 -35 -121 -54 -191 -54c-186 0 -297 119 -297 287c0 176 123 290 273 290c137 0 249 -96 249 -278zM172 322h259c-2 85 -54 130 -118 130c-68 0 -126 -50 -141 -130z" />
    <glyph glyph-name="edotaccent" unicode="&#x117;" horiz-adv-x="603" 
d="M315 638c-37 0 -68 30 -68 67s31 67 68 67c38 0 69 -30 69 -67s-31 -67 -69 -67zM563 285c0 -19 -2 -35 -4 -50h-385c19 -89 90 -137 180 -137c61 0 121 22 175 60v-118c-56 -35 -121 -54 -191 -54c-186 0 -297 119 -297 287c0 176 123 290 273 290
c137 0 249 -96 249 -278zM172 322h259c-2 85 -54 130 -118 130c-68 0 -126 -50 -141 -130z" />
    <glyph glyph-name="egrave" unicode="&#xe8;" horiz-adv-x="603" 
d="M410 623h-107l-145 174h138zM563 285c0 -19 -2 -35 -4 -50h-385c19 -89 90 -137 180 -137c61 0 121 22 175 60v-118c-56 -35 -121 -54 -191 -54c-186 0 -297 119 -297 287c0 176 123 290 273 290c137 0 249 -96 249 -278zM172 322h259c-2 85 -54 130 -118 130
c-68 0 -126 -50 -141 -130z" />
    <glyph glyph-name="emacron" unicode="&#x113;" horiz-adv-x="603" 
d="M493 750v-89h-355v89h355zM563 285c0 -19 -2 -35 -4 -50h-385c19 -89 90 -137 180 -137c61 0 121 22 175 60v-118c-56 -35 -121 -54 -191 -54c-186 0 -297 119 -297 287c0 176 123 290 273 290c137 0 249 -96 249 -278zM172 322h259c-2 85 -54 130 -118 130
c-68 0 -126 -50 -141 -130z" />
    <glyph glyph-name="eogonek" unicode="&#x119;" horiz-adv-x="603" 
d="M563 285c0 -19 -2 -35 -4 -50h-382c17 -89 87 -137 177 -137c61 0 121 22 175 60v-118c-73 -49 -125 -91 -125 -131c0 -32 27 -49 58 -49c11 0 27 2 32 5v-77c-7 -5 -33 -12 -61 -12c-79 0 -133 44 -133 111c0 31 12 64 44 99h-6c-186 0 -297 119 -297 287
c0 176 123 290 273 290c137 0 249 -96 249 -278zM177 324h254c-2 83 -54 128 -118 128c-67 0 -122 -49 -136 -128z" />
    <glyph glyph-name="gbreve" unicode="&#x11f;" horiz-adv-x="672" 
d="M537 795c6 -117 -96 -171 -185 -171s-191 54 -186 171h93c2 -47 35 -84 93 -84s90 37 92 84h93zM289 562c78 0 144 -40 181 -98l15 86h115v-488c0 -184 -128 -286 -296 -286c-76 0 -150 24 -207 65v135c55 -48 129 -78 196 -78c97 0 169 59 169 147v61
c-35 -55 -98 -95 -175 -95c-129 0 -246 111 -246 276c0 161 120 275 248 275zM323 439c-82 0 -143 -67 -143 -153s61 -153 143 -153c81 0 142 68 142 155c0 86 -61 151 -142 151z" />
    <glyph glyph-name="uni0123" unicode="&#x123;" horiz-adv-x="672" 
d="M293 629c-13 75 7 154 51 227h97c-34 -78 -43 -159 -25 -227h-123zM289 562c78 0 144 -40 181 -98l15 86h115v-488c0 -184 -128 -286 -296 -286c-76 0 -150 24 -207 65v135c55 -48 129 -78 196 -78c97 0 169 59 169 147v61c-35 -55 -98 -95 -175 -95
c-129 0 -246 111 -246 276c0 161 120 275 248 275zM323 439c-82 0 -143 -67 -143 -153s61 -153 143 -153c81 0 142 68 142 155c0 86 -61 151 -142 151z" />
    <glyph glyph-name="gdotaccent" unicode="&#x121;" horiz-adv-x="672" 
d="M351 638c-37 0 -68 30 -68 67s31 67 68 67c38 0 69 -30 69 -67s-31 -67 -69 -67zM289 562c78 0 144 -40 181 -98l15 86h115v-488c0 -184 -128 -286 -296 -286c-76 0 -150 24 -207 65v135c55 -48 129 -78 196 -78c97 0 169 59 169 147v61c-35 -55 -98 -95 -175 -95
c-129 0 -246 111 -246 276c0 161 120 275 248 275zM323 439c-82 0 -143 -67 -143 -153s61 -153 143 -153c81 0 142 68 142 155c0 86 -61 151 -142 151z" />
    <glyph glyph-name="hbar" unicode="&#x127;" horiz-adv-x="625" 
d="M362 563c119 0 195 -69 195 -197v-366h-138v326c0 76 -33 112 -99 112c-61 0 -110 -36 -110 -106v-332h-138v626h-78v96h78v80h138v-80h151v-96h-151v-133h2c31 41 86 70 150 70z" />
    <glyph glyph-name="dotlessi" unicode="&#x131;" horiz-adv-x="285" 
d="M74 0v550h138v-550h-138z" />
    <glyph glyph-name="ij" unicode="&#x133;" horiz-adv-x="571" 
d="M143 642c-44 0 -78 33 -78 76s34 77 78 77c43 0 77 -34 77 -77s-34 -76 -77 -76zM429 642c-44 0 -78 33 -78 76s34 77 78 77c43 0 77 -34 77 -77s-34 -76 -77 -76zM74 0v550h138v-550h-138zM256 -210c70 76 104 155 104 288v472h138v-461c0 -121 -23 -215 -88 -299h-154z
" />
    <glyph glyph-name="iacute" unicode="&#xed;" horiz-adv-x="285" 
d="M183 823h138l-145 -174h-107zM74 0v550h138v-550h-138z" />
    <glyph glyph-name="icircumflex" unicode="&#xee;" horiz-adv-x="285" 
d="M193 823l140 -174h-121l-70 93l-70 -93h-120l140 174h101zM74 0v550h138v-550h-138z" />
    <glyph glyph-name="idieresis" unicode="&#xef;" horiz-adv-x="285" 
d="M32 664c-37 0 -68 30 -68 67s31 67 68 67c38 0 69 -30 69 -67s-31 -67 -69 -67zM255 664c-38 0 -68 30 -68 67s30 67 68 67s68 -30 68 -67s-30 -67 -68 -67zM74 0v550h138v-550h-138z" />
    <glyph glyph-name="i.loclTRK" horiz-adv-x="285" 
d="M143 642c-44 0 -78 33 -78 76s34 77 78 77c43 0 77 -34 77 -77s-34 -76 -77 -76zM74 0v550h138v-550h-138z" />
    <glyph glyph-name="igrave" unicode="&#xec;" horiz-adv-x="285" 
d="M122 823l114 -174h-107l-145 174h138zM74 0v550h138v-550h-138z" />
    <glyph glyph-name="imacron" unicode="&#x12b;" horiz-adv-x="285" 
d="M-35 687v89h355v-89h-355zM74 0v550h138v-550h-138z" />
    <glyph glyph-name="iogonek" unicode="&#x12f;" horiz-adv-x="286" 
d="M144 642c-44 0 -78 33 -78 76s34 77 78 77c43 0 77 -34 77 -77s-34 -76 -77 -76zM75 0v550h138v-550h-1c-53 -29 -90 -59 -90 -91s27 -49 58 -49c11 0 27 2 32 5v-77c-7 -5 -33 -12 -61 -12c-79 0 -133 44 -133 111c0 36 16 74 59 113h-2z" />
    <glyph glyph-name="uni0137" unicode="&#x137;" horiz-adv-x="600" 
d="M363 288l234 -288h-171l-216 271v-271h-138v802h138v-506l214 254h166zM242 -79h123c13 -75 -7 -154 -51 -227h-97c34 78 43 159 25 227z" />
    <glyph glyph-name="lacute" unicode="&#x13a;" horiz-adv-x="285" 
d="M169 1050h138l-145 -174h-107zM74 0v802h138v-802h-138z" />
    <glyph glyph-name="lcaron" unicode="&#x13e;" horiz-adv-x="352" 
d="M74 0v802h138v-802h-138zM289 579c5 34 12 66 12 117c0 38 -6 72 -17 106h121c4 -20 7 -42 7 -65c0 -41 -6 -89 -36 -158h-87z" />
    <glyph glyph-name="uni013C" unicode="&#x13c;" horiz-adv-x="285" 
d="M74 0v802h138v-802h-138zM202 -79c13 -75 -7 -154 -51 -227h-97c34 78 43 159 25 227h123z" />
    <glyph glyph-name="ldot" unicode="&#x140;" horiz-adv-x="435" 
d="M74 0v802h138v-802h-138zM360 320c-46 0 -81 36 -81 81c0 46 35 81 81 81c45 0 81 -35 81 -81c0 -45 -36 -81 -81 -81z" />
    <glyph glyph-name="lslash" unicode="&#x142;" horiz-adv-x="426" 
d="M404 568v-122l-118 -65v-381h-138v305l-118 -65v124l118 64v374h138v-298z" />
    <glyph glyph-name="nacute" unicode="&#x144;" horiz-adv-x="624" 
d="M348 797h138l-145 -174h-107zM363 563c120 0 194 -75 194 -196v-367h-138v325c0 76 -34 112 -100 112c-63 0 -109 -45 -109 -108v-329h-138v550h107l15 -79h3c32 51 90 92 166 92z" />
    <glyph glyph-name="ncaron" unicode="&#x148;" horiz-adv-x="624" 
d="M512 797l-142 -174h-97l-142 174h121l70 -94l70 94h120zM363 563c120 0 194 -75 194 -196v-367h-138v325c0 76 -34 112 -100 112c-63 0 -109 -45 -109 -108v-329h-138v550h107l15 -79h3c32 51 90 92 166 92z" />
    <glyph glyph-name="uni0146" unicode="&#x146;" horiz-adv-x="624" 
d="M363 563c120 0 194 -75 194 -196v-367h-138v325c0 76 -34 112 -100 112c-63 0 -109 -45 -109 -108v-329h-138v550h107l15 -79h3c32 51 90 92 166 92zM373 -79c13 -75 -7 -154 -51 -227h-97c34 78 43 159 25 227h123z" />
    <glyph glyph-name="eng" unicode="&#x14b;" horiz-adv-x="624" 
d="M557 367v-278c0 -121 -22 -215 -87 -299h-154c70 76 103 155 103 288v247c0 76 -34 112 -100 112c-63 0 -109 -45 -109 -108v-329h-138v550h107l15 -79h3c32 51 90 92 166 92c120 0 194 -75 194 -196z" />
    <glyph glyph-name="ntilde" unicode="&#xf1;" horiz-adv-x="624" 
d="M529 776c6 -101 -52 -144 -122 -144c-73 0 -104 58 -158 58c-37 0 -51 -29 -50 -56h-85c-6 101 52 145 122 145c73 0 104 -59 158 -59c37 0 51 30 50 56h85zM363 563c120 0 194 -75 194 -196v-367h-138v325c0 76 -34 112 -100 112c-63 0 -109 -45 -109 -108v-329h-138
v550h107l15 -79h3c32 51 90 92 166 92z" />
    <glyph glyph-name="oacute" unicode="&#xf3;" horiz-adv-x="649" 
d="M351 797h138l-145 -174h-107zM325 -14c-161 0 -284 120 -284 289s124 288 284 288c161 0 283 -119 283 -288c0 -168 -122 -289 -283 -289zM325 112c74 0 144 60 144 163c0 104 -70 163 -144 163s-145 -59 -145 -163s71 -163 145 -163z" />
    <glyph glyph-name="ocircumflex" unicode="&#xf4;" horiz-adv-x="649" 
d="M376 797l140 -174h-121l-70 93l-70 -93h-120l140 174h101zM325 -14c-161 0 -284 120 -284 289s124 288 284 288c161 0 283 -119 283 -288c0 -168 -122 -289 -283 -289zM325 112c74 0 144 60 144 163c0 104 -70 163 -144 163s-145 -59 -145 -163s71 -163 145 -163z" />
    <glyph glyph-name="odieresis" unicode="&#xf6;" horiz-adv-x="649" 
d="M214 638c-37 0 -68 30 -68 67s31 67 68 67c38 0 69 -30 69 -67s-31 -67 -69 -67zM437 638c-38 0 -68 30 -68 67s30 67 68 67s68 -30 68 -67s-30 -67 -68 -67zM325 -14c-161 0 -284 120 -284 289s124 288 284 288c161 0 283 -119 283 -288c0 -168 -122 -289 -283 -289z
M325 112c74 0 144 60 144 163c0 104 -70 163 -144 163s-145 -59 -145 -163s71 -163 145 -163z" />
    <glyph glyph-name="ograve" unicode="&#xf2;" horiz-adv-x="649" 
d="M305 797l114 -174h-107l-145 174h138zM325 -14c-161 0 -284 120 -284 289s124 288 284 288c161 0 283 -119 283 -288c0 -168 -122 -289 -283 -289zM325 112c74 0 144 60 144 163c0 104 -70 163 -144 163s-145 -59 -145 -163s71 -163 145 -163z" />
    <glyph glyph-name="ohungarumlaut" unicode="&#x151;" horiz-adv-x="649" 
d="M427 797l-180 -174h-109l148 174h141zM625 797l-181 -174h-109l148 174h142zM325 -14c-161 0 -284 120 -284 289s124 288 284 288c161 0 283 -119 283 -288c0 -168 -122 -289 -283 -289zM325 112c74 0 144 60 144 163c0 104 -70 163 -144 163s-145 -59 -145 -163
s71 -163 145 -163z" />
    <glyph glyph-name="omacron" unicode="&#x14d;" horiz-adv-x="649" 
d="M147 661v89h355v-89h-355zM325 -14c-161 0 -284 120 -284 289s124 288 284 288c161 0 283 -119 283 -288c0 -168 -122 -289 -283 -289zM325 112c74 0 144 60 144 163c0 104 -70 163 -144 163s-145 -59 -145 -163s71 -163 145 -163z" />
    <glyph glyph-name="oslash" unicode="&#xf8;" horiz-adv-x="651" 
d="M553 453c35 -47 56 -108 56 -178c0 -168 -122 -289 -283 -289c-64 0 -123 19 -169 53l-51 -53l-56 53l51 54c-37 48 -59 111 -59 182c0 169 124 288 284 288c66 0 125 -20 172 -55l52 54l55 -54zM167 275c0 -36 8 -66 21 -91l228 237c-27 19 -58 29 -90 29
c-81 0 -159 -63 -159 -175zM326 100c81 0 158 64 158 175c0 33 -7 63 -19 87l-225 -236c25 -17 56 -26 86 -26z" />
    <glyph glyph-name="otilde" unicode="&#xf5;" horiz-adv-x="649" 
d="M532 776c6 -101 -52 -144 -122 -144c-73 0 -104 58 -158 58c-37 0 -51 -29 -50 -56h-85c-6 101 52 145 122 145c73 0 104 -59 158 -59c37 0 51 30 50 56h85zM325 -14c-161 0 -284 120 -284 289s124 288 284 288c161 0 283 -119 283 -288c0 -168 -122 -289 -283 -289z
M325 112c74 0 144 60 144 163c0 104 -70 163 -144 163s-145 -59 -145 -163s71 -163 145 -163z" />
    <glyph glyph-name="oe" unicode="&#x153;" horiz-adv-x="1029" 
d="M989 285c0 -19 -1 -35 -3 -50h-383c18 -89 87 -137 177 -137c62 0 122 22 176 60v-118c-57 -35 -121 -54 -192 -54c-99 0 -173 34 -228 97c-50 -55 -123 -97 -212 -97c-160 0 -283 120 -283 289s123 288 283 288c93 0 160 -38 212 -94c45 55 110 94 205 94
c136 0 248 -96 248 -278zM603 324h255c-2 83 -55 128 -118 128c-67 0 -122 -49 -137 -128zM324 111c75 0 146 60 146 164c0 105 -71 163 -146 163s-146 -58 -146 -163s71 -164 146 -164z" />
    <glyph glyph-name="thorn" unicode="&#xfe;" horiz-adv-x="674" 
d="M210 802v-338c37 61 107 94 178 94c132 0 244 -111 244 -283s-112 -283 -244 -283c-71 0 -138 30 -178 95v-297h-138v1012h138zM349 434c-79 0 -140 -63 -140 -159s61 -159 140 -159s141 63 141 159c0 97 -62 159 -141 159z" />
    <glyph glyph-name="racute" unicode="&#x155;" horiz-adv-x="406" 
d="M270 798h138l-145 -174h-107zM72 0v550h110l14 -84h2c37 68 103 90 152 90c15 0 28 -1 40 -4v-129c-15 3 -29 4 -44 4c-69 0 -136 -39 -136 -144v-283h-138z" />
    <glyph glyph-name="rcaron" unicode="&#x159;" horiz-adv-x="406" 
d="M434 798l-142 -174h-97l-142 174h121l70 -94l70 94h120zM72 0v550h110l14 -84h2c37 68 103 90 152 90c15 0 28 -1 40 -4v-129c-15 3 -29 4 -44 4c-69 0 -136 -39 -136 -144v-283h-138z" />
    <glyph glyph-name="uni0157" unicode="&#x157;" horiz-adv-x="406" 
d="M72 0v550h110l14 -84h2c37 68 103 90 152 90c15 0 28 -1 40 -4v-129c-15 3 -29 4 -44 4c-69 0 -136 -39 -136 -144v-283h-138zM200 -79c13 -75 -7 -154 -51 -227h-97c34 78 43 159 25 227h123z" />
    <glyph glyph-name="sacute" unicode="&#x15b;" horiz-adv-x="511" 
d="M294 797h138l-145 -174h-107zM267 563c64 0 130 -17 171 -44v-121c-39 29 -103 51 -166 51c-56 0 -87 -21 -87 -54c0 -35 36 -49 103 -67c88 -23 184 -53 184 -167c0 -106 -83 -175 -225 -175c-77 0 -145 21 -194 56v131c45 -40 108 -72 188 -72c62 0 97 23 97 59
c0 39 -43 52 -117 74c-89 25 -170 59 -170 158s81 171 216 171z" />
    <glyph glyph-name="scaron" unicode="&#x161;" horiz-adv-x="511" 
d="M458 797l-142 -174h-97l-142 174h121l70 -94l70 94h120zM267 563c64 0 130 -17 171 -44v-121c-39 29 -103 51 -166 51c-56 0 -87 -21 -87 -54c0 -35 36 -49 103 -67c88 -23 184 -53 184 -167c0 -106 -83 -175 -225 -175c-77 0 -145 21 -194 56v131
c45 -40 108 -72 188 -72c62 0 97 23 97 59c0 39 -43 52 -117 74c-89 25 -170 59 -170 158s81 171 216 171z" />
    <glyph glyph-name="uni015F" unicode="&#x15f;" horiz-adv-x="511" 
d="M472 161c0 -92 -62 -155 -170 -171c-5 -67 -28 -121 -67 -168h-134c45 51 81 104 90 168c-54 7 -101 26 -138 52v131c45 -40 108 -72 188 -72c62 0 97 23 97 59c0 39 -43 52 -117 74c-89 25 -170 59 -170 158s81 171 216 171c64 0 130 -17 171 -44v-121
c-39 29 -103 51 -166 51c-56 0 -87 -21 -87 -54c0 -35 36 -49 103 -67c88 -23 184 -53 184 -167z" />
    <glyph glyph-name="uni0219" unicode="&#x219;" horiz-adv-x="511" 
d="M267 563c64 0 130 -17 171 -44v-121c-39 29 -103 51 -166 51c-56 0 -87 -21 -87 -54c0 -35 36 -49 103 -67c88 -23 184 -53 184 -167c0 -106 -83 -175 -225 -175c-77 0 -145 21 -194 56v131c45 -40 108 -72 188 -72c62 0 97 23 97 59c0 39 -43 52 -117 74
c-89 25 -170 59 -170 158s81 171 216 171zM305 -79c13 -75 -7 -154 -51 -227h-97c34 78 43 159 25 227h123z" />
    <glyph glyph-name="germandbls" unicode="&#xdf;" horiz-adv-x="689" 
d="M72 538c0 172 104 272 264 272c148 0 237 -88 237 -196c0 -79 -39 -132 -90 -158v-1c95 -27 167 -96 167 -217c0 -155 -115 -246 -262 -246c-36 0 -77 6 -98 13v118c20 -6 46 -11 73 -11c83 0 151 44 151 133c0 81 -57 128 -154 128h-60v98h19c77 0 123 49 123 112
c0 62 -45 107 -111 107c-68 0 -119 -47 -119 -131v-559h-140v538z" />
    <glyph glyph-name="tbar" unicode="&#x167;" horiz-adv-x="430" 
d="M353 110c15 0 32 2 49 5v-118c-18 -4 -43 -8 -79 -8c-137 0 -215 82 -215 217v30h-80v95h80v104h-80v115h81v128h133v-128h150v-115h-150v-104h149v-95h-149v-23c0 -74 47 -103 111 -103z" />
    <glyph glyph-name="tcaron" unicode="&#x165;" horiz-adv-x="424" 
d="M315 609c5 26 10 60 10 96c0 32 -7 68 -16 97h121c5 -17 7 -39 7 -59c0 -37 -9 -84 -28 -134h-94zM238 678v-128h150v-115h-150v-222c0 -74 47 -103 111 -103c15 0 32 2 49 5v-118c-18 -4 -43 -8 -79 -8c-137 0 -215 82 -215 217v229h-80v115h81v128h133z" />
    <glyph glyph-name="uni0163" unicode="&#x163;" horiz-adv-x="425" 
d="M399 115v-118c-17 -4 -41 -8 -74 -8c-5 -66 -29 -120 -67 -167h-134c50 56 89 115 92 187c-72 32 -111 101 -111 197v229h-80v115h81v128h133v-128h150v-115h-150v-222c0 -74 47 -103 111 -103c15 0 32 2 49 5z" />
    <glyph glyph-name="uni021B" unicode="&#x21b;" horiz-adv-x="424" 
d="M238 678v-128h150v-115h-150v-222c0 -74 47 -103 111 -103c15 0 32 2 49 5v-118c-18 -4 -43 -8 -79 -8c-137 0 -215 82 -215 217v229h-80v115h81v128h133zM327 -79c13 -75 -7 -154 -51 -227h-97c34 78 43 159 25 227h123z" />
    <glyph glyph-name="uacute" unicode="&#xfa;" horiz-adv-x="616" 
d="M334 797h138l-145 -174h-107zM307 -14c-151 0 -241 97 -241 233v331h138v-331c0 -69 38 -107 103 -107c66 0 106 38 106 108v330h138v-330c0 -137 -93 -234 -244 -234z" />
    <glyph glyph-name="ucircumflex" unicode="&#xfb;" horiz-adv-x="616" 
d="M359 797l140 -174h-121l-70 93l-70 -93h-120l140 174h101zM307 -14c-151 0 -241 97 -241 233v331h138v-331c0 -69 38 -107 103 -107c66 0 106 38 106 108v330h138v-330c0 -137 -93 -234 -244 -234z" />
    <glyph glyph-name="udieresis" unicode="&#xfc;" horiz-adv-x="616" 
d="M197 638c-37 0 -68 30 -68 67s31 67 68 67c38 0 69 -30 69 -67s-31 -67 -69 -67zM420 638c-38 0 -68 30 -68 67s30 67 68 67s68 -30 68 -67s-30 -67 -68 -67zM307 -14c-151 0 -241 97 -241 233v331h138v-331c0 -69 38 -107 103 -107c66 0 106 38 106 108v330h138v-330
c0 -137 -93 -234 -244 -234z" />
    <glyph glyph-name="ugrave" unicode="&#xf9;" horiz-adv-x="616" 
d="M288 797l114 -174h-107l-145 174h138zM307 -14c-151 0 -241 97 -241 233v331h138v-331c0 -69 38 -107 103 -107c66 0 106 38 106 108v330h138v-330c0 -137 -93 -234 -244 -234z" />
    <glyph glyph-name="uhungarumlaut" unicode="&#x171;" horiz-adv-x="616" 
d="M410 797l-180 -174h-109l148 174h141zM608 797l-181 -174h-109l148 174h142zM307 -14c-151 0 -241 97 -241 233v331h138v-331c0 -69 38 -107 103 -107c66 0 106 38 106 108v330h138v-330c0 -137 -93 -234 -244 -234z" />
    <glyph glyph-name="umacron" unicode="&#x16b;" horiz-adv-x="616" 
d="M130 661v89h355v-89h-355zM307 -14c-151 0 -241 97 -241 233v331h138v-331c0 -69 38 -107 103 -107c66 0 106 38 106 108v330h138v-330c0 -137 -93 -234 -244 -234z" />
    <glyph glyph-name="uogonek" unicode="&#x173;" horiz-adv-x="616" 
d="M413 550h138v-330c0 -89 -39 -158 -108 -200c-63 -42 -103 -76 -103 -113c0 -33 27 -49 58 -49c11 0 27 3 32 5v-77c-7 -4 -36 -11 -63 -11c-79 0 -131 43 -131 109c0 32 14 67 49 103c-138 9 -219 103 -219 232v331h138v-331c0 -68 37 -107 103 -107s106 38 106 108v330
z" />
    <glyph glyph-name="uring" unicode="&#x16f;" horiz-adv-x="616" 
d="M309 840c67 0 117 -47 117 -109c0 -63 -50 -109 -117 -109s-118 46 -118 109c0 62 51 109 118 109zM309 781c-31 0 -53 -22 -53 -50c0 -29 22 -51 53 -51c30 0 52 22 52 51c0 28 -22 50 -52 50zM307 -14c-151 0 -241 97 -241 233v331h138v-331c0 -69 38 -107 103 -107
c66 0 106 38 106 108v330h138v-330c0 -137 -93 -234 -244 -234z" />
    <glyph glyph-name="wacute" unicode="&#x1e83;" horiz-adv-x="890" 
d="M474 797h138l-145 -174h-107zM560 0l-112 381h-3l-113 -381h-158l-150 550h145l92 -402h3l116 402h137l114 -402h3l96 402h136l-149 -550h-157z" />
    <glyph glyph-name="wcircumflex" unicode="&#x175;" horiz-adv-x="890" 
d="M499 797l140 -174h-121l-70 93l-70 -93h-120l140 174h101zM560 0l-112 381h-3l-113 -381h-158l-150 550h145l92 -402h3l116 402h137l114 -402h3l96 402h136l-149 -550h-157z" />
    <glyph glyph-name="wdieresis" unicode="&#x1e85;" horiz-adv-x="890" 
d="M337 638c-37 0 -68 30 -68 67s31 67 68 67c38 0 69 -30 69 -67s-31 -67 -69 -67zM560 638c-38 0 -68 30 -68 67s30 67 68 67s68 -30 68 -67s-30 -67 -68 -67zM560 0l-112 381h-3l-113 -381h-158l-150 550h145l92 -402h3l116 402h137l114 -402h3l96 402h136l-149 -550
h-157z" />
    <glyph glyph-name="wgrave" unicode="&#x1e81;" horiz-adv-x="890" 
d="M428 797l114 -174h-107l-145 174h138zM560 0l-112 381h-3l-113 -381h-158l-150 550h145l92 -402h3l116 402h137l114 -402h3l96 402h136l-149 -550h-157z" />
    <glyph glyph-name="yacute" unicode="&#xfd;" horiz-adv-x="577" 
d="M319 797h138l-145 -174h-107zM565 550l-299 -760h-139l94 227l-207 533h149l128 -380h3l129 380h142z" />
    <glyph glyph-name="ycircumflex" unicode="&#x177;" horiz-adv-x="577" 
d="M344 797l140 -174h-121l-70 93l-70 -93h-120l140 174h101zM565 550l-299 -760h-139l94 227l-207 533h149l128 -380h3l129 380h142z" />
    <glyph glyph-name="ydieresis" unicode="&#xff;" horiz-adv-x="577" 
d="M182 638c-37 0 -68 30 -68 67s31 67 68 67c38 0 69 -30 69 -67s-31 -67 -69 -67zM405 638c-38 0 -68 30 -68 67s30 67 68 67s68 -30 68 -67s-30 -67 -68 -67zM565 550l-299 -760h-139l94 227l-207 533h149l128 -380h3l129 380h142z" />
    <glyph glyph-name="ygrave" unicode="&#x1ef3;" horiz-adv-x="577" 
d="M273 797l114 -174h-107l-145 174h138zM565 550l-299 -760h-139l94 227l-207 533h149l128 -380h3l129 380h142z" />
    <glyph glyph-name="zacute" unicode="&#x17a;" horiz-adv-x="533" 
d="M300 797h138l-145 -174h-107zM514 550l-279 -424h249v-126h-467l278 425h-242v125h461z" />
    <glyph glyph-name="zcaron" unicode="&#x17e;" horiz-adv-x="533" 
d="M464 797l-142 -174h-97l-142 174h121l70 -94l70 94h120zM514 550l-279 -424h249v-126h-467l278 425h-242v125h461z" />
    <glyph glyph-name="zdotaccent" unicode="&#x17c;" horiz-adv-x="533" 
d="M273 638c-37 0 -68 30 -68 67s31 67 68 67c38 0 69 -30 69 -67s-31 -67 -69 -67zM514 550l-279 -424h249v-126h-467l278 425h-242v125h461z" />
    <glyph glyph-name="ordmasculine" unicode="&#xba;" horiz-adv-x="526" 
d="M263 756c126 0 222 -92 222 -224s-96 -225 -222 -225c-125 0 -221 92 -221 225c0 132 96 224 221 224zM263 654c-56 0 -109 -44 -109 -122c0 -79 53 -123 109 -123s109 44 109 123c0 78 -53 122 -109 122z" />
    <glyph glyph-name="ordfeminine" unicode="&#xaa;" horiz-adv-x="555" 
d="M482 745v-427h-95l-12 68c-28 -47 -79 -79 -143 -79c-96 0 -189 90 -189 223c0 137 93 226 189 226c64 0 115 -32 143 -79l12 68h95zM264 654c-62 0 -108 -52 -108 -123c0 -70 46 -122 108 -122c61 0 107 51 107 123c0 71 -46 122 -107 122z" />
    <glyph glyph-name="ampersand" unicode="&#x26;" horiz-adv-x="777" 
d="M749 0h-154l-72 75c-60 -58 -133 -91 -219 -91c-144 0 -245 90 -245 216c0 103 67 158 149 201c-55 59 -93 109 -93 174c0 104 93 187 221 187c126 0 214 -81 214 -189c0 -100 -74 -153 -163 -198l129 -133l98 159h132l-154 -239zM336 656c-58 0 -97 -37 -97 -83
c0 -34 23 -66 77 -123c68 31 117 64 117 118c0 47 -36 88 -97 88zM315 93c45 0 90 17 133 59l-167 173c-55 -30 -92 -63 -92 -119c0 -66 52 -113 126 -113z" />
    <glyph glyph-name="period" unicode="." horiz-adv-x="267" 
d="M134 -6c-46 0 -81 36 -81 81c0 46 35 81 81 81c45 0 81 -35 81 -81c0 -45 -36 -81 -81 -81z" />
    <glyph glyph-name="comma" unicode="," horiz-adv-x="264" 
d="M31 -134c25 85 41 160 41 244v52h125v-43c0 -83 -33 -178 -66 -253h-100z" />
    <glyph glyph-name="colon" unicode=":" horiz-adv-x="288" 
d="M145 327c-46 0 -81 36 -81 81c0 46 35 81 81 81c45 0 81 -35 81 -81c0 -45 -36 -81 -81 -81zM145 -6c-46 0 -81 36 -81 81c0 46 35 81 81 81c45 0 81 -35 81 -81c0 -45 -36 -81 -81 -81z" />
    <glyph glyph-name="semicolon" unicode=";" horiz-adv-x="288" 
d="M144 327c-46 0 -81 36 -81 81c0 46 35 81 81 81c45 0 81 -35 81 -81c0 -45 -36 -81 -81 -81zM49 -134c25 85 41 160 41 244v52h125v-43c0 -83 -33 -178 -66 -253h-100z" />
    <glyph glyph-name="ellipsis" unicode="&#x2026;" horiz-adv-x="884" 
d="M134 -6c-46 0 -81 36 -81 81c0 46 35 81 81 81c45 0 81 -35 81 -81c0 -45 -36 -81 -81 -81zM443 -6c-46 0 -81 36 -81 81c0 46 35 81 81 81c45 0 81 -35 81 -81c0 -45 -36 -81 -81 -81zM751 -6c-46 0 -81 36 -81 81c0 46 35 81 81 81c45 0 81 -35 81 -81
c0 -45 -36 -81 -81 -81z" />
    <glyph glyph-name="exclam" unicode="!" horiz-adv-x="281" 
d="M92 250l-24 495h145l-24 -495h-97zM141 -6c-45 0 -81 36 -81 81c0 46 36 81 81 81c46 0 81 -35 81 -81c0 -45 -35 -81 -81 -81z" />
    <glyph glyph-name="exclamdown" unicode="&#xa1;" horiz-adv-x="281" 
d="M222 668c0 -46 -35 -81 -81 -81c-45 0 -81 35 -81 81c0 45 36 81 81 81c46 0 81 -36 81 -81zM92 493h97l24 -495h-145z" />
    <glyph glyph-name="question" unicode="?" horiz-adv-x="525" 
d="M248 762c142 0 231 -103 231 -212c0 -101 -70 -169 -172 -283h-135c104 124 164 179 164 249c0 68 -48 115 -120 115c-64 0 -127 -42 -169 -87v142c47 43 119 76 201 76zM241 156c45 0 81 -35 81 -81c0 -45 -36 -81 -81 -81c-46 0 -81 36 -81 81c0 46 35 81 81 81z" />
    <glyph glyph-name="questiondown" unicode="&#xbf;" horiz-adv-x="526" 
d="M285 589c-45 0 -81 35 -81 81c0 45 36 81 81 81c46 0 81 -36 81 -81c0 -46 -35 -81 -81 -81zM278 -17c-142 0 -231 103 -231 212c0 101 70 169 172 283h135c-104 -124 -164 -179 -164 -249c0 -68 48 -115 120 -115c64 0 127 42 169 87v-142c-47 -43 -119 -76 -201 -76z
" />
    <glyph glyph-name="quotesingle" unicode="'" horiz-adv-x="235" 
d="M80 456l-24 289h123l-24 -289h-75z" />
    <glyph glyph-name="quotedbl" unicode="&#x22;" horiz-adv-x="427" 
d="M80 456l-24 289h123l-24 -289h-75zM272 456l-24 289h123l-24 -289h-75z" />
    <glyph glyph-name="quoteleft" unicode="&#x2018;" horiz-adv-x="266" 
d="M224 746c-25 -85 -41 -160 -41 -244v-52h-125v43c0 83 33 178 66 253h100z" />
    <glyph glyph-name="quoteright" unicode="&#x2019;" horiz-adv-x="265" 
d="M52 450c25 85 41 160 41 244v52h125v-43c0 -83 -33 -178 -66 -253h-100z" />
    <glyph glyph-name="quotedblleft" unicode="&#x201c;" horiz-adv-x="480" 
d="M224 746c-25 -85 -41 -160 -41 -244v-52h-125v43c0 83 33 178 66 253h100zM437 746c-25 -85 -41 -160 -41 -244v-52h-125v43c0 83 33 178 66 253h100z" />
    <glyph glyph-name="quotedblright" unicode="&#x201d;" horiz-adv-x="477" 
d="M52 450c25 85 41 160 41 244v52h125v-43c0 -83 -33 -178 -66 -253h-100zM264 450c25 85 41 160 41 244v52h125v-43c0 -83 -33 -178 -66 -253h-100z" />
    <glyph glyph-name="quotesinglbase" unicode="&#x201a;" horiz-adv-x="264" 
d="M31 -134c25 85 41 160 41 244v52h125v-43c0 -83 -33 -178 -66 -253h-100z" />
    <glyph glyph-name="quotedblbase" unicode="&#x201e;" horiz-adv-x="481" 
d="M31 -135c25 85 41 160 41 244v52h125v-43c0 -83 -33 -178 -66 -253h-100zM248 -135c25 85 41 160 41 244v52h125v-43c0 -83 -33 -178 -66 -253h-100z" />
    <glyph glyph-name="guilsinglleft" unicode="&#x2039;" horiz-adv-x="387" 
d="M327 540v-134l-172 -131l172 -131v-134l-287 226v78z" />
    <glyph glyph-name="guilsinglright" unicode="&#x203a;" horiz-adv-x="387" 
d="M60 10v134l172 131l-172 131v134l287 -226v-78z" />
    <glyph glyph-name="guillemotleft" unicode="&#xab;" horiz-adv-x="669" 
d="M327 540v-134l-172 -131l172 -131v-134l-287 226v78zM609 540v-134l-172 -131l172 -131v-134l-287 226v78z" />
    <glyph glyph-name="guillemotright" unicode="&#xbb;" horiz-adv-x="669" 
d="M60 10v134l172 131l-172 131v134l287 -226v-78zM342 10v134l172 131l-172 131v134l287 -226v-78z" />
    <glyph glyph-name="hyphen" unicode="-" horiz-adv-x="414" 
d="M67 265v108h281v-108h-281z" />
    <glyph glyph-name="uni00AD" unicode="&#xad;" horiz-adv-x="414" 
d="M67 265v108h281v-108h-281z" />
    <glyph glyph-name="endash" unicode="&#x2013;" horiz-adv-x="508" 
d="M67 265v108h375v-108h-375z" />
    <glyph glyph-name="emdash" unicode="&#x2014;" horiz-adv-x="803" 
d="M67 265v108h670v-108h-670z" />
    <glyph glyph-name="periodcentered" unicode="&#xb7;" horiz-adv-x="279" 
d="M140 292c-46 0 -81 36 -81 81c0 46 35 81 81 81c45 0 81 -35 81 -81c0 -45 -36 -81 -81 -81z" />
    <glyph glyph-name="bullet" unicode="&#x2022;" horiz-adv-x="428" 
d="M79 371c0 75 60 135 135 135s135 -60 135 -135s-60 -135 -135 -135s-135 60 -135 135z" />
    <glyph glyph-name="underscore" unicode="_" horiz-adv-x="527" 
d="M0 -178v108h527v-108h-527z" />
    <glyph glyph-name="slash" unicode="/" horiz-adv-x="530" 
d="M31 -134l336 1012h132l-337 -1012h-131z" />
    <glyph glyph-name="backslash" unicode="\" horiz-adv-x="530" 
d="M499 -134h-131l-337 1012h132z" />
    <glyph glyph-name="fraction" unicode="&#x2044;" horiz-adv-x="185" 
d="M-198 0l491 745h93l-491 -745h-93z" />
    <glyph glyph-name="bar" unicode="|" horiz-adv-x="268" 
d="M73 -183v1108h122v-1108h-122z" />
    <glyph glyph-name="brokenbar" unicode="&#xa6;" horiz-adv-x="267" 
d="M80 480v445h107v-445h-107zM187 263v-446h-107v446h107z" />
    <glyph glyph-name="parenleft" unicode="(" horiz-adv-x="360" 
d="M357 745c-94 -92 -183 -248 -183 -435c0 -188 89 -344 183 -437h-138c-106 115 -173 264 -173 438c0 169 67 319 173 434h138z" />
    <glyph glyph-name="parenright" unicode=")" horiz-adv-x="360" 
d="M3 745h138c106 -115 173 -265 173 -434c0 -174 -67 -323 -173 -438h-138c94 93 183 249 183 437c0 187 -89 343 -183 435z" />
    <glyph glyph-name="bracketleft" unicode="[" horiz-adv-x="361" 
d="M72 -210v1012h260v-104h-148v-804h148v-104h-260z" />
    <glyph glyph-name="bracketright" unicode="]" horiz-adv-x="361" 
d="M289 -210h-260v104h148v804h-148v104h260v-1012z" />
    <glyph glyph-name="braceleft" unicode="{" horiz-adv-x="366" 
d="M334 776v-101c-77 8 -102 -26 -102 -80v-166c0 -60 -21 -123 -89 -147v-1c68 -23 89 -86 89 -147v-165c0 -53 26 -87 102 -80v-100c-137 -19 -209 53 -209 166v175c0 43 -15 94 -103 108v87c88 14 103 65 103 108v177c0 113 72 184 209 166z" />
    <glyph glyph-name="braceright" unicode="}" horiz-adv-x="366" 
d="M241 610v-177c0 -43 15 -94 103 -108v-87c-88 -14 -103 -65 -103 -108v-175c0 -113 -72 -185 -209 -166v100c76 -7 102 27 102 80v165c0 61 21 124 89 147v1c-68 24 -89 87 -89 147v166c0 54 -25 88 -102 80v101c137 18 209 -53 209 -166z" />
    <glyph glyph-name="asterisk" unicode="*" horiz-adv-x="583" 
d="M350 802l-25 -174l169 75l40 -114l-186 -29l130 -127l-97 -71l-89 156h-1l-89 -156l-97 71l126 127l-181 29l36 115l167 -76l-24 174h121z" />
    <glyph glyph-name="dagger" unicode="&#x2020;" horiz-adv-x="577" 
d="M233 -210v638h-198v105h198v212h112v-212h198v-105h-198v-638h-112z" />
    <glyph glyph-name="daggerdbl" unicode="&#x2021;" horiz-adv-x="630" 
d="M371 745v-212h198v-105h-198v-322h198v-106h-198v-210h-112v210h-198v106h198v322h-198v105h198v212h112z" />
    <glyph glyph-name="section" unicode="&#xa7;" horiz-adv-x="561" 
d="M407 149c45 -30 80 -74 80 -143c0 -110 -92 -194 -227 -194c-74 0 -141 25 -184 57v130c42 -44 113 -77 177 -77c54 0 103 28 103 76c0 50 -49 71 -124 104c-78 33 -176 77 -176 184c0 67 39 122 106 151c-44 29 -79 70 -79 137c0 107 90 188 228 188
c56 0 118 -14 161 -39v-124c-45 32 -100 52 -158 52c-66 0 -101 -32 -101 -70c0 -42 36 -61 102 -88c86 -36 196 -76 196 -189c0 -69 -41 -125 -104 -155zM183 303c0 -48 45 -71 109 -98c4 -2 8 -3 12 -5c45 10 80 40 80 86c0 49 -43 71 -112 99c-57 -7 -89 -44 -89 -82z
" />
    <glyph glyph-name="paragraph" unicode="&#xb6;" horiz-adv-x="715" 
d="M341 -210v459h-30c-165 0 -278 101 -278 246c0 149 113 250 284 250h314v-955h-111v848h-67v-848h-112z" />
    <glyph glyph-name="copyright" unicode="&#xa9;" horiz-adv-x="888" 
d="M444 762c219 0 393 -177 393 -390c0 -212 -174 -389 -393 -389s-392 177 -392 389c0 213 173 390 392 390zM134 372c0 -169 135 -309 310 -309s311 140 311 309c0 170 -136 311 -311 311s-310 -141 -310 -311zM568 186c-28 -15 -63 -25 -112 -25c-110 0 -209 84 -209 211
c0 128 99 212 209 212c49 0 84 -10 112 -25v-88c-31 21 -60 32 -99 32c-70 0 -132 -53 -132 -131c0 -77 62 -130 132 -130c39 0 67 10 99 32v-88z" />
    <glyph glyph-name="registered" unicode="&#xae;" horiz-adv-x="888" 
d="M444 762c219 0 393 -177 393 -390c0 -212 -174 -389 -393 -389s-392 177 -392 389c0 213 173 390 392 390zM444 63c175 0 311 140 311 309c0 170 -136 311 -311 311s-310 -141 -310 -311c0 -169 135 -309 310 -309zM593 447c0 -63 -52 -107 -108 -120l132 -155h-100
l-116 146h-8v-146h-79v409h116c104 0 163 -55 163 -134zM393 385h33c52 0 86 22 86 63c0 46 -39 61 -94 61h-25v-124z" />
    <glyph glyph-name="trademark" unicode="&#x2122;" horiz-adv-x="998" 
d="M380 745v-102h-117v-327h-102v327h-117v102h336zM872 745l65 -429h-101l-36 281h-3l-90 -281h-76l-88 280h-3l-38 -280h-100l65 429h114l90 -271h1l88 271h112z" />
    <glyph glyph-name="at" unicode="@" horiz-adv-x="1002" 
d="M638 47h-44l1 70c-38 -53 -87 -81 -143 -81c-96 0 -178 77 -178 207c0 139 96 257 218 257c62 0 116 -30 142 -87l25 77h96l-54 -354c81 32 148 121 148 237c0 159 -137 255 -303 255c-197 0 -381 -140 -381 -376c0 -227 172 -333 376 -333c48 0 108 5 164 23l-15 -100
c-54 -14 -107 -21 -164 -21c-258 0 -475 140 -475 419c0 296 229 489 502 489c218 0 396 -134 396 -340c0 -184 -127 -342 -311 -342zM490 138c73 0 122 68 122 147c0 68 -37 113 -95 113c-72 0 -124 -69 -124 -150c0 -74 44 -110 97 -110z" />
    <glyph glyph-name="numbersign" unicode="#" horiz-adv-x="760" 
d="M714 444h-133l-24 -143h123v-106h-140l-31 -195h-121l31 195h-138l-31 -195h-121l31 195h-114v106h131l24 143h-121v106h138l31 195h121l-31 -195h138l31 195h121l-31 -195h116v-106zM436 301l24 143h-138l-24 -143h138z" />
    <glyph glyph-name="zero" unicode="0" horiz-adv-x="703" 
d="M351 762c165 0 298 -149 298 -390c0 -240 -133 -389 -298 -389c-164 0 -296 149 -296 389c0 241 132 390 296 390zM351 632c-87 0 -156 -95 -156 -260c0 -164 69 -258 156 -258c88 0 160 95 160 258c0 165 -72 260 -160 260z" />
    <glyph glyph-name="one" unicode="1" horiz-adv-x="468" 
d="M208 0v564l-172 -71v140l299 118h11v-751h-138z" />
    <glyph glyph-name="two" unicode="2" horiz-adv-x="609" 
d="M30 0c322 370 355 426 355 505c0 68 -50 127 -134 127c-74 0 -139 -39 -181 -86v144c45 40 121 72 204 72c156 0 255 -104 255 -244c0 -112 -91 -225 -242 -390h272v-128h-529z" />
    <glyph glyph-name="three" unicode="3" horiz-adv-x="593" 
d="M74 696c46 39 116 66 198 66c156 0 243 -96 243 -204c0 -75 -40 -136 -105 -168v-3c68 -26 129 -88 129 -183c0 -113 -94 -220 -268 -220c-83 0 -156 24 -214 71v141c48 -52 115 -86 194 -86c87 0 146 45 146 109c0 62 -52 106 -150 106h-94v109h76c102 0 149 44 149 103
c0 55 -45 99 -129 99c-73 0 -135 -30 -175 -72v132z" />
    <glyph glyph-name="four" unicode="4" horiz-adv-x="678" 
d="M640 281v-115h-122v-166h-130v166h-357v82l366 497h121v-464h122zM179 281h209v286l-209 -284v-2z" />
    <glyph glyph-name="five" unicode="5" horiz-adv-x="586" 
d="M501 745v-127h-256l-30 -157c16 5 43 10 68 10c164 0 254 -112 254 -233c0 -126 -91 -255 -280 -255c-81 0 -154 25 -206 65v148c51 -51 123 -81 194 -81c92 0 147 52 147 121c0 71 -55 125 -160 125c-55 0 -95 -14 -127 -29l-21 15l62 398h355z" />
    <glyph glyph-name="six" unicode="6" horiz-adv-x="638" 
d="M351 492c127 0 249 -101 249 -242c0 -148 -113 -267 -277 -267s-277 119 -277 263c0 90 45 167 110 244l206 255h167l-205 -254c9 0 18 1 27 1zM322 108c82 0 139 65 139 139c0 91 -73 141 -153 141c-26 0 -52 -5 -77 -16c-32 -41 -48 -77 -48 -124
c0 -74 57 -140 139 -140z" />
    <glyph glyph-name="seven" unicode="7" horiz-adv-x="584" 
d="M50 0l326 618h-327v127h533l-384 -745h-148z" />
    <glyph glyph-name="eight" unicode="8" horiz-adv-x="654" 
d="M472 384c84 -32 128 -103 128 -184c0 -118 -102 -217 -273 -217c-168 0 -272 100 -272 217c0 78 44 153 127 184v2c-59 29 -106 86 -106 169c0 108 92 207 251 207s251 -99 251 -206c0 -84 -47 -141 -106 -170v-2zM206 538c0 -59 48 -106 121 -106c74 0 122 47 122 106
c0 55 -47 107 -122 107s-121 -51 -121 -107zM327 327c-83 0 -134 -51 -134 -114c0 -59 49 -113 134 -113c87 0 136 54 136 113c0 63 -52 114 -136 114z" />
    <glyph glyph-name="nine" unicode="9" horiz-adv-x="632" 
d="M314 762c164 0 273 -117 273 -261c0 -84 -41 -163 -109 -243l-209 -258h-166l202 254c-6 -1 -12 -1 -17 -1c-129 0 -249 98 -249 243s112 266 275 266zM401 373c32 42 50 78 50 126c0 75 -55 139 -136 139c-82 0 -137 -65 -137 -139c0 -84 63 -141 145 -141
c25 0 53 5 78 15z" />
    <glyph glyph-name="zero.osf" horiz-adv-x="688" 
d="M344 563c150 0 293 -109 293 -289c0 -177 -143 -288 -293 -288c-149 0 -293 109 -293 288c0 180 144 289 293 289zM344 435c-79 0 -155 -59 -155 -161c0 -101 76 -160 155 -160c80 0 156 60 156 160c0 102 -76 161 -156 161z" />
    <glyph glyph-name="one.osf" horiz-adv-x="421" 
d="M179 0v388l-138 -54v130l266 99h10v-563h-138z" />
    <glyph glyph-name="two.osf" horiz-adv-x="611" 
d="M559 128v-128h-523c288 225 341 277 341 347c1 50 -42 90 -114 90c-75 0 -136 -40 -183 -92v144c56 46 131 74 225 74c134 0 224 -75 224 -177c0 -101 -91 -180 -206 -258h236z" />
    <glyph glyph-name="three.osf" horiz-adv-x="555" 
d="M68 503c46 37 113 60 186 60c144 0 228 -89 228 -200c0 -76 -39 -147 -104 -178v-3c71 -27 127 -88 127 -185c0 -118 -84 -221 -248 -221c-71 0 -148 21 -205 61v137c45 -41 109 -73 178 -73c85 0 135 50 135 113c0 60 -47 109 -136 109h-81v108h63c91 0 135 51 135 107
s-45 100 -120 100c-62 0 -120 -28 -158 -68v133z" />
    <glyph glyph-name="four.osf" horiz-adv-x="661" 
d="M624 116v-116h-117v-210h-130v210h-351v82l353 468h128v-434h117zM176 116h201v274l-201 -273v-1z" />
    <glyph glyph-name="five.osf" horiz-adv-x="575" 
d="M496 550v-128h-256l-30 -163c16 5 43 11 68 11c168 0 254 -114 254 -239c0 -127 -87 -255 -278 -255c-82 0 -153 26 -208 66v147c50 -51 121 -82 196 -82c89 0 144 54 145 124c0 70 -55 128 -159 128c-55 0 -94 -13 -128 -28l-21 15l62 404h355z" />
    <glyph glyph-name="six.osf" horiz-adv-x="638" 
d="M351 492c127 0 249 -101 249 -242c0 -148 -113 -267 -277 -267s-277 119 -277 263c0 90 45 167 110 244l206 255h167l-205 -254c9 0 18 1 27 1zM322 108c82 0 139 65 139 139c0 91 -73 141 -153 141c-26 0 -52 -5 -77 -16c-32 -41 -48 -77 -48 -124
c0 -74 57 -140 139 -140z" />
    <glyph glyph-name="seven.osf" horiz-adv-x="579" 
d="M40 -210l333 632h-327v128h533l-391 -760h-148z" />
    <glyph glyph-name="eight.osf" horiz-adv-x="654" 
d="M472 384c84 -32 128 -103 128 -184c0 -118 -102 -217 -273 -217c-168 0 -272 100 -272 217c0 78 44 153 127 184v2c-59 29 -106 86 -106 169c0 108 92 207 251 207s251 -99 251 -206c0 -84 -47 -141 -106 -170v-2zM206 538c0 -59 48 -106 121 -106c74 0 122 47 122 106
c0 55 -47 107 -122 107s-121 -51 -121 -107zM327 327c-83 0 -134 -51 -134 -114c0 -59 49 -113 134 -113c87 0 136 54 136 113c0 63 -52 114 -136 114z" />
    <glyph glyph-name="nine.osf" horiz-adv-x="618" 
d="M310 563c164 0 273 -116 273 -260c0 -85 -41 -163 -109 -243l-219 -270h-166l213 266c-6 -1 -12 -1 -18 -1c-129 0 -249 97 -249 243c0 145 112 265 275 265zM397 174c32 42 50 79 50 126c0 76 -55 139 -136 139c-82 0 -137 -64 -137 -139c0 -84 63 -141 145 -141
c25 0 53 5 78 15z" />
    <glyph glyph-name="zero.tf" 
d="M342 762c154 0 276 -149 276 -390c0 -240 -121 -389 -276 -389s-279 149 -279 389c0 241 124 390 279 390zM342 632c-78 0 -140 -95 -140 -260c0 -163 62 -258 140 -258c77 0 139 95 139 258c0 165 -62 260 -139 260z" />
    <glyph glyph-name="one.tf" 
d="M589 127v-127h-461v127h165v439l-173 -73v140l300 118h11v-624h158z" />
    <glyph glyph-name="two.tf" 
d="M66 0c322 370 355 426 355 505c0 68 -50 127 -134 127c-74 0 -139 -39 -181 -86v144c45 40 121 72 204 72c156 0 255 -104 255 -244c0 -112 -91 -225 -242 -390h272v-128h-529z" />
    <glyph glyph-name="three.tf" 
d="M118 696c46 39 116 66 198 66c156 0 243 -96 243 -204c0 -75 -40 -136 -105 -168v-3c68 -26 129 -88 129 -183c0 -113 -94 -220 -268 -220c-83 0 -156 24 -214 71v141c48 -52 115 -86 194 -86c87 0 146 45 146 109c0 62 -52 106 -150 106h-94v109h76
c102 0 149 44 149 103c0 55 -45 99 -129 99c-73 0 -135 -30 -175 -72v132z" />
    <glyph glyph-name="four.tf" 
d="M642 281v-115h-122v-166h-130v166h-357v82l366 497h121v-464h122zM181 281h209v286l-209 -284v-2z" />
    <glyph glyph-name="five.tf" 
d="M548 745v-127h-256l-30 -157c16 5 43 10 68 10c164 0 254 -112 254 -233c0 -126 -91 -255 -280 -255c-81 0 -154 25 -206 65v148c51 -51 123 -81 194 -81c92 0 147 52 147 121c0 71 -55 125 -160 125c-55 0 -95 -14 -127 -29l-21 15l62 398h355z" />
    <glyph glyph-name="six.tf" 
d="M372 492c127 0 249 -101 249 -242c0 -148 -113 -267 -277 -267s-277 119 -277 263c0 90 45 167 110 244l206 255h167l-205 -254c9 0 18 1 27 1zM343 108c82 0 139 65 139 139c0 91 -73 141 -153 141c-26 0 -52 -5 -77 -16c-32 -41 -48 -77 -48 -124
c0 -74 57 -140 139 -140z" />
    <glyph glyph-name="seven.tf" 
d="M98 0l326 618h-327v127h533l-384 -745h-148z" />
    <glyph glyph-name="eight.tf" 
d="M485 384c84 -32 128 -103 128 -184c0 -118 -102 -217 -273 -217c-168 0 -272 100 -272 217c0 78 44 153 127 184v2c-59 29 -106 86 -106 169c0 108 92 207 251 207s251 -99 251 -206c0 -84 -47 -141 -106 -170v-2zM340 645c-75 0 -121 -51 -121 -107
c0 -59 48 -106 121 -106c74 0 122 47 122 106c0 55 -47 107 -122 107zM476 213c0 63 -52 114 -136 114c-83 0 -134 -51 -134 -114c0 -59 49 -113 134 -113c87 0 136 54 136 113z" />
    <glyph glyph-name="nine.tf" 
d="M339 762c164 0 273 -117 273 -261c0 -84 -41 -163 -109 -243l-209 -258h-166l202 254c-6 -1 -12 -1 -17 -1c-129 0 -249 98 -249 243s112 266 275 266zM426 373c32 42 50 78 50 126c0 75 -55 139 -136 139c-82 0 -137 -65 -137 -139c0 -84 63 -141 145 -141
c25 0 53 5 78 15z" />
    <glyph glyph-name="zero.dnom" horiz-adv-x="477" 
d="M239 439c110 0 198 -86 198 -226s-88 -227 -198 -227c-111 0 -198 87 -198 227s87 226 198 226zM239 343c-53 0 -94 -47 -94 -130c0 -84 41 -131 94 -131s93 47 93 131c0 83 -40 130 -93 130z" />
    <glyph glyph-name="one.dnom" horiz-adv-x="316" 
d="M137 0v309l-105 -42v97l194 78h11v-442h-100z" />
    <glyph glyph-name="two.dnom" horiz-adv-x="399" 
d="M358 91v-91h-333c181 203 204 242 204 287c0 33 -24 63 -71 63c-38 0 -74 -21 -101 -48v103c33 24 82 39 129 39c92 0 156 -54 156 -137c0 -67 -45 -123 -133 -216h149z" />
    <glyph glyph-name="three.dnom" horiz-adv-x="394" 
d="M56 403c27 21 81 36 131 36c103 0 153 -55 153 -118c0 -48 -25 -77 -61 -97v-2c47 -18 75 -56 75 -104c0 -69 -60 -132 -170 -132c-55 0 -108 18 -140 43v97c34 -34 85 -54 137 -54c43 0 78 17 78 52c0 36 -36 52 -89 52h-70v80h66c53 0 75 24 75 50c0 27 -27 47 -65 47
c-47 1 -90 -15 -120 -39v89z" />
    <glyph glyph-name="four.dnom" horiz-adv-x="441" 
d="M406 176v-83h-64v-93h-87v93h-227v62l216 280h98v-259h64zM134 176h121v153z" />
    <glyph glyph-name="five.dnom" horiz-adv-x="406" 
d="M350 430v-88h-182l-15 -78c12 3 30 5 52 5c111 0 162 -61 162 -132c0 -73 -55 -151 -197 -151c-49 0 -100 11 -130 28v94c34 -22 83 -35 127 -35c54 0 99 23 99 61s-42 62 -99 62c-43 0 -75 -8 -100 -16l-11 9l41 241h253z" />
    <glyph glyph-name="six.dnom" horiz-adv-x="438" 
d="M235 290c99 0 172 -65 172 -151c0 -85 -78 -153 -186 -153s-187 71 -187 161c0 49 24 93 73 143l138 140h121l-139 -140h8zM221 71c53 0 89 33 89 74c0 46 -43 74 -89 74c-26 0 -48 -4 -64 -10c-17 -18 -25 -41 -25 -64c0 -41 37 -74 89 -74z" />
    <glyph glyph-name="seven.dnom" horiz-adv-x="417" 
d="M39 0l208 346h-207v89h369l-258 -435h-112z" />
    <glyph glyph-name="eight.dnom" horiz-adv-x="447" 
d="M331 220c47 -22 76 -60 76 -106c0 -75 -77 -128 -183 -128c-107 0 -183 53 -183 128c0 46 29 84 76 106c-39 22 -63 56 -63 97c0 71 72 122 168 122c101 0 171 -51 171 -122c0 -41 -23 -75 -62 -97zM222 365c-44 0 -76 -25 -76 -58c0 -34 32 -58 76 -58c46 0 79 24 79 57
c0 34 -33 59 -79 59zM224 61c50 0 86 26 86 61s-36 61 -86 61c-51 0 -88 -26 -88 -61s37 -61 88 -61z" />
    <glyph glyph-name="nine.dnom" horiz-adv-x="436" 
d="M217 444c106 0 185 -68 185 -161c0 -49 -22 -91 -72 -141l-139 -142h-122l138 141h-3c-98 0 -172 61 -172 146c0 88 79 157 185 157zM280 223c16 18 25 41 25 63c0 43 -37 73 -88 73c-50 0 -87 -30 -87 -73s36 -74 87 -74c21 0 47 4 63 11z" />
    <glyph glyph-name="zero.numr" horiz-adv-x="477" 
d="M239 754c110 0 198 -86 198 -226s-88 -227 -198 -227c-111 0 -198 87 -198 227s87 226 198 226zM239 658c-53 0 -94 -47 -94 -130c0 -84 41 -131 94 -131s93 47 93 131c0 83 -40 130 -93 130z" />
    <glyph glyph-name="one.numr" horiz-adv-x="315" 
d="M136 310v309l-105 -42v97l194 78h11v-442h-100z" />
    <glyph glyph-name="two.numr" horiz-adv-x="398" 
d="M357 401v-91h-333c181 203 204 242 204 287c0 33 -24 63 -71 63c-38 0 -74 -21 -101 -48v103c33 24 82 39 129 39c92 0 156 -54 156 -137c0 -67 -45 -123 -133 -216h149z" />
    <glyph glyph-name="three.numr" horiz-adv-x="394" 
d="M55 718c27 21 81 36 131 36c103 0 153 -55 153 -118c0 -48 -25 -77 -61 -97v-2c47 -18 75 -56 75 -104c0 -69 -60 -132 -170 -132c-55 0 -108 18 -140 43v97c34 -34 85 -54 137 -54c43 0 78 17 78 52c0 36 -36 52 -89 52h-70v80h66c53 0 75 24 75 50c0 27 -27 47 -65 47
c-47 1 -90 -15 -120 -39v89z" />
    <glyph glyph-name="four.numr" horiz-adv-x="442" 
d="M406 486v-83h-64v-93h-87v93h-227v62l216 280h98v-259h64zM134 486h121v153z" />
    <glyph glyph-name="five.numr" horiz-adv-x="406" 
d="M350 745v-88h-182l-15 -78c12 3 30 5 52 5c111 0 162 -61 162 -132c0 -73 -55 -151 -197 -151c-49 0 -100 11 -130 28v94c34 -22 83 -35 127 -35c54 0 99 23 99 61s-42 62 -99 62c-43 0 -75 -8 -100 -16l-11 9l41 241h253z" />
    <glyph glyph-name="six.numr" horiz-adv-x="439" 
d="M236 605c99 0 172 -65 172 -151c0 -85 -78 -153 -186 -153s-187 71 -187 161c0 49 24 93 73 143l138 140h121l-139 -140h8zM222 386c53 0 89 33 89 74c0 46 -43 74 -89 74c-26 0 -48 -4 -64 -10c-17 -18 -25 -41 -25 -64c0 -41 37 -74 89 -74z" />
    <glyph glyph-name="seven.numr" horiz-adv-x="415" 
d="M38 310l208 346h-207v89h369l-258 -435h-112z" />
    <glyph glyph-name="eight.numr" horiz-adv-x="447" 
d="M331 535c47 -22 76 -60 76 -106c0 -75 -77 -128 -183 -128c-107 0 -183 53 -183 128c0 46 29 84 76 106c-39 22 -63 56 -63 97c0 71 72 122 168 122c101 0 171 -51 171 -122c0 -41 -23 -75 -62 -97zM222 680c-44 0 -76 -25 -76 -58c0 -34 32 -58 76 -58c46 0 79 24 79 57
c0 34 -33 59 -79 59zM224 376c50 0 86 26 86 61s-36 61 -86 61c-51 0 -88 -26 -88 -61s37 -61 88 -61z" />
    <glyph glyph-name="nine.numr" horiz-adv-x="436" 
d="M216 754c106 0 185 -68 185 -161c0 -49 -22 -91 -72 -141l-139 -142h-122l138 141h-3c-98 0 -172 61 -172 146c0 88 79 157 185 157zM279 533c16 18 25 41 25 63c0 43 -37 73 -88 73c-50 0 -87 -30 -87 -73s36 -74 87 -74c21 0 47 4 63 11z" />
    <glyph glyph-name="uni00B9" unicode="&#xb9;" horiz-adv-x="315" 
d="M136 310v309l-105 -42v97l194 78h11v-442h-100z" />
    <glyph glyph-name="uni00B2" unicode="&#xb2;" horiz-adv-x="398" 
d="M357 401v-91h-333c181 203 204 242 204 287c0 33 -24 63 -71 63c-38 0 -74 -21 -101 -48v103c33 24 82 39 129 39c92 0 156 -54 156 -137c0 -67 -45 -123 -133 -216h149z" />
    <glyph glyph-name="uni00B3" unicode="&#xb3;" horiz-adv-x="394" 
d="M55 718c27 21 81 36 131 36c103 0 153 -55 153 -118c0 -48 -25 -77 -61 -97v-2c47 -18 75 -56 75 -104c0 -69 -60 -132 -170 -132c-55 0 -108 18 -140 43v97c34 -34 85 -54 137 -54c43 0 78 17 78 52c0 36 -36 52 -89 52h-70v80h66c53 0 75 24 75 50c0 27 -27 47 -65 47
c-47 1 -90 -15 -120 -39v89z" />
    <glyph glyph-name="onequarter" unicode="&#xbc;" horiz-adv-x="919" 
d="M244 310h-100v309l-105 -42v97l194 78h11v-442zM641 745h93l-491 -745h-93zM880 176v-83h-64v-93h-87v93h-227v62l216 280h98v-259h64zM608 176h121v153z" />
    <glyph glyph-name="onehalf" unicode="&#xbd;" horiz-adv-x="957" 
d="M144 310v309l-105 -42v97l194 78h11v-442h-100zM150 0l491 745h93l-491 -745h-93zM913 91v-91h-333c181 203 204 242 204 287c0 33 -24 63 -71 63c-38 0 -74 -21 -101 -48v103c33 24 82 39 129 39c92 0 156 -54 156 -137c0 -67 -45 -123 -133 -216h149z" />
    <glyph glyph-name="threequarters" unicode="&#xbe;" horiz-adv-x="987" 
d="M360 433c0 -69 -60 -132 -170 -132c-55 0 -108 18 -140 43v97c34 -34 85 -54 137 -54c43 0 78 17 78 52c0 36 -36 52 -89 52h-70v80h66c53 0 75 24 75 50c0 27 -27 47 -65 47c-47 1 -90 -15 -120 -39v89c27 21 81 36 131 36c103 0 153 -55 153 -118
c0 -48 -25 -77 -61 -97v-2c47 -18 75 -56 75 -104zM709 745h93l-491 -745h-93zM948 176v-83h-64v-93h-87v93h-227v62l216 280h98v-259h64zM676 176h121v153z" />
    <glyph glyph-name="dollar" unicode="$" horiz-adv-x="573" 
d="M529 221c0 -100 -73 -184 -185 -210v-83h-114v77c-71 7 -130 31 -171 58v149c46 -51 128 -84 198 -84c75 0 130 37 130 93s-57 79 -128 104c-101 35 -201 79 -201 209c0 96 68 173 172 198v82h114v-76c53 -6 106 -23 142 -44v-137c-38 29 -107 57 -173 57
c-71 0 -113 -36 -113 -81c0 -52 56 -74 124 -98c101 -34 205 -78 205 -214z" />
    <glyph glyph-name="cent" unicode="&#xa2;" horiz-adv-x="558" 
d="M353 433c-83 0 -159 -57 -159 -153c0 -97 76 -153 161 -153c44 0 93 9 138 41v-127c-35 -18 -77 -31 -123 -35v-89h-93v92c-131 24 -226 129 -226 271s96 246 227 269v103h93v-100c44 -4 88 -15 122 -35v-126c-45 30 -92 42 -140 42z" />
    <glyph glyph-name="sterling" unicode="&#xa3;" horiz-adv-x="605" 
d="M219 121h324v-121h-508c48 68 86 147 112 295l2 14h-86v96h104l17 98c30 165 103 259 260 259c39 0 74 -10 95 -18v-123c-23 12 -54 20 -85 20c-74 0 -121 -37 -140 -150l-15 -86h164v-96h-180l-2 -9c-12 -70 -29 -124 -62 -179z" />
    <glyph glyph-name="currency" unicode="&#xa4;" horiz-adv-x="674" 
d="M533 647l79 -79l-76 -75c22 -35 34 -76 34 -120s-13 -86 -34 -121l76 -76l-78 -78l-76 76c-35 -22 -76 -35 -121 -35s-86 13 -121 35l-75 -76l-78 78l76 76c-22 35 -35 77 -35 121s12 86 34 120l-75 75l78 79l75 -75c35 22 76 34 121 34s87 -13 121 -34zM337 237
c76 0 135 61 135 136s-59 135 -135 135s-135 -60 -135 -135s59 -136 135 -136z" />
    <glyph glyph-name="yen" unicode="&#xa5;" horiz-adv-x="747" 
d="M718 745l-242 -357h132v-85h-164v-53h164v-85h-164v-165h-139v165h-165v85h165v53h-165v85h132l-243 357h157l190 -289h3l188 289h151z" />
    <glyph glyph-name="Euro" unicode="&#x20ac;" horiz-adv-x="665" 
d="M495 631c-110 0 -186 -58 -220 -146h237v-85h-256c-1 -9 -1 -19 -1 -28s0 -17 1 -26h256v-85h-238c33 -89 110 -147 221 -147c38 0 75 10 108 25v-132c-32 -16 -75 -24 -123 -24c-168 0 -305 114 -347 278h-88v85h75c-1 9 -1 17 -1 26s0 19 1 28h-75v85h88
c44 163 180 277 347 277c48 0 91 -8 123 -23v-133c-33 16 -70 25 -108 25z" />
    <glyph glyph-name="florin" unicode="&#x192;" horiz-adv-x="510" 
d="M430 690c-71 0 -95 -39 -102 -88l-8 -52h129v-115h-146l-70 -458c-17 -109 -63 -201 -223 -201c-19 0 -45 3 -66 7v116c17 -3 34 -4 49 -4c64 0 97 42 106 100l66 440h-74v115h91l9 61c17 110 61 199 218 199c23 0 55 -3 74 -8v-118c-13 3 -37 6 -53 6z" />
    <glyph glyph-name="uni20B9" unicode="&#x20b9;" horiz-adv-x="660" 
d="M609 652h-147c26 -30 44 -65 51 -105h96v-93h-99c-19 -79 -83 -151 -214 -172l254 -282h-171l-328 368h170c83 0 134 35 152 86h-318v93h319c-18 53 -68 87 -149 87h-170v111h554v-93z" />
    <glyph glyph-name="uni20BD" unicode="&#x20bd;" horiz-adv-x="692" 
d="M356 256h-73v-71h138v-93h-138v-92h-140v92h-85v93h85v71h-85v108h85v381h213c192 0 298 -95 298 -245s-106 -244 -298 -244zM283 624v-260h78c90 0 151 47 151 130c0 84 -61 130 -152 130h-77z" />
    <glyph glyph-name="uni20BA" unicode="&#x20ba;" horiz-adv-x="728" 
d="M688 389c8 -226 -112 -389 -347 -389h-184v205l-97 -56v109l97 56v67l-97 -56v109l97 56v255h140v-175l178 103v-108l-178 -103v-68l178 103v-108l-178 -103v-157h27c137 0 233 83 226 260h138z" />
    <glyph glyph-name="percent" unicode="%" horiz-adv-x="943" 
d="M233 370c-109 0 -195 80 -195 196c0 117 86 197 195 197s193 -80 193 -197c0 -115 -84 -196 -193 -196zM165 0l491 745h122l-491 -745h-122zM233 466c44 0 89 37 89 100c0 65 -45 100 -89 100c-45 0 -90 -35 -90 -100c0 -63 44 -100 90 -100zM711 -17
c-109 0 -195 81 -195 197c0 117 86 197 195 197s193 -80 193 -197c0 -116 -84 -197 -193 -197zM711 80c44 0 89 36 89 100c0 65 -45 99 -89 99c-45 0 -90 -34 -90 -99c0 -64 44 -100 90 -100z" />
    <glyph glyph-name="perthousand" unicode="&#x2030;" horiz-adv-x="1373" 
d="M426 566c0 -115 -84 -196 -193 -196s-195 80 -195 196c0 117 86 197 195 197s193 -80 193 -197zM165 0l491 745h122l-491 -745h-122zM322 566c0 65 -45 100 -89 100c-45 0 -90 -35 -90 -100c0 -63 44 -100 90 -100c44 0 89 37 89 100zM904 180c0 -116 -84 -197 -193 -197
s-195 81 -195 197c0 117 86 197 195 197s193 -80 193 -197zM1337 180c0 -116 -84 -197 -193 -197s-195 81 -195 197c0 117 86 197 195 197s193 -80 193 -197zM800 180c0 65 -45 99 -89 99c-45 0 -90 -34 -90 -99c0 -64 44 -100 90 -100c44 0 89 36 89 100zM1233 180
c0 65 -45 99 -89 99c-45 0 -90 -34 -90 -99c0 -64 44 -100 90 -100c44 0 89 36 89 100z" />
    <glyph glyph-name="plus" unicode="+" horiz-adv-x="681" 
d="M396 667v-239h238v-111h-238v-239h-117v239h-232v111h232v239h117z" />
    <glyph glyph-name="minus" unicode="&#x2212;" horiz-adv-x="701" 
d="M72 317v111h557v-111h-557z" />
    <glyph glyph-name="plusminus" unicode="&#xb1;" horiz-adv-x="701" 
d="M406 691v-209h228v-111h-228v-208h-117v208h-221v111h221v209h117zM634 112v-112h-566v112h566z" />
    <glyph glyph-name="divide" unicode="&#xf7;" horiz-adv-x="687" 
d="M343 488c-46 0 -81 36 -81 81c0 46 35 81 81 81c45 0 81 -35 81 -81c0 -45 -36 -81 -81 -81zM61 315v115h565v-115h-565zM343 95c-46 0 -81 35 -81 81c0 45 35 81 81 81c45 0 81 -36 81 -81c0 -46 -36 -81 -81 -81z" />
    <glyph glyph-name="multiply" unicode="&#xd7;" horiz-adv-x="663" 
d="M604 566l-194 -193l194 -194l-78 -78l-194 194l-194 -194l-78 78l194 194l-194 193l78 78l194 -193l193 193z" />
    <glyph glyph-name="equal" unicode="=" horiz-adv-x="701" 
d="M72 417v111h557v-111h-557zM72 217v111h557v-111h-557z" />
    <glyph glyph-name="less" unicode="&#x3c;" horiz-adv-x="659" 
d="M581 522v132l-535 -217v-130l535 -216v132l-376 149z" />
    <glyph glyph-name="greater" unicode="&#x3e;" horiz-adv-x="659" 
d="M78 522l376 -150l-376 -149v-132l535 216v130l-535 217v-132z" />
    <glyph glyph-name="lessequal" unicode="&#x2264;" horiz-adv-x="665" 
d="M598 580v132l-535 -217v-130l535 -216v132l-376 149zM61 0v110h535v-110h-535z" />
    <glyph glyph-name="greaterequal" unicode="&#x2265;" horiz-adv-x="665" 
d="M68 580l376 -150l-376 -149v-132l535 216v130l-535 217v-132zM70 0v110h535v-110h-535z" />
    <glyph glyph-name="approxequal" unicode="&#x2248;" horiz-adv-x="755" 
d="M685 587c0 -150 -91 -195 -169 -195c-102 0 -175 74 -251 74c-39 0 -77 -20 -84 -72h-108c1 151 91 196 170 196c101 0 174 -75 250 -75c40 0 77 20 84 72h108zM685 351c0 -150 -91 -195 -169 -195c-102 0 -175 74 -251 74c-39 0 -77 -20 -84 -72h-108
c1 151 91 196 170 196c101 0 174 -75 250 -75c40 0 77 20 84 72h108z" />
    <glyph glyph-name="notequal" unicode="&#x2260;" horiz-adv-x="701" 
d="M629 417h-187l-62 -89h249v-111h-327l-99 -142h-121l99 142h-109v111h186l63 89h-249v111h326l99 142h122l-99 -142h109v-111z" />
    <glyph glyph-name="logicalnot" unicode="&#xac;" horiz-adv-x="731" 
d="M537 78v239h-470v111h587v-350h-117z" />
    <glyph glyph-name="partialdiff" unicode="&#x2202;" horiz-adv-x="659" 
d="M317 810c196 0 299 -142 299 -338c0 -39 -4 -84 -10 -127c-24 -170 -112 -359 -317 -359c-149 0 -248 100 -248 254c0 175 124 312 308 312c56 0 98 -12 126 -26c-10 98 -69 164 -178 164c-44 0 -84 -10 -115 -25v119c36 16 86 26 135 26zM297 107c82 0 146 79 169 237
c4 27 6 51 8 72c-26 11 -60 21 -100 21c-127 0 -194 -95 -194 -193c0 -84 49 -137 117 -137z" />
    <glyph glyph-name="product" unicode="&#x220f;" horiz-adv-x="736" 
d="M78 745h580v-955h-140v838h-300v-838h-140v955z" />
    <glyph glyph-name="summation" unicode="&#x2211;" horiz-adv-x="678" 
d="M621 745v-120h-360l226 -357l-226 -358h362v-120h-591l299 477l-299 478h589z" />
    <glyph glyph-name="radical" unicode="&#x221a;" horiz-adv-x="726" 
d="M157 240l-123 -42l-26 86l231 84l128 -382h1l228 939h120l-270 -1097h-144z" />
    <glyph glyph-name="infinity" unicode="&#x221e;" horiz-adv-x="742" 
d="M529 537c88 0 158 -73 158 -164s-70 -162 -158 -162c-70 0 -118 44 -158 93c-40 -49 -88 -93 -157 -93c-89 0 -158 71 -158 162s69 164 158 164c69 0 117 -44 157 -93c40 49 88 93 158 93zM228 305c34 0 62 30 91 69c-29 38 -57 68 -91 68c-36 0 -63 -30 -63 -69
c0 -38 27 -68 63 -68zM515 305c35 0 63 30 63 68c0 39 -28 69 -63 69c-34 0 -62 -30 -91 -68c29 -39 57 -69 91 -69z" />
    <glyph glyph-name="integral" unicode="&#x222b;" horiz-adv-x="548" 
d="M528 780v-118c-29 17 -59 27 -90 27c-56 0 -91 -36 -91 -89v-619c0 -135 -98 -197 -200 -197c-55 0 -102 16 -126 30v118c29 -17 59 -27 90 -27c55 0 90 36 90 89v619c0 135 98 197 201 197c55 0 101 -16 126 -30z" />
    <glyph glyph-name="asciicircum" unicode="^" horiz-adv-x="604" 
d="M560 237h-132l-125 330l-127 -330h-132l203 508h111z" />
    <glyph glyph-name="asciitilde" unicode="~" horiz-adv-x="750" 
d="M684 469c0 -150 -91 -195 -169 -195c-102 0 -175 74 -251 74c-39 0 -77 -20 -84 -72h-108c1 151 91 196 170 196c101 0 174 -75 250 -75c40 0 77 20 84 72h108z" />
    <glyph glyph-name="degree" unicode="&#xb0;" horiz-adv-x="426" 
d="M213 423c-96 0 -170 74 -170 169s74 170 170 170c97 0 171 -75 171 -170s-74 -169 -171 -169zM213 684c-51 0 -90 -40 -90 -92s39 -91 90 -91c52 0 91 39 91 91s-39 92 -91 92z" />
    <glyph glyph-name="uni2206" unicode="&#x2206;" horiz-adv-x="719" 
d="M-5 0l284 745h161l284 -745h-729zM181 118h356l-178 482z" />
    <glyph glyph-name="uni2126" unicode="&#x2126;" horiz-adv-x="868" 
d="M659 110h164v-110h-323v101c83 56 156 157 156 283c1 144 -92 247 -222 247c-131 0 -223 -103 -223 -247c1 -126 74 -227 157 -283v-101h-323v110h164c-73 57 -142 157 -142 296c-1 207 152 356 367 356c214 0 367 -149 367 -356c0 -139 -69 -239 -142 -296z" />
    <glyph glyph-name="pi" unicode="&#x3c0;" horiz-adv-x="741" 
d="M697 434h-121v-228c0 -67 23 -96 82 -96c12 0 25 2 36 5v-117c-17 -5 -46 -8 -71 -8c-122 0 -184 72 -184 207v237h-164v-434h-137v434h-119v116h678v-116z" />
    <glyph glyph-name="uni00B5" unicode="&#xb5;" horiz-adv-x="670" 
d="M609 106c9 0 18 2 26 4v-114c-14 -4 -34 -6 -54 -6c-65 0 -111 30 -132 87c-25 -51 -76 -89 -138 -89c-52 0 -99 23 -126 62l29 -260h-141v760h138v-328c0 -69 39 -108 104 -108s105 36 105 111v325h138v-386c0 -43 17 -58 51 -58z" />
    <glyph glyph-name="lozenge" unicode="&#x25ca;" horiz-adv-x="659" 
d="M622 372l-233 -389h-117l-236 389l234 390h117zM477 372l-148 249h-1l-145 -249l146 -246h2z" />
    <glyph glyph-name="arrowup" unicode="&#x2191;" horiz-adv-x="765" 
d="M719 437l-1 -173l-266 247l1 -511h-140v511l-266 -247v173l335 308z" />
    <glyph glyph-name="uni2197" unicode="&#x2197;" horiz-adv-x="765" 
d="M77 176l377 376h-379l122 124h478v-477l-124 -122v375l-375 -375z" />
    <glyph glyph-name="arrowright" unicode="&#x2192;" horiz-adv-x="765" 
d="M437 35l-173 1l247 266l-511 -1v140h511l-247 266h173l308 -335z" />
    <glyph glyph-name="uni2198" unicode="&#x2198;" horiz-adv-x="765" 
d="M77 571l99 99l375 -375v375l124 -122v-477h-478l-122 124h379z" />
    <glyph glyph-name="arrowdown" unicode="&#x2193;" horiz-adv-x="765" 
d="M719 308l-337 -308l-335 308v173l266 -247v511h140l-1 -511l266 247z" />
    <glyph glyph-name="uni2199" unicode="&#x2199;" horiz-adv-x="765" 
d="M688 571l-377 -376h379l-122 -124h-478v477l124 122v-375l375 375z" />
    <glyph glyph-name="arrowleft" unicode="&#x2190;" horiz-adv-x="765" 
d="M328 711l173 -1l-247 -266l511 1v-140h-511l247 -266h-173l-308 335z" />
    <glyph glyph-name="uni2196" unicode="&#x2196;" horiz-adv-x="765" 
d="M688 176l-99 -99l-375 375v-375l-124 122v477h478l122 -124h-379z" />
    <glyph glyph-name="grave" unicode="`" horiz-adv-x="649" 
d="M320 797l114 -174h-107l-145 174h138z" />
    <glyph glyph-name="acute" unicode="&#xb4;" horiz-adv-x="649" 
d="M329 797h138l-145 -174h-107z" />
    <glyph glyph-name="circumflex" unicode="&#x2c6;" horiz-adv-x="649" 
d="M375 797l140 -174h-121l-70 93l-70 -93h-120l140 174h101z" />
    <glyph glyph-name="caron" unicode="&#x2c7;" horiz-adv-x="649" 
d="M515 797l-142 -174h-97l-142 174h121l70 -94l70 94h120z" />
    <glyph glyph-name="tilde" unicode="&#x2dc;" horiz-adv-x="649" 
d="M539 776c6 -101 -52 -144 -122 -144c-73 0 -104 58 -158 58c-37 0 -51 -29 -50 -56h-85c-6 101 52 145 122 145c73 0 104 -59 158 -59c37 0 51 30 50 56h85z" />
    <glyph glyph-name="dieresis" unicode="&#xa8;" horiz-adv-x="649" 
d="M213 638c-37 0 -68 30 -68 67s31 67 68 67c38 0 69 -30 69 -67s-31 -67 -69 -67zM436 638c-38 0 -68 30 -68 67s30 67 68 67s68 -30 68 -67s-30 -67 -68 -67z" />
    <glyph glyph-name="ring" unicode="&#x2da;" horiz-adv-x="649" 
d="M325 840c67 0 117 -47 117 -109c0 -63 -50 -109 -117 -109s-118 46 -118 109c0 62 51 109 118 109zM325 781c-31 0 -53 -22 -53 -50c0 -29 22 -51 53 -51c30 0 52 22 52 51c0 28 -22 50 -52 50z" />
    <glyph glyph-name="macron" unicode="&#xaf;" horiz-adv-x="649" 
d="M147 661v89h355v-89h-355z" />
    <glyph glyph-name="breve" unicode="&#x2d8;" horiz-adv-x="649" 
d="M510 795c6 -117 -96 -171 -185 -171s-191 54 -186 171h93c2 -47 35 -84 93 -84s90 37 92 84h93z" />
    <glyph glyph-name="dotaccent" unicode="&#x2d9;" horiz-adv-x="649" 
d="M324 638c-37 0 -68 30 -68 67s31 67 68 67c38 0 69 -30 69 -67s-31 -67 -69 -67z" />
    <glyph glyph-name="hungarumlaut" unicode="&#x2dd;" horiz-adv-x="649" 
d="M389 797l-180 -174h-109l148 174h141zM587 797l-181 -174h-109l148 174h142z" />
    <glyph glyph-name="cedilla" unicode="&#xb8;" horiz-adv-x="649" 
d="M205 -178c52 59 92 120 92 197h110c0 -80 -24 -143 -68 -197h-134z" />
    <glyph glyph-name="ogonek" unicode="&#x2db;" horiz-adv-x="649" 
d="M414 0c-53 -29 -90 -59 -90 -91s27 -49 58 -49c11 0 27 2 32 5v-77c-7 -5 -33 -12 -61 -12c-79 0 -133 44 -133 111c0 53 34 111 140 169z" />
    <glyph glyph-name="caron.alt" horiz-adv-x="283" 
d="M83 579c5 34 12 66 12 117c0 38 -6 72 -17 106h121c4 -20 7 -42 7 -65c0 -41 -6 -89 -36 -158h-87z" />
    <glyph glyph-name="gravecomb" unicode="&#x300;" horiz-adv-x="0" 
d="M-20 797l114 -174h-107l-145 174h138z" />
    <glyph glyph-name="acutecomb" unicode="&#x301;" horiz-adv-x="0" 
d="M26 797h138l-145 -174h-107z" />
    <glyph glyph-name="uni0302" unicode="&#x302;" horiz-adv-x="0" 
d="M51 797l140 -174h-121l-70 93l-70 -93h-120l140 174h101z" />
    <glyph glyph-name="uni030C" unicode="&#x30c;" horiz-adv-x="0" 
d="M190 797l-142 -174h-97l-142 174h121l70 -94l70 94h120z" />
    <glyph glyph-name="tildecomb" unicode="&#x303;" horiz-adv-x="0" 
d="M207 776c6 -101 -52 -144 -122 -144c-73 0 -104 58 -158 58c-37 0 -51 -29 -50 -56h-85c-6 101 52 145 122 145c73 0 104 -59 158 -59c37 0 51 30 50 56h85z" />
    <glyph glyph-name="uni0308" unicode="&#x308;" horiz-adv-x="0" 
d="M-111 638c-37 0 -68 30 -68 67s31 67 68 67c38 0 69 -30 69 -67s-31 -67 -69 -67zM112 638c-38 0 -68 30 -68 67s30 67 68 67s68 -30 68 -67s-30 -67 -68 -67z" />
    <glyph glyph-name="uni030A" unicode="&#x30a;" horiz-adv-x="0" 
d="M1 840c67 0 117 -47 117 -109c0 -63 -50 -109 -117 -109s-118 46 -118 109c0 62 51 109 118 109zM1 781c-31 0 -53 -22 -53 -50c0 -29 22 -51 53 -51c30 0 52 22 52 51c0 28 -22 50 -52 50z" />
    <glyph glyph-name="uni0304" unicode="&#x304;" horiz-adv-x="0" 
d="M-178 661v89h355v-89h-355z" />
    <glyph glyph-name="uni0306" unicode="&#x306;" horiz-adv-x="0" 
d="M185 795c6 -117 -96 -171 -185 -171s-191 54 -186 171h93c2 -47 35 -84 93 -84s90 37 92 84h93z" />
    <glyph glyph-name="uni0307" unicode="&#x307;" horiz-adv-x="0" 
d="M-1 638c-37 0 -68 30 -68 67s31 67 68 67c38 0 69 -30 69 -67s-31 -67 -69 -67z" />
    <glyph glyph-name="uni030B" unicode="&#x30b;" horiz-adv-x="0" 
d="M102 797l-180 -174h-109l148 174h141zM300 797l-181 -174h-109l148 174h142z" />
    <glyph glyph-name="uni0327" unicode="&#x327;" horiz-adv-x="0" 
d="M-145 -178c52 59 92 120 92 197h110c0 -80 -24 -143 -68 -197h-134z" />
    <glyph glyph-name="uni0328" unicode="&#x328;" horiz-adv-x="0" 
d="M0 0c-53 -29 -90 -59 -90 -91s27 -49 58 -49c11 0 27 2 32 5v-77c-7 -5 -33 -12 -61 -12c-79 0 -133 44 -133 111c0 53 34 111 140 169z" />
    <glyph glyph-name="uni0326" unicode="&#x326;" horiz-adv-x="0" 
d="M59 -79c13 -75 -7 -154 -51 -227h-97c34 78 43 159 25 227h123z" />
    <glyph glyph-name="I.ss01" horiz-adv-x="467" 
d="M161 121v502h-115v122h375v-122h-118v-502h118v-121h-375v121h115z" />
    <glyph glyph-name="IJ.ss01" horiz-adv-x="1006" 
d="M161 121v502h-115v122h375v-122h-118v-502h118v-121h-375v121h115zM925 745v-512c0 -145 -82 -246 -243 -246c-75 0 -139 30 -175 57v144c34 -38 92 -71 156 -71c76 0 120 45 120 121v379h-192v128h334z" />
    <glyph glyph-name="Iacute.ss01" horiz-adv-x="467" 
d="M258 993h138l-145 -174h-107zM161 121v502h-115v122h375v-122h-118v-502h118v-121h-375v121h115z" />
    <glyph glyph-name="Icircumflex.ss01" horiz-adv-x="467" 
d="M283 993l140 -174h-121l-70 93l-70 -93h-120l140 174h101zM161 121v502h-115v122h375v-122h-118v-502h118v-121h-375v121h115z" />
    <glyph glyph-name="Idieresis.ss01" horiz-adv-x="467" 
d="M121 834c-37 0 -68 30 -68 67s31 67 68 67c38 0 69 -30 69 -67s-31 -67 -69 -67zM344 834c-38 0 -68 30 -68 67s30 67 68 67s68 -30 68 -67s-30 -67 -68 -67zM161 121v502h-115v122h375v-122h-118v-502h118v-121h-375v121h115z" />
    <glyph glyph-name="Idotaccent.ss01" horiz-adv-x="467" 
d="M231 834c-37 0 -68 30 -68 67s31 67 68 67c38 0 69 -30 69 -67s-31 -67 -69 -67zM161 121v502h-115v122h375v-122h-118v-502h118v-121h-375v121h115z" />
    <glyph glyph-name="Igrave.ss01" horiz-adv-x="467" 
d="M212 993l114 -174h-107l-145 174h138zM161 121v502h-115v122h375v-122h-118v-502h118v-121h-375v121h115z" />
    <glyph glyph-name="Imacron.ss01" horiz-adv-x="467" 
d="M54 857v89h355v-89h-355zM161 121v502h-115v122h375v-122h-118v-502h118v-121h-375v121h115z" />
    <glyph glyph-name="Iogonek.ss01" horiz-adv-x="467" 
d="M421 623h-118v-502h118v-121h-55c-53 -29 -90 -59 -90 -91s27 -49 58 -49c11 0 27 2 32 5v-77c-7 -5 -33 -12 -61 -12c-79 0 -133 44 -133 111c0 36 16 74 59 113h-185v121h115v502h-115v122h375v-122z" />
    <glyph glyph-name="J.ss01" horiz-adv-x="525" 
d="M444 745v-512c0 -145 -82 -246 -243 -246c-75 0 -139 30 -175 57v144c34 -38 92 -71 156 -71c76 0 120 45 120 121v379h-192v128h334z" />
    <glyph glyph-name="kgreenlandic" unicode="&#x138;" horiz-adv-x="600" 
d="M597 0h-171l-216 271v-271h-138v550h138v-254l214 254h166l-227 -262z" />
    <glyph glyph-name="a.ss01" horiz-adv-x="579" 
d="M286 563c145 0 226 -81 226 -201v-362h-104l-15 80c-37 -60 -101 -94 -172 -94c-108 0 -186 74 -186 173c0 93 70 174 202 174c54 0 105 -14 143 -32v48c0 57 -37 99 -118 99c-65 0 -133 -27 -176 -60v118c48 33 118 57 200 57zM268 251c-76 0 -108 -39 -108 -80
c0 -43 37 -76 94 -76c67 0 126 46 126 111v17c-29 17 -71 28 -112 28z" />
    <glyph glyph-name="aacute.ss01" horiz-adv-x="579" 
d="M320 797h138l-145 -174h-107zM286 563c145 0 226 -81 226 -201v-362h-104l-15 80c-37 -60 -101 -94 -172 -94c-108 0 -186 74 -186 173c0 93 70 174 202 174c54 0 105 -14 143 -32v48c0 57 -37 99 -118 99c-65 0 -133 -27 -176 -60v118c48 33 118 57 200 57zM268 251
c-76 0 -108 -39 -108 -80c0 -43 37 -76 94 -76c67 0 126 46 126 111v17c-29 17 -71 28 -112 28z" />
    <glyph glyph-name="abreve.ss01" horiz-adv-x="579" 
d="M479 795c6 -117 -96 -171 -185 -171s-191 54 -186 171h93c2 -47 35 -84 93 -84s90 37 92 84h93zM286 563c145 0 226 -81 226 -201v-362h-104l-15 80c-37 -60 -101 -94 -172 -94c-108 0 -186 74 -186 173c0 93 70 174 202 174c54 0 105 -14 143 -32v48
c0 57 -37 99 -118 99c-65 0 -133 -27 -176 -60v118c48 33 118 57 200 57zM268 251c-76 0 -108 -39 -108 -80c0 -43 37 -76 94 -76c67 0 126 46 126 111v17c-29 17 -71 28 -112 28z" />
    <glyph glyph-name="acircumflex.ss01" horiz-adv-x="579" 
d="M345 797l140 -174h-121l-70 93l-70 -93h-120l140 174h101zM286 563c145 0 226 -81 226 -201v-362h-104l-15 80c-37 -60 -101 -94 -172 -94c-108 0 -186 74 -186 173c0 93 70 174 202 174c54 0 105 -14 143 -32v48c0 57 -37 99 -118 99c-65 0 -133 -27 -176 -60v118
c48 33 118 57 200 57zM268 251c-76 0 -108 -39 -108 -80c0 -43 37 -76 94 -76c67 0 126 46 126 111v17c-29 17 -71 28 -112 28z" />
    <glyph glyph-name="adieresis.ss01" horiz-adv-x="579" 
d="M183 638c-37 0 -68 30 -68 67s31 67 68 67c38 0 69 -30 69 -67s-31 -67 -69 -67zM406 638c-38 0 -68 30 -68 67s30 67 68 67s68 -30 68 -67s-30 -67 -68 -67zM286 563c145 0 226 -81 226 -201v-362h-104l-15 80c-37 -60 -101 -94 -172 -94c-108 0 -186 74 -186 173
c0 93 70 174 202 174c54 0 105 -14 143 -32v48c0 57 -37 99 -118 99c-65 0 -133 -27 -176 -60v118c48 33 118 57 200 57zM268 251c-76 0 -108 -39 -108 -80c0 -43 37 -76 94 -76c67 0 126 46 126 111v17c-29 17 -71 28 -112 28z" />
    <glyph glyph-name="agrave.ss01" horiz-adv-x="579" 
d="M274 797l114 -174h-107l-145 174h138zM286 563c145 0 226 -81 226 -201v-362h-104l-15 80c-37 -60 -101 -94 -172 -94c-108 0 -186 74 -186 173c0 93 70 174 202 174c54 0 105 -14 143 -32v48c0 57 -37 99 -118 99c-65 0 -133 -27 -176 -60v118c48 33 118 57 200 57z
M268 251c-76 0 -108 -39 -108 -80c0 -43 37 -76 94 -76c67 0 126 46 126 111v17c-29 17 -71 28 -112 28z" />
    <glyph glyph-name="amacron.ss01" horiz-adv-x="579" 
d="M116 661v89h355v-89h-355zM286 563c145 0 226 -81 226 -201v-362h-104l-15 80c-37 -60 -101 -94 -172 -94c-108 0 -186 74 -186 173c0 93 70 174 202 174c54 0 105 -14 143 -32v48c0 57 -37 99 -118 99c-65 0 -133 -27 -176 -60v118c48 33 118 57 200 57zM268 251
c-76 0 -108 -39 -108 -80c0 -43 37 -76 94 -76c67 0 126 46 126 111v17c-29 17 -71 28 -112 28z" />
    <glyph glyph-name="aogonek.ss01" horiz-adv-x="579" 
d="M512 0c-53 -29 -90 -59 -90 -91s27 -49 58 -49c11 0 27 2 32 5v-77c-7 -5 -33 -12 -61 -12c-79 0 -133 44 -133 111c0 43 22 89 86 135l-11 58c-37 -60 -101 -94 -172 -94c-108 0 -186 74 -186 173c0 93 70 174 202 174c54 0 105 -14 143 -32v48c0 57 -37 99 -118 99
c-65 0 -133 -27 -176 -60v118c48 33 118 57 200 57c145 0 226 -81 226 -201v-362zM380 206v17c-29 17 -71 28 -112 28c-76 0 -108 -39 -108 -80c0 -43 37 -76 94 -76c67 0 126 46 126 111z" />
    <glyph glyph-name="aring.ss01" horiz-adv-x="579" 
d="M295 840c67 0 117 -47 117 -109c0 -63 -50 -109 -117 -109s-118 46 -118 109c0 62 51 109 118 109zM295 781c-31 0 -53 -22 -53 -50c0 -29 22 -51 53 -51c30 0 52 22 52 51c0 28 -22 50 -52 50zM286 563c145 0 226 -81 226 -201v-362h-104l-15 80
c-37 -60 -101 -94 -172 -94c-108 0 -186 74 -186 173c0 93 70 174 202 174c54 0 105 -14 143 -32v48c0 57 -37 99 -118 99c-65 0 -133 -27 -176 -60v118c48 33 118 57 200 57zM268 251c-76 0 -108 -39 -108 -80c0 -43 37 -76 94 -76c67 0 126 46 126 111v17
c-29 17 -71 28 -112 28z" />
    <glyph glyph-name="atilde.ss01" horiz-adv-x="579" 
d="M501 776c6 -101 -52 -144 -122 -144c-73 0 -104 58 -158 58c-37 0 -51 -29 -50 -56h-85c-6 101 52 145 122 145c73 0 104 -59 158 -59c37 0 51 30 50 56h85zM286 563c145 0 226 -81 226 -201v-362h-104l-15 80c-37 -60 -101 -94 -172 -94c-108 0 -186 74 -186 173
c0 93 70 174 202 174c54 0 105 -14 143 -32v48c0 57 -37 99 -118 99c-65 0 -133 -27 -176 -60v118c48 33 118 57 200 57zM268 251c-76 0 -108 -39 -108 -80c0 -43 37 -76 94 -76c67 0 126 46 126 111v17c-29 17 -71 28 -112 28z" />
    <glyph glyph-name="g.ss01" horiz-adv-x="611" 
d="M397 120c119 0 180 -75 180 -153c0 -102 -100 -190 -282 -191c-185 0 -277 72 -277 163c0 52 31 94 76 117c-21 21 -34 49 -34 81c0 41 21 81 68 107c-40 33 -62 79 -62 134c0 109 90 185 229 185c34 0 65 -5 93 -13h187v-110h-61c7 -19 11 -40 11 -62
c0 -110 -91 -186 -230 -186c-29 0 -57 3 -81 10c-18 -6 -32 -22 -32 -40c0 -17 12 -42 56 -42h159zM295 474c-63 0 -107 -41 -107 -97c0 -55 44 -96 107 -96s108 41 108 97c0 55 -45 96 -108 96zM296 -123c99 0 152 36 152 79c0 30 -28 58 -74 58h-172c-6 0 -11 0 -17 1
c-24 -12 -38 -34 -38 -58c0 -49 59 -80 149 -80z" />
    <glyph glyph-name="gbreve.ss01" horiz-adv-x="611" 
d="M311 624c-89 0 -191 54 -186 171h93c2 -47 35 -84 93 -84s90 37 92 84h93c6 -117 -96 -171 -185 -171zM397 120c119 0 180 -75 180 -153c0 -102 -100 -190 -282 -191c-185 0 -277 72 -277 163c0 52 31 94 76 117c-21 21 -34 49 -34 81c0 41 21 81 68 107
c-40 33 -62 79 -62 134c0 109 90 185 229 185c34 0 65 -5 93 -13h187v-110h-61c7 -19 11 -40 11 -62c0 -110 -91 -186 -230 -186c-29 0 -57 3 -81 10c-18 -6 -32 -22 -32 -40c0 -17 12 -42 56 -42h159zM295 474c-63 0 -107 -41 -107 -97c0 -55 44 -96 107 -96s108 41 108 97
c0 55 -45 96 -108 96zM296 -123c99 0 152 36 152 79c0 30 -28 58 -74 58h-172c-6 0 -11 0 -17 1c-24 -12 -38 -34 -38 -58c0 -49 59 -80 149 -80z" />
    <glyph glyph-name="gcommaaccent.ss01" horiz-adv-x="611" 
d="M375 629h-123c-13 75 7 154 51 227h97c-34 -78 -43 -159 -25 -227zM397 120c119 0 180 -75 180 -153c0 -102 -100 -190 -282 -191c-185 0 -277 72 -277 163c0 52 31 94 76 117c-21 21 -34 49 -34 81c0 41 21 81 68 107c-40 33 -62 79 -62 134c0 109 90 185 229 185
c34 0 65 -5 93 -13h187v-110h-61c7 -19 11 -40 11 -62c0 -110 -91 -186 -230 -186c-29 0 -57 3 -81 10c-18 -6 -32 -22 -32 -40c0 -17 12 -42 56 -42h159zM295 474c-63 0 -107 -41 -107 -97c0 -55 44 -96 107 -96s108 41 108 97c0 55 -45 96 -108 96zM296 -123
c99 0 152 36 152 79c0 30 -28 58 -74 58h-172c-6 0 -11 0 -17 1c-24 -12 -38 -34 -38 -58c0 -49 59 -80 149 -80z" />
    <glyph glyph-name="gdotaccent.ss01" horiz-adv-x="611" 
d="M310 638c-37 0 -68 30 -68 67s31 67 68 67c38 0 69 -30 69 -67s-31 -67 -69 -67zM397 120c119 0 180 -75 180 -153c0 -102 -100 -190 -282 -191c-185 0 -277 72 -277 163c0 52 31 94 76 117c-21 21 -34 49 -34 81c0 41 21 81 68 107c-40 33 -62 79 -62 134
c0 109 90 185 229 185c34 0 65 -5 93 -13h187v-110h-61c7 -19 11 -40 11 -62c0 -110 -91 -186 -230 -186c-29 0 -57 3 -81 10c-18 -6 -32 -22 -32 -40c0 -17 12 -42 56 -42h159zM295 474c-63 0 -107 -41 -107 -97c0 -55 44 -96 107 -96s108 41 108 97c0 55 -45 96 -108 96z
M296 -123c99 0 152 36 152 79c0 30 -28 58 -74 58h-172c-6 0 -11 0 -17 1c-24 -12 -38 -34 -38 -58c0 -49 59 -80 149 -80z" />
    <glyph glyph-name="l.ss01" horiz-adv-x="341" 
d="M206 802v-612c0 -51 25 -74 76 -74c12 0 26 1 42 4v-118c-14 -5 -40 -10 -72 -10c-125 0 -184 81 -184 178v632h138z" />
    <glyph glyph-name="lacute.ss01" horiz-adv-x="339" 
d="M163 1050h138l-145 -174h-107zM206 802v-612c0 -51 25 -74 76 -74c12 0 26 1 42 4v-118c-14 -5 -40 -10 -72 -10c-125 0 -184 81 -184 178v632h138z" />
    <glyph glyph-name="lcaron.ss01" horiz-adv-x="375" 
d="M206 802v-612c0 -51 25 -74 76 -74c12 0 26 1 42 4v-118c-14 -5 -40 -10 -72 -10c-125 0 -184 81 -184 178v632h138zM283 579c5 34 12 66 12 117c0 38 -6 72 -17 106h121c4 -20 7 -42 7 -65c0 -41 -6 -89 -36 -158h-87z" />
    <glyph glyph-name="lcommaaccent.ss01" horiz-adv-x="339" 
d="M206 802v-612c0 -51 25 -74 76 -74c12 0 26 1 42 4v-118c-14 -5 -40 -10 -72 -10c-125 0 -184 81 -184 178v632h138zM250 -79c13 -75 -7 -154 -51 -227h-97c34 78 43 159 25 227h123z" />
    <glyph glyph-name="lslash.ss01" horiz-adv-x="463" 
d="M410 446l-119 -66v-190c0 -51 25 -74 76 -74c12 0 26 1 42 4v-118c-14 -5 -40 -10 -72 -10c-125 0 -184 81 -184 178v134l-117 -64v124l117 64v374h138v-299l119 65v-122z" />
    <glyph glyph-name="fl.ss01" horiz-adv-x="761" 
d="M110 0v435h-76v115h77v64c0 105 75 196 206 196c36 0 68 -6 101 -16v-119c-19 7 -49 13 -78 13c-61 0 -93 -26 -93 -87v-51h149v-115h-148v-435h-138zM628 802v-612c0 -51 25 -74 76 -74c12 0 26 1 42 4v-118c-14 -5 -40 -10 -72 -10c-125 0 -184 81 -184 178v632h138z
" />
    <glyph glyph-name="A.sc" horiz-adv-x="596" 
d="M448 0l-45 147h-209l-46 -147h-132l202 597h161l201 -597h-132zM225 247h147l-72 234h-3z" />
    <glyph glyph-name="Aacute.sc" horiz-adv-x="596" 
d="M463 845l-145 -174h-107l114 174h138zM448 0l-45 147h-209l-46 -147h-132l202 597h161l201 -597h-132zM225 247h147l-72 234h-3z" />
    <glyph glyph-name="Abreve.sc" horiz-adv-x="596" 
d="M299 672c-89 0 -191 54 -186 171h93c2 -47 35 -84 93 -84s90 37 92 84h93c6 -117 -96 -171 -185 -171zM448 0l-45 147h-209l-46 -147h-132l202 597h161l201 -597h-132zM225 247h147l-72 234h-3z" />
    <glyph glyph-name="Acircumflex.sc" horiz-adv-x="596" 
d="M299 764l-70 -93h-120l140 174h101l140 -174h-121zM448 0l-45 147h-209l-46 -147h-132l202 597h161l201 -597h-132zM225 247h147l-72 234h-3z" />
    <glyph glyph-name="Adieresis.sc" horiz-adv-x="596" 
d="M188 686c-37 0 -68 30 -68 67s31 67 68 67c38 0 69 -30 69 -67s-31 -67 -69 -67zM411 686c-38 0 -68 30 -68 67s30 67 68 67s68 -30 68 -67s-30 -67 -68 -67zM448 0l-45 147h-209l-46 -147h-132l202 597h161l201 -597h-132zM225 247h147l-72 234h-3z" />
    <glyph glyph-name="Agrave.sc" horiz-adv-x="596" 
d="M393 671h-107l-145 174h138zM448 0l-45 147h-209l-46 -147h-132l202 597h161l201 -597h-132zM225 247h147l-72 234h-3z" />
    <glyph glyph-name="Amacron.sc" horiz-adv-x="596" 
d="M476 798v-89h-355v89h355zM448 0l-45 147h-209l-46 -147h-132l202 597h161l201 -597h-132zM225 247h147l-72 234h-3z" />
    <glyph glyph-name="Aogonek.sc" horiz-adv-x="596" 
d="M490 -91c0 -32 27 -49 58 -49c11 0 27 2 32 5v-77c-7 -5 -33 -12 -61 -12c-79 0 -133 44 -133 111c0 37 16 76 61 115l-44 145h-209l-46 -147h-132l202 597h161l201 -597c-53 -29 -90 -59 -90 -91zM225 247h147l-72 234h-3z" />
    <glyph glyph-name="Aring.sc" horiz-adv-x="596" 
d="M300 670c-67 0 -118 46 -118 109c0 62 51 109 118 109s117 -47 117 -109c0 -63 -50 -109 -117 -109zM300 829c-31 0 -53 -22 -53 -50c0 -29 22 -51 53 -51c30 0 52 22 52 51c0 28 -22 50 -52 50zM448 0l-45 147h-209l-46 -147h-132l202 597h161l201 -597h-132zM225 247
h147l-72 234h-3z" />
    <glyph glyph-name="Atilde.sc" horiz-adv-x="596" 
d="M176 682h-85c-6 101 52 145 122 145c73 0 104 -59 158 -59c37 0 51 30 50 56h85c6 -101 -52 -144 -122 -144c-73 0 -104 58 -158 58c-37 0 -51 -29 -50 -56zM448 0l-45 147h-209l-46 -147h-132l202 597h161l201 -597h-132zM225 247h147l-72 234h-3z" />
    <glyph glyph-name="AE.sc" horiz-adv-x="857" 
d="M798 484h-232v-133h212v-100h-212v-138h232v-113h-363v147h-207l-89 -147h-152l375 597h436v-113zM289 247h146v237h-2z" />
    <glyph glyph-name="B.sc" horiz-adv-x="570" 
d="M424 306c66 -22 101 -71 101 -139c0 -95 -74 -167 -219 -167h-225v597h215c137 0 210 -63 210 -161c0 -60 -31 -106 -82 -130zM214 493v-146h74c55 -1 90 29 90 75c0 44 -33 71 -90 71h-74zM294 105c61 0 98 29 98 77s-36 76 -99 76h-79v-153h80z" />
    <glyph glyph-name="C.sc" horiz-adv-x="533" 
d="M488 15c-44 -21 -95 -28 -142 -28c-157 0 -301 117 -301 311s144 312 301 312c49 0 100 -9 142 -29v-124c-41 19 -78 28 -120 28c-116 0 -187 -80 -187 -187c0 -106 71 -186 187 -186c42 0 79 9 120 27v-124z" />
    <glyph glyph-name="Cacute.sc" horiz-adv-x="533" 
d="M356 845h138l-145 -174h-107zM488 15c-44 -21 -95 -28 -142 -28c-157 0 -301 117 -301 311s144 312 301 312c49 0 100 -9 142 -29v-124c-41 19 -78 28 -120 28c-116 0 -187 -80 -187 -187c0 -106 71 -186 187 -186c42 0 79 9 120 27v-124z" />
    <glyph glyph-name="Ccaron.sc" horiz-adv-x="533" 
d="M520 845l-142 -174h-97l-142 174h121l70 -94l70 94h120zM488 15c-44 -21 -95 -28 -142 -28c-157 0 -301 117 -301 311s144 312 301 312c49 0 100 -9 142 -29v-124c-41 19 -78 28 -120 28c-116 0 -187 -80 -187 -187c0 -106 71 -186 187 -186c42 0 79 9 120 27v-124z" />
    <glyph glyph-name="Ccedilla.sc" horiz-adv-x="533" 
d="M368 485c-116 0 -187 -80 -187 -187c0 -106 71 -186 187 -186c42 0 79 9 120 27v-124c-32 -15 -67 -23 -102 -26c-6 -66 -29 -120 -67 -167h-134c46 53 83 107 91 173c-127 29 -231 139 -231 303c0 194 144 312 301 312c49 0 100 -9 142 -29v-124c-41 19 -78 28 -120 28z
" />
    <glyph glyph-name="Cdotaccent.sc" horiz-adv-x="533" 
d="M329 686c-37 0 -68 30 -68 67s31 67 68 67c38 0 69 -30 69 -67s-31 -67 -69 -67zM488 15c-44 -21 -95 -28 -142 -28c-157 0 -301 117 -301 311s144 312 301 312c49 0 100 -9 142 -29v-124c-41 19 -78 28 -120 28c-116 0 -187 -80 -187 -187c0 -106 71 -186 187 -186
c42 0 79 9 120 27v-124z" />
    <glyph glyph-name="D.sc" horiz-adv-x="622" 
d="M237 597c207 0 340 -120 340 -298c0 -179 -132 -299 -340 -299h-156v597h156zM215 474v-350h33c118 0 192 64 192 175c0 110 -73 175 -192 175h-33z" />
    <glyph glyph-name="Eth.sc" horiz-adv-x="636" 
d="M252 597c207 0 340 -120 340 -298c0 -179 -133 -299 -340 -299h-157v250h-71v98h71v249h157zM262 118c119 0 193 69 193 181s-73 180 -193 180h-35v-133h114v-94h-114v-134h35z" />
    <glyph glyph-name="Dcaron.sc" horiz-adv-x="622" 
d="M500 845l-142 -174h-97l-142 174h121l70 -94l70 94h120zM237 597c207 0 340 -120 340 -298c0 -179 -132 -299 -340 -299h-156v597h156zM215 474v-350h33c118 0 192 64 192 175c0 110 -73 175 -192 175h-33z" />
    <glyph glyph-name="Dcroat.sc" horiz-adv-x="636" 
d="M252 597c207 0 340 -120 340 -298c0 -179 -133 -299 -340 -299h-157v250h-71v98h71v249h157zM262 118c119 0 193 69 193 181s-73 180 -193 180h-35v-133h114v-94h-114v-134h35z" />
    <glyph glyph-name="E.sc" horiz-adv-x="506" 
d="M81 0v597h367v-113h-233v-132h213v-100h-213v-139h233v-113h-367z" />
    <glyph glyph-name="Eacute.sc" horiz-adv-x="506" 
d="M289 845h138l-145 -174h-107zM81 0v597h367v-113h-233v-132h213v-100h-213v-139h233v-113h-367z" />
    <glyph glyph-name="Ecaron.sc" horiz-adv-x="506" 
d="M453 845l-142 -174h-97l-142 174h121l70 -94l70 94h120zM81 0v597h367v-113h-233v-132h213v-100h-213v-139h233v-113h-367z" />
    <glyph glyph-name="Ecircumflex.sc" horiz-adv-x="506" 
d="M314 845l140 -174h-121l-70 93l-70 -93h-120l140 174h101zM81 0v597h367v-113h-233v-132h213v-100h-213v-139h233v-113h-367z" />
    <glyph glyph-name="Edieresis.sc" horiz-adv-x="506" 
d="M152 686c-37 0 -68 30 -68 67s31 67 68 67c38 0 69 -30 69 -67s-31 -67 -69 -67zM375 686c-38 0 -68 30 -68 67s30 67 68 67s68 -30 68 -67s-30 -67 -68 -67zM81 0v597h367v-113h-233v-132h213v-100h-213v-139h233v-113h-367z" />
    <glyph glyph-name="Edotaccent.sc" horiz-adv-x="506" 
d="M262 686c-37 0 -68 30 -68 67s31 67 68 67c38 0 69 -30 69 -67s-31 -67 -69 -67zM81 0v597h367v-113h-233v-132h213v-100h-213v-139h233v-113h-367z" />
    <glyph glyph-name="Egrave.sc" horiz-adv-x="506" 
d="M243 845l114 -174h-107l-145 174h138zM81 0v597h367v-113h-233v-132h213v-100h-213v-139h233v-113h-367z" />
    <glyph glyph-name="Emacron.sc" horiz-adv-x="506" 
d="M85 709v89h355v-89h-355zM81 0v597h367v-113h-233v-132h213v-100h-213v-139h233v-113h-367z" />
    <glyph glyph-name="Eogonek.sc" horiz-adv-x="506" 
d="M448 484h-233v-132h213v-100h-213v-139h233v-113c-53 -29 -90 -59 -90 -91s27 -49 58 -49c11 0 27 2 32 5v-77c-7 -5 -33 -12 -61 -12c-79 0 -133 44 -133 111c0 36 16 74 59 113h-232v597h367v-113z" />
    <glyph glyph-name="F.sc" horiz-adv-x="492" 
d="M81 0v597h366v-124h-232v-143h213v-111h-213v-219h-134z" />
    <glyph glyph-name="G.sc" horiz-adv-x="598" 
d="M539 315v-292c-52 -23 -112 -36 -172 -36c-160 0 -322 101 -322 310c0 195 146 313 318 313c64 0 117 -13 161 -33v-124c-43 20 -93 32 -143 32c-120 0 -201 -80 -201 -188c0 -121 94 -186 185 -186c18 0 37 3 52 8v196h122z" />
    <glyph glyph-name="Gbreve.sc" horiz-adv-x="598" 
d="M526 843c6 -117 -96 -171 -185 -171s-191 54 -186 171h93c2 -47 35 -84 93 -84s90 37 92 84h93zM539 315v-292c-52 -23 -112 -36 -172 -36c-160 0 -322 101 -322 310c0 195 146 313 318 313c64 0 117 -13 161 -33v-124c-43 20 -93 32 -143 32c-120 0 -201 -80 -201 -188
c0 -121 94 -186 185 -186c18 0 37 3 52 8v196h122z" />
    <glyph glyph-name="Gcommaaccent.sc" horiz-adv-x="598" 
d="M539 315v-292c-52 -23 -112 -36 -172 -36c-160 0 -322 101 -322 310c0 195 146 313 318 313c64 0 117 -13 161 -33v-124c-43 20 -93 32 -143 32c-120 0 -201 -80 -201 -188c0 -121 94 -186 185 -186c18 0 37 3 52 8v196h122zM400 -79c13 -75 -7 -154 -51 -227h-97
c34 78 43 159 25 227h123z" />
    <glyph glyph-name="Gdotaccent.sc" horiz-adv-x="598" 
d="M340 686c-37 0 -68 30 -68 67s31 67 68 67c38 0 69 -30 69 -67s-31 -67 -69 -67zM539 315v-292c-52 -23 -112 -36 -172 -36c-160 0 -322 101 -322 310c0 195 146 313 318 313c64 0 117 -13 161 -33v-124c-43 20 -93 32 -143 32c-120 0 -201 -80 -201 -188
c0 -121 94 -186 185 -186c18 0 37 3 52 8v196h122z" />
    <glyph glyph-name="H.sc" horiz-adv-x="672" 
d="M457 0v236h-242v-236h-134v597h134v-236h242v236h134v-597h-134z" />
    <glyph glyph-name="Hbar.sc" horiz-adv-x="683" 
d="M656 522v-88h-59v-434h-134v236h-242v-236h-134v434h-62v88h62v75h134v-75h242v75h134v-75h59zM463 361v73h-242v-73h242z" />
    <glyph glyph-name="I.sc" horiz-adv-x="295" 
d="M81 0v597h134v-597h-134z" />
    <glyph glyph-name="IJ.sc" horiz-adv-x="693" 
d="M81 0v597h134v-597h-134zM327 128c22 -11 40 -15 59 -15c63 0 100 39 100 116v368h134v-381c0 -135 -78 -227 -212 -227c-31 0 -56 6 -81 16v123z" />
    <glyph glyph-name="Iacute.sc" horiz-adv-x="295" 
d="M174 845h138l-145 -174h-107zM81 0v597h134v-597h-134z" />
    <glyph glyph-name="Icircumflex.sc" horiz-adv-x="295" 
d="M199 845l140 -174h-121l-70 93l-70 -93h-120l140 174h101zM81 0v597h134v-597h-134z" />
    <glyph glyph-name="Idieresis.sc" horiz-adv-x="295" 
d="M37 686c-37 0 -68 30 -68 67s31 67 68 67c38 0 69 -30 69 -67s-31 -67 -69 -67zM260 686c-38 0 -68 30 -68 67s30 67 68 67s68 -30 68 -67s-30 -67 -68 -67zM81 0v597h134v-597h-134z" />
    <glyph glyph-name="Idotaccent.sc" horiz-adv-x="295" 
d="M147 686c-37 0 -68 30 -68 67s31 67 68 67c38 0 69 -30 69 -67s-31 -67 -69 -67zM81 0v597h134v-597h-134z" />
    <glyph glyph-name="Igrave.sc" horiz-adv-x="295" 
d="M128 845l114 -174h-107l-145 174h138zM81 0v597h134v-597h-134z" />
    <glyph glyph-name="Imacron.sc" horiz-adv-x="295" 
d="M-30 709v89h355v-89h-355zM81 0v597h134v-597h-134z" />
    <glyph glyph-name="Iogonek.sc" horiz-adv-x="296" 
d="M82 597h134v-597h-1c-53 -29 -90 -59 -90 -91s27 -49 58 -49c11 0 27 2 32 5v-77c-7 -5 -33 -12 -61 -12c-79 0 -133 44 -133 111c0 37 16 75 61 115v595z" />
    <glyph glyph-name="J.sc" horiz-adv-x="396" 
d="M29 128c22 -11 40 -15 59 -15c63 0 100 39 100 116v368h134v-381c0 -135 -78 -227 -212 -227c-31 0 -56 6 -81 16v123z" />
    <glyph glyph-name="K.sc" horiz-adv-x="582" 
d="M568 0h-154l-199 299v-299h-134v597h134v-273l199 273h150l-214 -284z" />
    <glyph glyph-name="Kcommaaccent.sc" horiz-adv-x="582" 
d="M350 313l218 -313h-154l-199 299v-299h-134v597h134v-273l199 273h150zM243 -79h123c13 -75 -7 -154 -51 -227h-97c34 78 43 159 25 227z" />
    <glyph glyph-name="L.sc" horiz-adv-x="489" 
d="M81 0v597h134v-472h245v-125h-379z" />
    <glyph glyph-name="Lacute.sc" horiz-adv-x="489" 
d="M174 845h138l-145 -174h-107zM81 0v597h134v-472h245v-125h-379z" />
    <glyph glyph-name="Lcaron.sc" horiz-adv-x="504" 
d="M81 0v597h134v-472h245v-125h-379zM292 374c5 34 12 66 12 117c0 38 -6 72 -17 106h121c4 -20 7 -42 7 -65c0 -41 -6 -89 -36 -158h-87z" />
    <glyph glyph-name="Lcommaaccent.sc" horiz-adv-x="489" 
d="M81 0v597h134v-472h245v-125h-379zM329 -79c13 -75 -7 -154 -51 -227h-97c34 78 43 159 25 227h123z" />
    <glyph glyph-name="Ldot.sc" horiz-adv-x="523" 
d="M81 0v597h134v-472h245v-125h-379zM393 251c-46 0 -81 36 -81 81c0 46 35 81 81 81c45 0 81 -35 81 -81c0 -45 -36 -81 -81 -81z" />
    <glyph glyph-name="Lslash.sc" horiz-adv-x="522" 
d="M249 125h245v-125h-379v197l-93 -57v105l93 58v294h134v-212l119 74v-108l-119 -73v-153z" />
    <glyph glyph-name="M.sc" horiz-adv-x="812" 
d="M220 417l-49 -417h-127l87 597h148l127 -414h2l126 414h147l87 -597h-129l-49 417h-2l-129 -417h-111l-125 417h-3z" />
    <glyph glyph-name="N.sc" horiz-adv-x="672" 
d="M592 597v-597h-128l-258 402v-402h-125v597h132l253 -398v398h126z" />
    <glyph glyph-name="Nacute.sc" horiz-adv-x="672" 
d="M376 845h138l-145 -174h-107zM592 597v-597h-128l-258 402v-402h-125v597h132l253 -398v398h126z" />
    <glyph glyph-name="Ncaron.sc" horiz-adv-x="672" 
d="M540 845l-142 -174h-97l-142 174h121l70 -94l70 94h120zM592 597v-597h-128l-258 402v-402h-125v597h132l253 -398v398h126z" />
    <glyph glyph-name="Ncommaaccent.sc" horiz-adv-x="672" 
d="M592 597v-597h-128l-258 402v-402h-125v597h132l253 -398v398h126zM395 -79c13 -75 -7 -154 -51 -227h-97c34 78 43 159 25 227h123z" />
    <glyph glyph-name="Eng.sc" horiz-adv-x="672" 
d="M466 597h126v-594c0 -135 -78 -227 -212 -227c-31 0 -56 6 -81 16v123c22 -11 45 -15 64 -15c58 0 96 33 102 98l-259 404v-402h-125v597h132l253 -398v398z" />
    <glyph glyph-name="Ntilde.sc" horiz-adv-x="672" 
d="M557 824c6 -101 -52 -144 -122 -144c-73 0 -104 58 -158 58c-37 0 -51 -29 -50 -56h-85c-6 101 52 145 122 145c73 0 104 -59 158 -59c37 0 51 30 50 56h85zM592 597v-597h-128l-258 402v-402h-125v597h132l253 -398v398h126z" />
    <glyph glyph-name="O.sc" horiz-adv-x="705" 
d="M352 610c168 0 308 -127 308 -312c0 -184 -140 -311 -308 -311s-307 127 -307 311c0 185 139 312 307 312zM352 485c-89 0 -170 -72 -170 -187s82 -186 170 -186c89 0 171 71 171 186s-82 187 -171 187z" />
    <glyph glyph-name="Oacute.sc" horiz-adv-x="705" 
d="M378 845h138l-145 -174h-107zM352 610c168 0 308 -127 308 -312c0 -184 -140 -311 -308 -311s-307 127 -307 311c0 185 139 312 307 312zM352 485c-89 0 -170 -72 -170 -187s82 -186 170 -186c89 0 171 71 171 186s-82 187 -171 187z" />
    <glyph glyph-name="Ocircumflex.sc" horiz-adv-x="705" 
d="M403 845l140 -174h-121l-70 93l-70 -93h-120l140 174h101zM352 610c168 0 308 -127 308 -312c0 -184 -140 -311 -308 -311s-307 127 -307 311c0 185 139 312 307 312zM352 485c-89 0 -170 -72 -170 -187s82 -186 170 -186c89 0 171 71 171 186s-82 187 -171 187z" />
    <glyph glyph-name="Odieresis.sc" horiz-adv-x="705" 
d="M241 686c-37 0 -68 30 -68 67s31 67 68 67c38 0 69 -30 69 -67s-31 -67 -69 -67zM464 686c-38 0 -68 30 -68 67s30 67 68 67s68 -30 68 -67s-30 -67 -68 -67zM352 610c168 0 308 -127 308 -312c0 -184 -140 -311 -308 -311s-307 127 -307 311c0 185 139 312 307 312z
M352 485c-89 0 -170 -72 -170 -187s82 -186 170 -186c89 0 171 71 171 186s-82 187 -171 187z" />
    <glyph glyph-name="Ograve.sc" horiz-adv-x="705" 
d="M332 845l114 -174h-107l-145 174h138zM352 610c168 0 308 -127 308 -312c0 -184 -140 -311 -308 -311s-307 127 -307 311c0 185 139 312 307 312zM352 485c-89 0 -170 -72 -170 -187s82 -186 170 -186c89 0 171 71 171 186s-82 187 -171 187z" />
    <glyph glyph-name="Ohungarumlaut.sc" horiz-adv-x="705" 
d="M454 845l-180 -174h-109l148 174h141zM652 845l-181 -174h-109l148 174h142zM352 610c168 0 308 -127 308 -312c0 -184 -140 -311 -308 -311s-307 127 -307 311c0 185 139 312 307 312zM352 485c-89 0 -170 -72 -170 -187s82 -186 170 -186c89 0 171 71 171 186
s-82 187 -171 187z" />
    <glyph glyph-name="Omacron.sc" horiz-adv-x="705" 
d="M174 709v89h355v-89h-355zM352 610c168 0 308 -127 308 -312c0 -184 -140 -311 -308 -311s-307 127 -307 311c0 185 139 312 307 312zM352 485c-89 0 -170 -72 -170 -187s82 -186 170 -186c89 0 171 71 171 186s-82 187 -171 187z" />
    <glyph glyph-name="Oslash.sc" horiz-adv-x="708" 
d="M599 490c39 -52 62 -117 62 -192c0 -184 -140 -311 -308 -311c-69 0 -133 21 -184 59l-58 -59l-57 55l58 59c-41 52 -66 120 -66 197c0 185 139 312 307 312c72 0 139 -23 191 -64l60 61l56 -55zM178 298c0 -39 10 -74 26 -102l251 258c-30 21 -65 33 -102 33
c-91 0 -175 -73 -175 -189zM353 110c91 0 176 72 176 188c0 36 -8 69 -23 96l-248 -255c28 -19 61 -29 95 -29z" />
    <glyph glyph-name="Otilde.sc" horiz-adv-x="705" 
d="M559 824c6 -101 -52 -144 -122 -144c-73 0 -104 58 -158 58c-37 0 -51 -29 -50 -56h-85c-6 101 52 145 122 145c73 0 104 -59 158 -59c37 0 51 30 50 56h85zM352 610c168 0 308 -127 308 -312c0 -184 -140 -311 -308 -311s-307 127 -307 311c0 185 139 312 307 312z
M352 485c-89 0 -170 -72 -170 -187s82 -186 170 -186c89 0 171 71 171 186s-82 187 -171 187z" />
    <glyph glyph-name="OE.sc" horiz-adv-x="843" 
d="M45 298c0 184 139 311 307 311c36 0 70 -4 101 -12h331v-113h-233v-132h213v-100h-213v-139h233v-113h-331c-31 -8 -65 -12 -101 -12c-168 0 -307 126 -307 310zM182 298c0 -115 82 -186 170 -186c23 0 45 1 65 7v359c-20 6 -42 7 -65 7c-89 0 -170 -72 -170 -187z" />
    <glyph glyph-name="P.sc" horiz-adv-x="544" 
d="M81 597h167c169 0 263 -85 263 -211c0 -122 -88 -219 -255 -219h-41v-167h-134v597zM261 279c77 0 116 44 116 103c0 57 -39 96 -116 96h-46v-199h46z" />
    <glyph glyph-name="Thorn.sc" horiz-adv-x="572" 
d="M215 597v-78h71c163 0 253 -84 253 -212c0 -121 -84 -221 -253 -221h-71v-86h-134v597h134zM289 206c77 0 116 42 116 101c0 56 -41 92 -116 92h-74v-193h74z" />
    <glyph glyph-name="Q.sc" horiz-adv-x="705" 
d="M681 32l-71 -75l-86 80c-49 -32 -109 -50 -172 -50c-168 0 -307 127 -307 311c0 185 139 312 307 312s308 -127 308 -312c0 -74 -23 -139 -61 -190zM353 103c28 0 55 7 79 20l-105 99l71 75l107 -100c15 29 24 63 24 101c0 117 -84 192 -176 192
c-93 0 -175 -75 -175 -192s82 -195 175 -195z" />
    <glyph glyph-name="R.sc" horiz-adv-x="563" 
d="M361 217l175 -217h-158l-158 204h-5v-204h-134v597h183c166 0 244 -86 244 -199c0 -78 -51 -152 -147 -181zM215 304h55c62 0 103 34 103 89c0 51 -39 84 -104 84h-54v-173z" />
    <glyph glyph-name="Racute.sc" horiz-adv-x="563" 
d="M452 845l-145 -174h-107l114 174h138zM361 217l175 -217h-158l-158 204h-5v-204h-134v597h183c166 0 244 -86 244 -199c0 -78 -51 -152 -147 -181zM215 304h55c62 0 103 34 103 89c0 51 -39 84 -104 84h-54v-173z" />
    <glyph glyph-name="Rcaron.sc" horiz-adv-x="563" 
d="M336 671h-97l-142 174h121l70 -94l70 94h120zM361 217l175 -217h-158l-158 204h-5v-204h-134v597h183c166 0 244 -86 244 -199c0 -78 -51 -152 -147 -181zM215 304h55c62 0 103 34 103 89c0 51 -39 84 -104 84h-54v-173z" />
    <glyph glyph-name="Rcommaaccent.sc" horiz-adv-x="563" 
d="M361 217l175 -217h-158l-158 204h-5v-204h-134v597h183c166 0 244 -86 244 -199c0 -78 -51 -152 -147 -181zM215 304h55c62 0 103 34 103 89c0 51 -39 84 -104 84h-54v-173zM224 -79h123c13 -75 -7 -154 -51 -227h-97c34 78 43 159 25 227z" />
    <glyph glyph-name="S.sc" horiz-adv-x="504" 
d="M424 570v-122c-40 30 -90 46 -142 46c-57 0 -94 -22 -94 -57c0 -34 33 -53 87 -73c84 -32 187 -71 187 -189c0 -110 -89 -188 -221 -188c-78 0 -141 26 -184 57v135c42 -41 106 -76 174 -76c60 0 98 29 98 65c0 33 -32 50 -85 71c-84 33 -188 78 -188 195
c0 94 75 176 205 176c70 0 124 -16 163 -40z" />
    <glyph glyph-name="Sacute.sc" horiz-adv-x="504" 
d="M289 845h138l-145 -174h-107zM424 570v-122c-40 30 -90 46 -142 46c-57 0 -94 -22 -94 -57c0 -34 33 -53 87 -73c84 -32 187 -71 187 -189c0 -110 -89 -188 -221 -188c-78 0 -141 26 -184 57v135c42 -41 106 -76 174 -76c60 0 98 29 98 65c0 33 -32 50 -85 71
c-84 33 -188 78 -188 195c0 94 75 176 205 176c70 0 124 -16 163 -40z" />
    <glyph glyph-name="Scaron.sc" horiz-adv-x="504" 
d="M453 845l-142 -174h-97l-142 174h121l70 -94l70 94h120zM424 570v-122c-40 30 -90 46 -142 46c-57 0 -94 -22 -94 -57c0 -34 33 -53 87 -73c84 -32 187 -71 187 -189c0 -110 -89 -188 -221 -188c-78 0 -141 26 -184 57v135c42 -41 106 -76 174 -76c60 0 98 29 98 65
c0 33 -32 50 -85 71c-84 33 -188 78 -188 195c0 94 75 176 205 176c70 0 124 -16 163 -40z" />
    <glyph glyph-name="Scedilla.sc" horiz-adv-x="505" 
d="M462 175c0 -90 -59 -158 -153 -180c-4 -69 -28 -125 -67 -173h-134c45 51 81 104 90 168c-58 7 -106 29 -141 54v135c42 -41 106 -76 174 -76c60 0 98 29 98 65c0 33 -32 50 -85 71c-84 33 -188 78 -188 195c0 94 75 176 205 176c70 0 124 -16 163 -40v-122
c-40 30 -90 46 -142 46c-57 0 -94 -22 -94 -57c0 -34 33 -53 87 -73c84 -32 187 -71 187 -189z" />
    <glyph glyph-name="Scommaaccent.sc" horiz-adv-x="504" 
d="M424 570v-122c-40 30 -90 46 -142 46c-57 0 -94 -22 -94 -57c0 -34 33 -53 87 -73c84 -32 187 -71 187 -189c0 -110 -89 -188 -221 -188c-78 0 -141 26 -184 57v135c42 -41 106 -76 174 -76c60 0 98 29 98 65c0 33 -32 50 -85 71c-84 33 -188 78 -188 195
c0 94 75 176 205 176c70 0 124 -16 163 -40zM312 -79c13 -75 -7 -154 -51 -227h-97c34 78 43 159 25 227h123z" />
    <glyph glyph-name="uni1E9E.sc" horiz-adv-x="643" 
d="M453 342c82 -13 145 -75 145 -166c0 -87 -56 -189 -209 -189c-61 0 -110 17 -141 38v123c29 -26 75 -49 125 -49c64 0 102 39 102 87s-40 83 -105 83h-91l147 199c-20 16 -54 26 -90 26c-73 0 -140 -44 -140 -134v-360h-123v372c0 148 120 238 272 238
c107 0 182 -45 236 -96z" />
    <glyph glyph-name="T.sc" horiz-adv-x="546" 
d="M206 0v472h-178v125h491v-125h-179v-472h-134z" />
    <glyph glyph-name="Tbar.sc" horiz-adv-x="564" 
d="M528 472h-179v-161h120v-107h-120v-204h-134v204h-120v107h120v161h-178v125h491v-125z" />
    <glyph glyph-name="Tcaron.sc" horiz-adv-x="546" 
d="M463 845l-142 -174h-97l-142 174h121l70 -94l70 94h120zM206 0v472h-178v125h491v-125h-179v-472h-134z" />
    <glyph glyph-name="uni0162.sc" horiz-adv-x="546" 
d="M28 597h491v-125h-179v-472h-10c-4 -71 -28 -128 -68 -178h-134c48 54 85 110 91 178h-13v472h-178v125z" />
    <glyph glyph-name="uni021A.sc" horiz-adv-x="546" 
d="M206 0v472h-178v125h491v-125h-179v-472h-134zM332 -79c13 -75 -7 -154 -51 -227h-97c34 78 43 159 25 227h123z" />
    <glyph glyph-name="U.sc" horiz-adv-x="645" 
d="M573 597v-356c0 -156 -111 -253 -251 -254c-142 0 -249 98 -249 254v356h134v-364c0 -75 48 -121 115 -121c69 0 117 46 117 121v364h134z" />
    <glyph glyph-name="Uacute.sc" horiz-adv-x="645" 
d="M349 845h138l-145 -174h-107zM573 597v-356c0 -156 -111 -253 -251 -254c-142 0 -249 98 -249 254v356h134v-364c0 -75 48 -121 115 -121c69 0 117 46 117 121v364h134z" />
    <glyph glyph-name="Ucircumflex.sc" horiz-adv-x="645" 
d="M374 845l140 -174h-121l-70 93l-70 -93h-120l140 174h101zM573 597v-356c0 -156 -111 -253 -251 -254c-142 0 -249 98 -249 254v356h134v-364c0 -75 48 -121 115 -121c69 0 117 46 117 121v364h134z" />
    <glyph glyph-name="Udieresis.sc" horiz-adv-x="645" 
d="M212 686c-37 0 -68 30 -68 67s31 67 68 67c38 0 69 -30 69 -67s-31 -67 -69 -67zM435 686c-38 0 -68 30 -68 67s30 67 68 67s68 -30 68 -67s-30 -67 -68 -67zM573 597v-356c0 -156 -111 -253 -251 -254c-142 0 -249 98 -249 254v356h134v-364c0 -75 48 -121 115 -121
c69 0 117 46 117 121v364h134z" />
    <glyph glyph-name="Ugrave.sc" horiz-adv-x="645" 
d="M303 845l114 -174h-107l-145 174h138zM573 597v-356c0 -156 -111 -253 -251 -254c-142 0 -249 98 -249 254v356h134v-364c0 -75 48 -121 115 -121c69 0 117 46 117 121v364h134z" />
    <glyph glyph-name="Uhungarumlaut.sc" horiz-adv-x="645" 
d="M425 845l-180 -174h-109l148 174h141zM623 845l-181 -174h-109l148 174h142zM573 597v-356c0 -156 -111 -253 -251 -254c-142 0 -249 98 -249 254v356h134v-364c0 -75 48 -121 115 -121c69 0 117 46 117 121v364h134z" />
    <glyph glyph-name="Umacron.sc" horiz-adv-x="645" 
d="M145 709v89h355v-89h-355zM573 597v-356c0 -156 -111 -253 -251 -254c-142 0 -249 98 -249 254v356h134v-364c0 -75 48 -121 115 -121c69 0 117 46 117 121v364h134z" />
    <glyph glyph-name="Uogonek.sc" horiz-adv-x="645" 
d="M439 597h134v-356c0 -92 -40 -170 -110 -213c-71 -48 -114 -84 -114 -121c0 -33 27 -49 59 -49c11 0 27 3 31 5v-77c-6 -4 -36 -11 -63 -11c-79 0 -130 43 -130 109c0 34 14 69 50 104c-129 11 -223 107 -223 253v356h134v-364c0 -74 47 -121 115 -121
c69 0 117 46 117 121v364z" />
    <glyph glyph-name="Uring.sc" horiz-adv-x="645" 
d="M324 888c67 0 117 -47 117 -109c0 -63 -50 -109 -117 -109s-118 46 -118 109c0 62 51 109 118 109zM324 829c-31 0 -53 -22 -53 -50c0 -29 22 -51 53 -51c30 0 52 22 52 51c0 28 -22 50 -52 50zM573 597v-356c0 -156 -111 -253 -251 -254c-142 0 -249 98 -249 254v356
h134v-364c0 -75 48 -121 115 -121c69 0 117 46 117 121v364h134z" />
    <glyph glyph-name="V.sc" horiz-adv-x="594" 
d="M576 597l-194 -597h-170l-195 597h146l134 -474h1l140 474h138z" />
    <glyph glyph-name="W.sc" horiz-adv-x="907" 
d="M582 0l-127 429h-3l-125 -429h-144l-161 597h139l98 -437h4l122 437h138l128 -437h3l99 437h133l-163 -597h-141z" />
    <glyph glyph-name="Wacute.sc" horiz-adv-x="907" 
d="M480 845h138l-145 -174h-107zM582 0l-127 429h-3l-125 -429h-144l-161 597h139l98 -437h4l122 437h138l128 -437h3l99 437h133l-163 -597h-141z" />
    <glyph glyph-name="Wcircumflex.sc" horiz-adv-x="907" 
d="M505 845l140 -174h-121l-70 93l-70 -93h-120l140 174h101zM582 0l-127 429h-3l-125 -429h-144l-161 597h139l98 -437h4l122 437h138l128 -437h3l99 437h133l-163 -597h-141z" />
    <glyph glyph-name="Wdieresis.sc" horiz-adv-x="907" 
d="M343 686c-37 0 -68 30 -68 67s31 67 68 67c38 0 69 -30 69 -67s-31 -67 -69 -67zM566 686c-38 0 -68 30 -68 67s30 67 68 67s68 -30 68 -67s-30 -67 -68 -67zM582 0l-127 429h-3l-125 -429h-144l-161 597h139l98 -437h4l122 437h138l128 -437h3l99 437h133l-163 -597
h-141z" />
    <glyph glyph-name="Wgrave.sc" horiz-adv-x="907" 
d="M434 845l114 -174h-107l-145 174h138zM582 0l-127 429h-3l-125 -429h-144l-161 597h139l98 -437h4l122 437h138l128 -437h3l99 437h133l-163 -597h-141z" />
    <glyph glyph-name="X.sc" horiz-adv-x="582" 
d="M561 597l-187 -297l191 -300h-150l-126 210l-123 -210h-147l189 299l-189 298h150l123 -209l121 209h148z" />
    <glyph glyph-name="Y.sc" horiz-adv-x="596" 
d="M588 597l-222 -360v-237h-135v237l-223 360h151l143 -243h2l140 243h144z" />
    <glyph glyph-name="Yacute.sc" horiz-adv-x="596" 
d="M324 845h138l-145 -174h-107zM588 597l-222 -360v-237h-135v237l-223 360h151l143 -243h2l140 243h144z" />
    <glyph glyph-name="Ycircumflex.sc" horiz-adv-x="596" 
d="M349 845l140 -174h-121l-70 93l-70 -93h-120l140 174h101zM588 597l-222 -360v-237h-135v237l-223 360h151l143 -243h2l140 243h144z" />
    <glyph glyph-name="Ydieresis.sc" horiz-adv-x="596" 
d="M187 686c-37 0 -68 30 -68 67s31 67 68 67c38 0 69 -30 69 -67s-31 -67 -69 -67zM410 686c-38 0 -68 30 -68 67s30 67 68 67s68 -30 68 -67s-30 -67 -68 -67zM588 597l-222 -360v-237h-135v237l-223 360h151l143 -243h2l140 243h144z" />
    <glyph glyph-name="Ygrave.sc" horiz-adv-x="596" 
d="M278 845l114 -174h-107l-145 174h138zM588 597l-222 -360v-237h-135v237l-223 360h151l143 -243h2l140 243h144z" />
    <glyph glyph-name="Z.sc" horiz-adv-x="534" 
d="M508 597l-280 -473h260v-124h-466l278 474h-248v123h456z" />
    <glyph glyph-name="Zacute.sc" horiz-adv-x="534" 
d="M306 845h138l-145 -174h-107zM508 597l-280 -473h260v-124h-466l278 474h-248v123h456z" />
    <glyph glyph-name="Zcaron.sc" horiz-adv-x="534" 
d="M470 845l-142 -174h-97l-142 174h121l70 -94l70 94h120zM508 597l-280 -473h260v-124h-466l278 474h-248v123h456z" />
    <glyph glyph-name="Zdotaccent.sc" horiz-adv-x="534" 
d="M279 686c-37 0 -68 30 -68 67s31 67 68 67c38 0 69 -30 69 -67s-31 -67 -69 -67zM508 597l-280 -473h260v-124h-466l278 474h-248v123h456z" />
    <glyph glyph-name="I.sc.ss01" horiz-adv-x="427" 
d="M146 115v367h-90v115h315v-115h-92v-367h92v-115h-315v115h90z" />
    <glyph glyph-name="IJ.sc.ss01" horiz-adv-x="908" 
d="M146 115v367h-90v115h315v-115h-92v-367h92v-115h-315v115h90zM834 597v-398c0 -137 -74 -213 -202 -213c-60 0 -110 18 -151 48v134c32 -35 80 -57 124 -57c62 0 95 30 95 104v259h-162v123h296z" />
    <glyph glyph-name="Iacute.sc.ss01" horiz-adv-x="427" 
d="M238 843h138l-145 -174h-107zM146 115v367h-90v115h315v-115h-92v-367h92v-115h-315v115h90z" />
    <glyph glyph-name="Icircumflex.sc.ss01" horiz-adv-x="453" 
d="M277 843l140 -174h-121l-70 93l-70 -93h-120l140 174h101zM160 115v367h-90v115h315v-115h-92v-367h92v-115h-315v115h90z" />
    <glyph glyph-name="Idieresis.sc.ss01" horiz-adv-x="436" 
d="M106 684c-37 0 -68 30 -68 67s31 67 68 67c38 0 69 -30 69 -67s-31 -67 -69 -67zM329 684c-38 0 -68 30 -68 67s30 67 68 67s68 -30 68 -67s-30 -67 -68 -67zM151 115v367h-90v115h315v-115h-92v-367h92v-115h-315v115h90z" />
    <glyph glyph-name="Idotaccent.sc.ss01" horiz-adv-x="427" 
d="M211 684c-37 0 -68 30 -68 67s31 67 68 67c38 0 69 -30 69 -67s-31 -67 -69 -67zM146 115v367h-90v115h315v-115h-92v-367h92v-115h-315v115h90z" />
    <glyph glyph-name="Igrave.sc.ss01" horiz-adv-x="427" 
d="M192 843l114 -174h-107l-145 174h138zM146 115v367h-90v115h315v-115h-92v-367h92v-115h-315v115h90z" />
    <glyph glyph-name="Imacron.sc.ss01" horiz-adv-x="427" 
d="M34 707v89h355v-89h-355zM146 115v367h-90v115h315v-115h-92v-367h92v-115h-315v115h90z" />
    <glyph glyph-name="Iogonek.sc.ss01" horiz-adv-x="427" 
d="M371 482h-92v-367h92v-115h-45c-53 -29 -90 -59 -90 -91s27 -49 58 -49c11 0 27 2 32 5v-77c-7 -5 -33 -12 -61 -12c-79 0 -133 44 -133 111c0 36 16 74 59 113h-135v115h90v367h-90v115h315v-115z" />
    <glyph glyph-name="J.sc.ss01" horiz-adv-x="467" 
d="M392 597v-398c0 -137 -74 -213 -202 -213c-60 0 -110 18 -151 48v134c32 -35 80 -57 124 -57c62 0 95 30 95 104v259h-162v123h296z" />
    <glyph glyph-name="uni0410" unicode="&#x410;" horiz-adv-x="742" 
d="M737 0h-147l-73 196h-292l-72 -196h-146l283 745h161zM370 597l-105 -283h211z" />
    <glyph glyph-name="uni0411" unicode="&#x411;" horiz-adv-x="644" 
d="M317 465c190 0 287 -76 287 -223c0 -149 -106 -242 -283 -242h-233v745h470v-120h-329l-1 1v-161h89zM313 120c93 0 149 40 149 116c0 74 -50 112 -150 112h-84v-228h85z" />
    <glyph glyph-name="uni0412" unicode="&#x412;" horiz-adv-x="670" 
d="M491 384c87 -28 133 -92 133 -176c0 -112 -85 -208 -262 -208h-274v745h262c166 0 253 -86 253 -197c0 -85 -48 -139 -112 -164zM227 625v-194h119c80 0 123 43 123 98c0 58 -43 96 -119 96h-123zM353 121c87 0 133 44 133 104c0 64 -52 103 -129 103h-130v-207h126z" />
    <glyph glyph-name="uni0413" unicode="&#x413;" horiz-adv-x="531" 
d="M88 0v745h423v-127h-283v-618h-140z" />
    <glyph glyph-name="uni0414" unicode="&#x414;" horiz-adv-x="782" 
d="M649 129h98v-299h-127v170h-475v-170h-128v299h76c36 55 66 140 66 312v304h490v-616zM294 428c0 -132 -22 -232 -59 -299h274v488h-215v-189z" />
    <glyph glyph-name="uni0415" unicode="&#x415;" horiz-adv-x="597" 
d="M88 0v745h449v-127h-309v-181h283v-118h-283v-192h309v-127h-449z" />
    <glyph glyph-name="uni0401" unicode="&#x401;" horiz-adv-x="597" 
d="M199 834c-37 0 -68 30 -68 67s31 67 68 67c38 0 69 -30 69 -67s-31 -67 -69 -67zM422 834c-38 0 -68 30 -68 67s30 67 68 67s68 -30 68 -67s-30 -67 -68 -67zM88 0v745h449v-127h-309v-181h283v-118h-283v-192h309v-127h-449z" />
    <glyph glyph-name="uni0416" unicode="&#x416;" horiz-adv-x="1051" 
d="M1051 0h-169l-287 359v-359h-139v358l-287 -358h-168l312 379l-308 366h167l284 -353v353h139v-354l285 354h167l-308 -366z" />
    <glyph glyph-name="uni0417" unicode="&#x417;" horiz-adv-x="593" 
d="M406 384c79 -20 134 -87 134 -175c0 -133 -105 -225 -270 -225c-80 0 -160 20 -223 63v142c48 -43 129 -80 207 -80c86 0 143 44 143 111c0 69 -50 101 -151 101h-93v116h102c84 0 133 35 133 99s-55 102 -143 102c-65 0 -137 -22 -188 -58v132c56 31 125 50 209 50
c171 0 261 -79 261 -205c0 -82 -53 -147 -121 -173z" />
    <glyph glyph-name="uni0418" unicode="&#x418;" horiz-adv-x="812" 
d="M88 0v745h134v-533h1l365 533h136v-745h-134v539h-1l-366 -539h-135z" />
    <glyph glyph-name="uni0419" unicode="&#x419;" horiz-adv-x="812" 
d="M594 991c0 -118 -83 -171 -183 -171s-183 53 -182 171h102c1 -58 25 -93 80 -93s80 35 80 93h103zM88 0v745h134v-533h1l365 533h136v-745h-134v539h-1l-366 -539h-135z" />
    <glyph glyph-name="uni041A" unicode="&#x41a;" horiz-adv-x="699" 
d="M699 0h-170l-301 359v-359h-140v745h140v-355l299 355h166l-314 -368z" />
    <glyph glyph-name="uni041B" unicode="&#x41b;" horiz-adv-x="717" 
d="M7 -5v123c92 0 130 63 130 211v416h492v-745h-140v617h-215v-286c0 -236 -79 -336 -267 -336z" />
    <glyph glyph-name="uni041C" unicode="&#x41c;" horiz-adv-x="978" 
d="M249 548l-72 -548h-135l110 745h166l174 -532h1l169 532h165l109 -745h-136l-71 551h-3l-177 -551h-121l-176 548h-3z" />
    <glyph glyph-name="uni041D" unicode="&#x41d;" horiz-adv-x="790" 
d="M562 0v310h-334v-310h-140v745h140v-306h334v306h140v-745h-140z" />
    <glyph glyph-name="uni041E" unicode="&#x41e;" horiz-adv-x="849" 
d="M426 -17c-217 0 -381 165 -381 390c0 224 164 389 381 389c216 0 379 -165 379 -389c0 -225 -163 -390 -379 -390zM426 113c121 0 237 95 237 260c0 164 -116 259 -237 259c-124 0 -238 -95 -238 -259c0 -166 115 -260 238 -260z" />
    <glyph glyph-name="uni041F" unicode="&#x41f;" horiz-adv-x="767" 
d="M539 0v617h-311v-617h-140v745h591v-745h-140z" />
    <glyph glyph-name="uni0420" unicode="&#x420;" horiz-adv-x="640" 
d="M88 0v745h208c196 0 313 -97 313 -255c0 -151 -112 -266 -306 -266h-75v-224h-140zM310 351c94 0 158 49 158 134c0 86 -64 132 -159 132h-81v-266h82z" />
    <glyph glyph-name="uni0421" unicode="&#x421;" horiz-adv-x="671" 
d="M625 35c-51 -28 -116 -51 -202 -51c-202 0 -379 153 -379 389s177 389 379 389c86 0 151 -23 202 -51v-141c-59 39 -114 61 -189 61c-131 0 -249 -99 -249 -258c0 -158 118 -259 249 -259c75 0 130 25 189 64v-143z" />
    <glyph glyph-name="uni0422" unicode="&#x422;" horiz-adv-x="629" 
d="M245 0v617h-224v128h587v-128h-223v-617h-140z" />
    <glyph glyph-name="uni0423" unicode="&#x423;" horiz-adv-x="686" 
d="M544 745h142l-232 -535c-71 -165 -151 -218 -314 -218v123c82 0 129 20 164 84l-298 546h152l216 -419z" />
    <glyph glyph-name="uni0424" unicode="&#x424;" horiz-adv-x="889" 
d="M512 710c192 0 338 -137 338 -328c0 -190 -146 -328 -338 -328v-70h-135v70c-192 0 -337 137 -337 328s145 328 337 328v70h135v-70zM172 382c0 -119 86 -208 205 -208v416c-119 0 -205 -89 -205 -208zM512 174c119 0 205 89 205 208s-86 208 -205 208v-416z" />
    <glyph glyph-name="uni0425" unicode="&#x425;" horiz-adv-x="688" 
d="M10 0l245 374l-243 371h162l173 -270l169 270h159l-242 -370l247 -375h-161l-177 273l-172 -273h-160z" />
    <glyph glyph-name="uni0427" unicode="&#x427;" horiz-adv-x="667" 
d="M439 745h140v-745h-140v293c-48 -17 -100 -28 -164 -28c-143 0 -230 77 -230 232v248h140v-219c0 -91 43 -132 128 -132c45 0 92 10 126 25v326z" />
    <glyph glyph-name="uni0426" unicode="&#x426;" horiz-adv-x="795" 
d="M662 129h98v-299h-126v170h-546v745h140v-616h294v616h140v-616z" />
    <glyph glyph-name="uni0428" unicode="&#x428;" horiz-adv-x="1034" 
d="M806 745h140v-745h-858v745h140v-616h219v616h140v-616h219v616z" />
    <glyph glyph-name="uni0429" unicode="&#x429;" horiz-adv-x="1077" 
d="M943 129h99v-299h-127v170h-827v745h140v-616h218v616h140v-616h217v616h140v-616z" />
    <glyph glyph-name="uni040F" unicode="&#x40f;" horiz-adv-x="749" 
d="M661 745v-745h-223v-170h-126v170h-224v745h140v-616h293v616h140z" />
    <glyph glyph-name="uni042C" unicode="&#x42c;" horiz-adv-x="635" 
d="M307 498c188 0 297 -84 297 -242s-121 -256 -299 -256h-217v745h140v-247h79zM311 121c93 0 151 49 151 131s-57 126 -152 126h-82v-257h83z" />
    <glyph glyph-name="uni042A" unicode="&#x42a;" horiz-adv-x="766" 
d="M438 498c188 0 297 -84 297 -242s-120 -256 -298 -256h-215v617h-201v128h341v-247h76zM443 121c92 0 151 49 151 131s-58 126 -152 126h-80v-257h81z" />
    <glyph glyph-name="uni042B" unicode="&#x42b;" horiz-adv-x="915" 
d="M299 498c188 0 297 -84 297 -242s-120 -256 -298 -256h-210v745h140v-247h71zM686 745h141v-745h-141v745zM304 121c92 0 151 49 151 131s-58 126 -152 126h-75v-257h76z" />
    <glyph glyph-name="uni0409" unicode="&#x409;" horiz-adv-x="1023" 
d="M695 498c188 0 297 -82 297 -240s-121 -256 -299 -256h-205v615h-215v-281c0 -236 -79 -336 -266 -336v123c92 0 130 63 130 211v411h487v-247h71zM699 123c93 0 151 49 151 131s-57 124 -152 124h-74v-255h75z" />
    <glyph glyph-name="uni040A" unicode="&#x40a;" horiz-adv-x="1071" 
d="M751 465c186 0 290 -74 290 -224s-108 -241 -288 -241h-219v339h-306v-339h-140v745h140v-280h306v280h136v-280h81zM754 117c93 0 148 42 148 119c0 78 -54 112 -149 112h-83v-231h84z" />
    <glyph glyph-name="uni042D" unicode="&#x42d;" horiz-adv-x="692" 
d="M264 760c214 0 383 -147 383 -387s-170 -387 -387 -387c-75 0 -143 15 -210 46v136c66 -37 127 -54 198 -54c132 0 234 69 254 204h-345v116h344c-22 130 -122 196 -251 196c-76 0 -140 -16 -200 -51v135c67 31 134 46 214 46z" />
    <glyph glyph-name="uni0408" unicode="&#x408;" horiz-adv-x="484" 
d="M27 177c31 -34 71 -60 122 -60c69 0 114 44 114 131v497h140v-515c0 -141 -84 -243 -231 -243c-54 0 -109 19 -145 50v140z" />
    <glyph glyph-name="uni040B" unicode="&#x40b;" horiz-adv-x="774" 
d="M501 468c142 0 228 -70 228 -225v-243h-140v210c0 91 -38 129 -122 129c-49 0 -96 -9 -132 -24v-315h-140v617h-173v128h173v1h140v-1h263v-126h-263v-178c49 18 103 27 166 27z" />
    <glyph glyph-name="uni042E" unicode="&#x42e;" horiz-adv-x="1103" 
d="M694 759c209 0 364 -161 364 -386c0 -226 -156 -388 -364 -388c-189 0 -335 133 -361 325h-105v-310h-140v745h140v-311h105c25 193 171 325 361 325zM694 114c131 0 223 107 223 259s-93 258 -223 258c-131 0 -224 -106 -224 -258s93 -259 224 -259z" />
    <glyph glyph-name="uni042F" unicode="&#x42f;" horiz-adv-x="661" 
d="M341 745h232v-745h-140v315l-239 -315h-171l241 282c-162 28 -208 134 -208 228c0 152 111 235 285 235zM344 385h89v232h-91c-94 0 -144 -41 -144 -115c0 -77 55 -117 146 -117z" />
    <glyph glyph-name="uni0402" unicode="&#x402;" horiz-adv-x="762" 
d="M495 463c140 0 237 -80 237 -225c0 -141 -88 -238 -241 -238h-27v117h11c71 0 113 41 113 110c0 76 -48 113 -126 113c-46 0 -91 -9 -128 -25v-315h-140v617h-172v128h574v-126h-262v-181c50 17 101 25 161 25z" />
    <glyph glyph-name="uni0414.BUL" horiz-adv-x="821" 
d="M718 129h83v-299h-128v170h-525v-170h-128v299h84l226 616h162zM411 604l-166 -475h331z" />
    <glyph glyph-name="uni041B.BUL" horiz-adv-x="717" 
d="M9 0l269 745h161l271 -745h-147l-205 597l-203 -597h-146z" />
    <glyph glyph-name="uni0409.BUL" horiz-adv-x="988" 
d="M660 498c188 0 297 -84 297 -242s-121 -256 -299 -256h-205v623h-9l-306 -623h-148l367 745h232v-247h71zM664 121c93 0 151 49 151 131s-57 126 -152 126h-74v-257h75z" />
    <glyph glyph-name="uni0430" unicode="&#x430;" horiz-adv-x="676" 
d="M287 -14c-125 0 -246 115 -246 288c0 175 121 289 246 289c81 0 148 -40 186 -103l14 90h116v-550h-116l-14 90c-38 -63 -105 -104 -186 -104zM325 112c81 0 142 67 142 163s-61 163 -142 163c-83 0 -145 -68 -145 -163s62 -163 145 -163z" />
    <glyph glyph-name="uni0431" unicode="&#x431;" horiz-adv-x="659" 
d="M376 529c142 0 241 -117 241 -269c0 -160 -112 -274 -274 -274c-183 0 -289 128 -288 357c0 262 94 378 271 424c70 19 165 32 252 44v-128c-74 -9 -159 -22 -216 -35c-113 -25 -170 -89 -182 -225c42 66 116 106 196 106zM338 107c85 0 145 63 145 153
c0 88 -59 151 -143 151c-87 0 -149 -62 -149 -147c0 -91 61 -157 147 -157z" />
    <glyph glyph-name="uni0432" unicode="&#x432;" horiz-adv-x="574" 
d="M429 282c61 -17 101 -67 101 -130c0 -93 -78 -152 -202 -152h-255v550h248c120 0 192 -56 192 -147c0 -55 -33 -102 -84 -121zM207 453v-132h95c50 0 82 24 82 68c0 43 -31 64 -85 64h-92zM304 97c58 0 92 23 92 70c0 44 -36 68 -93 68h-96v-138h97z" />
    <glyph glyph-name="uni0433" unicode="&#x433;" horiz-adv-x="441" 
d="M73 0v550h350v-115h-212v-435h-138z" />
    <glyph glyph-name="uni0434" unicode="&#x434;" horiz-adv-x="667" 
d="M549 115h85v-243h-121v128h-372v-128h-119v243h59c32 46 49 108 49 194v241h419v-435zM262 307c0 -86 -22 -154 -44 -192h195v322h-151v-130z" />
    <glyph glyph-name="uni0435" unicode="&#x435;" horiz-adv-x="602" 
d="M563 285c0 -19 -2 -35 -4 -50h-385c19 -89 90 -137 180 -137c61 0 121 22 175 60v-118c-56 -35 -121 -54 -191 -54c-186 0 -297 119 -297 287c0 176 123 290 273 290c137 0 249 -96 249 -278zM172 322h259c-2 85 -54 130 -118 130c-68 0 -126 -50 -141 -130z" />
    <glyph glyph-name="uni0451" unicode="&#x451;" horiz-adv-x="602" 
d="M204 638c-37 0 -68 30 -68 67s31 67 68 67c38 0 69 -30 69 -67s-31 -67 -69 -67zM427 638c-38 0 -68 30 -68 67s30 67 68 67s68 -30 68 -67s-30 -67 -68 -67zM563 285c0 -19 -2 -35 -4 -50h-385c19 -89 90 -137 180 -137c61 0 121 22 175 60v-118
c-56 -35 -121 -54 -191 -54c-186 0 -297 119 -297 287c0 176 123 290 273 290c137 0 249 -96 249 -278zM172 322h259c-2 85 -54 130 -118 130c-68 0 -126 -50 -141 -130z" />
    <glyph glyph-name="uni0436" unicode="&#x436;" horiz-adv-x="827" 
d="M817 0h-158l-176 266v-266h-135v268l-176 -268h-159l203 285l-196 265h154l174 -252v252h135v-251l173 251h155l-197 -265z" />
    <glyph glyph-name="uni0437" unicode="&#x437;" horiz-adv-x="511" 
d="M238 -14c-74 0 -139 18 -192 51v129c51 -39 115 -66 188 -66c61 0 97 25 97 66c0 40 -40 64 -110 64h-85v97h87c61 0 95 27 95 67c0 37 -34 56 -95 56c-57 0 -124 -18 -167 -50v120c47 28 115 43 180 43c138 0 216 -57 216 -150c0 -60 -36 -108 -88 -129
c62 -19 104 -68 104 -132c0 -98 -88 -166 -230 -166z" />
    <glyph glyph-name="uni0438" unicode="&#x438;" horiz-adv-x="633" 
d="M73 0v549h128v-349h2l228 349h129v-549h-128v346h-2l-222 -346h-135z" />
    <glyph glyph-name="uni0439" unicode="&#x439;" horiz-adv-x="633" 
d="M498 795c0 -118 -83 -171 -183 -171s-183 53 -182 171h102c1 -58 25 -93 80 -93s80 35 80 93h103zM73 0v549h128v-349h2l228 349h129v-549h-128v346h-2l-222 -346h-135z" />
    <glyph glyph-name="uni043A" unicode="&#x43a;" horiz-adv-x="570" 
d="M561 0h-160l-190 269v-269h-138v550h138v-253l187 253h157l-206 -265z" />
    <glyph glyph-name="uni043B" unicode="&#x43b;" horiz-adv-x="601" 
d="M19 -5l1 120c64 0 91 38 91 142v293h417v-550h-138v435h-144v-195c0 -171 -70 -245 -227 -245z" />
    <glyph glyph-name="uni043C" unicode="&#x43c;" horiz-adv-x="751" 
d="M48 0l58 549h148l122 -353h2l122 353h144l60 -549h-131l-26 353h-3l-119 -346h-101l-119 348h-3l-25 -355h-129z" />
    <glyph glyph-name="uni043D" unicode="&#x43d;" horiz-adv-x="627" 
d="M73 0v550h138v-219h205v219h138v-550h-138v216h-205v-216h-138z" />
    <glyph glyph-name="uni043E" unicode="&#x43e;" horiz-adv-x="649" 
d="M325 -14c-161 0 -284 120 -284 289s124 288 284 288c161 0 283 -119 283 -288c0 -168 -122 -289 -283 -289zM325 112c74 0 144 60 144 163c0 104 -70 163 -144 163s-145 -59 -145 -163s71 -163 145 -163z" />
    <glyph glyph-name="uni043F" unicode="&#x43f;" horiz-adv-x="619" 
d="M73 0v550h473v-550h-138v435h-197v-435h-138z" />
    <glyph glyph-name="uni0440" unicode="&#x440;" horiz-adv-x="677" 
d="M73 -210v760h116l14 -90c38 63 105 103 184 103c129 0 248 -112 248 -288s-116 -289 -245 -289c-73 0 -144 40 -179 99v-295h-138zM351 112c83 0 145 68 145 164c0 95 -62 162 -144 162c-81 0 -143 -67 -143 -163s62 -163 142 -163z" />
    <glyph glyph-name="uni0441" unicode="&#x441;" horiz-adv-x="533" 
d="M180 275c0 -102 76 -163 164 -163c44 0 95 9 141 42v-129c-44 -24 -100 -39 -159 -39c-162 0 -285 122 -285 290c0 166 124 287 285 287c56 0 113 -11 159 -38v-130c-46 31 -90 43 -142 43c-87 0 -163 -62 -163 -163z" />
    <glyph glyph-name="uni0442" unicode="&#x442;" horiz-adv-x="492" 
d="M177 0v435h-158v115h455v-115h-159v-435h-138z" />
    <glyph glyph-name="uni0443" unicode="&#x443;" horiz-adv-x="578" 
d="M566 550l-299 -760h-139l94 227l-207 533h149l128 -380h3l129 380h142z" />
    <glyph glyph-name="uni0444" unicode="&#x444;" horiz-adv-x="805" 
d="M765 275c0 -171 -133 -287 -296 -288v-197h-132v197c-163 0 -297 116 -297 288s133 287 297 287v240h132v-240c164 -1 296 -116 296 -287zM174 275c0 -104 70 -176 163 -177v354c-93 -1 -163 -73 -163 -177zM469 99c94 1 162 73 162 176s-68 176 -162 177v-353z" />
    <glyph glyph-name="uni0445" unicode="&#x445;" horiz-adv-x="568" 
d="M549 550l-184 -270l191 -280h-156l-117 185h-2l-117 -185h-149l188 275l-186 275h151l116 -183h1l115 183h149z" />
    <glyph glyph-name="uni0447" unicode="&#x447;" horiz-adv-x="563" 
d="M352 550h138v-550h-138v201c-38 -13 -84 -22 -130 -22c-120 0 -183 63 -183 181v190h138v-160c0 -64 27 -92 87 -92c32 0 63 6 88 15v237z" />
    <glyph glyph-name="uni0446" unicode="&#x446;" horiz-adv-x="654" 
d="M539 115h85v-243h-121v128h-430v550h138v-435h190v435h138v-435z" />
    <glyph glyph-name="uni0448" unicode="&#x448;" horiz-adv-x="865" 
d="M654 549h138v-549h-719v549h138v-434h154v434h136v-434h153v434z" />
    <glyph glyph-name="uni0449" unicode="&#x449;" horiz-adv-x="905" 
d="M790 115h85v-243h-121v128h-681v549h138v-434h153v434h136v-434h152v434h138v-434z" />
    <glyph glyph-name="uni045F" unicode="&#x45f;" horiz-adv-x="612" 
d="M539 549v-549h-173v-128h-121v128h-172v549h138v-434h190v434h138z" />
    <glyph glyph-name="uni044C" unicode="&#x44c;" horiz-adv-x="536" 
d="M306 375c122 0 205 -77 205 -186s-94 -189 -218 -189h-220v550h138v-175h95zM286 101c54 0 89 38 89 88s-31 86 -85 86h-79v-174h75z" />
    <glyph glyph-name="uni044A" unicode="&#x44a;" horiz-adv-x="621" 
d="M389 375c122 0 206 -77 206 -186s-93 -189 -218 -189h-217v435h-140v115h278v-175h91zM370 101c55 0 90 38 90 88s-31 86 -85 86h-77v-174h72z" />
    <glyph glyph-name="uni044B" unicode="&#x44b;" horiz-adv-x="787" 
d="M301 375c122 0 204 -77 204 -186s-93 -189 -218 -189h-214v550h138v-175h90zM576 550h138v-550h-138v550zM280 101c55 0 90 38 90 88s-31 86 -85 86h-74v-174h69z" />
    <glyph glyph-name="uni0459" unicode="&#x459;" horiz-adv-x="843" 
d="M614 375c122 0 203 -77 203 -186s-93 -189 -218 -189h-210v435h-144l1 -190c0 -171 -70 -245 -226 -245l1 120c64 0 91 38 91 142l-1 288h412v-175h91zM592 101c55 0 90 38 90 88s-31 86 -85 86h-74v-174h69z" />
    <glyph glyph-name="uni045A" unicode="&#x45a;" horiz-adv-x="863" 
d="M635 353c122 0 203 -66 203 -173c0 -105 -93 -180 -218 -180h-211v242h-198v-242h-138v550h138v-197h198v197h134v-197h92zM615 99c54 0 89 30 89 80s-31 76 -85 76h-76v-156h72z" />
    <glyph glyph-name="uni044D" unicode="&#x44d;" horiz-adv-x="546" 
d="M215 563c166 0 291 -112 291 -288c0 -177 -126 -288 -292 -288c-59 0 -122 10 -167 35v113c49 -28 106 -36 151 -36c88 0 154 43 170 130h-234v98h233c-17 83 -80 124 -168 124c-45 0 -102 -8 -152 -35v112c46 26 111 35 168 35z" />
    <glyph glyph-name="uni0458" unicode="&#x458;" horiz-adv-x="284" 
d="M143 642c-44 0 -78 33 -78 76s34 77 78 77c43 0 77 -34 77 -77s-34 -76 -77 -76zM-30 -210c70 76 104 155 104 288v472h138v-461c0 -121 -23 -215 -88 -299h-154z" />
    <glyph glyph-name="uni045B" unicode="&#x45b;" horiz-adv-x="625" 
d="M363 553c119 0 195 -69 195 -197v-356h-138v316c0 76 -33 112 -100 112c-60 0 -109 -36 -109 -106v-322h-138v626h-78v96h78v80h138v-80h150v-96h-150v-143h1c31 41 87 70 151 70z" />
    <glyph glyph-name="uni044E" unicode="&#x44e;" horiz-adv-x="882" 
d="M564 562c153 0 277 -111 277 -287c0 -175 -125 -288 -277 -288c-133 0 -247 88 -272 230h-81v-217h-138v550h138v-221h80c23 144 139 233 273 233zM564 112c79 0 139 65 139 163c0 99 -60 162 -139 162c-78 0 -139 -64 -139 -162c0 -97 61 -163 139 -163z" />
    <glyph glyph-name="uni044F" unicode="&#x44f;" horiz-adv-x="565" 
d="M276 550h216v-550h-138v226l-167 -226h-160l169 196c-101 23 -147 97 -147 173c0 102 75 181 227 181zM270 280h84v159h-84c-57 0 -89 -31 -89 -80c0 -53 33 -79 89 -79z" />
    <glyph glyph-name="uni0452" unicode="&#x452;" horiz-adv-x="625" 
d="M363 553c119 0 195 -69 195 -197v-267c0 -121 -23 -215 -88 -299h-154c70 76 104 155 104 288v238c0 76 -33 112 -100 112c-60 0 -109 -36 -109 -106v-322h-138v626h-78v96h78v80h138v-80h150v-96h-150v-143h1c31 41 87 70 151 70z" />
    <glyph glyph-name="uni0432.BUL" horiz-adv-x="658" 
d="M446 437c106 -30 173 -109 173 -210c0 -136 -109 -241 -275 -241c-178 0 -280 103 -280 292v272c0 160 100 260 257 260c147 0 242 -88 245 -198c2 -75 -40 -143 -120 -175zM320 694c-77 0 -119 -48 -119 -137v-83h98c81 0 134 47 133 120c0 56 -45 100 -112 100z
M343 107c80 0 138 54 138 134c0 77 -68 133 -170 133l-110 -1v-106c0 -101 52 -160 142 -160z" />
    <glyph glyph-name="uni0433.BUL" horiz-adv-x="508" 
d="M459 392c0 -99 -81 -133 -170 -158c-74 -22 -117 -35 -117 -74c0 -36 35 -59 97 -59c80 0 143 32 188 72v-131c-49 -35 -117 -56 -194 -56c-142 0 -225 69 -225 175c0 114 96 144 184 167c67 18 103 32 103 67c0 33 -31 54 -87 54c-63 0 -127 -22 -166 -51v121
c41 27 107 44 171 44c135 0 216 -72 216 -171z" />
    <glyph glyph-name="uni0434.BUL" horiz-adv-x="673" 
d="M289 562c78 0 144 -40 181 -98l15 86h115v-488c0 -184 -128 -286 -296 -286c-76 0 -150 24 -207 65v135c55 -48 129 -78 196 -78c97 0 169 59 169 147v61c-35 -55 -98 -95 -175 -95c-129 0 -246 111 -246 276c0 161 120 275 248 275zM323 439c-82 0 -143 -67 -143 -153
s61 -153 143 -153c81 0 142 68 142 155c0 86 -61 151 -142 151z" />
    <glyph glyph-name="uni0436.BUL" horiz-adv-x="827" 
d="M817 0h-158l-176 266v-266h-135v268l-176 -268h-159l203 285l-196 265h154l174 -252v504h135v-503l173 251h155l-197 -265z" />
    <glyph glyph-name="uni0437.BUL" horiz-adv-x="526" 
d="M228 -224c-79 0 -146 20 -193 52v131c43 -36 113 -61 177 -61c86 0 132 46 132 128c0 74 -54 116 -138 116h-122v107h122c77 0 130 37 130 98c0 63 -45 95 -125 95c-59 0 -128 -20 -171 -48v124c48 27 122 45 198 45c141 0 233 -79 233 -196c0 -85 -46 -143 -108 -167
l1 -1c70 -25 118 -96 118 -191c0 -141 -108 -232 -254 -232z" />
    <glyph glyph-name="uni0438.BUL" horiz-adv-x="621" 
d="M256 -13c-117 0 -188 71 -188 192v370h138v-335c0 -68 36 -104 97 -104s107 39 107 103v336h138v-549h-107l-14 87h-3c-30 -61 -91 -100 -168 -100z" />
    <glyph glyph-name="uni0439.BUL" horiz-adv-x="621" 
d="M493 795c0 -118 -83 -171 -183 -171s-183 53 -182 171h102c1 -58 25 -93 80 -93s80 35 80 93h103zM256 -13c-117 0 -188 71 -188 192v370h138v-335c0 -68 36 -104 97 -104s107 39 107 103v336h138v-549h-107l-14 87h-3c-30 -61 -91 -100 -168 -100z" />
    <glyph glyph-name="uni043A.BUL" horiz-adv-x="566" 
d="M558 0h-155l-192 273v-273h-138v745h138v-452l188 256h149l-201 -264z" />
    <glyph glyph-name="uni043B.BUL" horiz-adv-x="600" 
d="M374 550l212 -550h-147l-140 403h-3l-141 -403h-141l212 550h148z" />
    <glyph glyph-name="uni043F.BUL" horiz-adv-x="626" 
d="M364 563c120 0 194 -75 194 -196v-367h-138v325c0 76 -34 112 -100 112c-63 0 -109 -45 -109 -108v-329h-138v550h107l15 -79h3c32 51 90 92 166 92z" />
    <glyph glyph-name="uni0442.BUL" horiz-adv-x="904" 
d="M660 563c120 0 176 -79 176 -198v-365h-138v338c0 66 -24 99 -83 99s-91 -44 -91 -95v-342h-138v338c0 66 -24 99 -84 99s-91 -48 -91 -101v-336h-138v550h107l15 -78h3c28 50 77 91 150 91c78 0 127 -36 154 -94c35 58 87 94 158 94z" />
    <glyph glyph-name="uni0446.BUL" horiz-adv-x="663" 
d="M548 115h85v-243h-121v128h-71l-14 79h-3c-32 -51 -89 -93 -164 -93c-119 0 -192 76 -192 197v367h138v-325c0 -76 33 -112 97 -112c62 0 107 45 107 108v329h138v-435z" />
    <glyph glyph-name="uni0448.BUL" horiz-adv-x="895" 
d="M243 -14c-120 0 -175 80 -175 199v365h138v-338c0 -66 22 -99 81 -99c58 0 89 44 89 95v342h138v-338c0 -66 23 -99 81 -99c60 0 89 48 89 101v336h138v-550h-107l-14 78h-3c-28 -50 -76 -92 -148 -92c-77 0 -125 37 -152 95c-34 -58 -85 -95 -155 -95z" />
    <glyph glyph-name="uni0449.BUL" horiz-adv-x="939" 
d="M824 115h85v-243h-121v128h-71l-14 78h-3c-28 -50 -76 -92 -149 -92c-77 0 -125 37 -152 95c-34 -58 -86 -95 -156 -95c-120 0 -175 80 -175 199v365h138v-338c0 -66 23 -99 81 -99s90 44 90 95v342h138v-338c0 -66 23 -99 81 -99c60 0 90 48 90 101v336h138v-435z" />
    <glyph glyph-name="uni044C.BUL" horiz-adv-x="551" 
d="M301 385c148 0 221 -66 221 -195c0 -118 -87 -205 -226 -205c-156 0 -228 67 -228 198v367h138v-165h95zM295 88c58 0 96 39 96 101c0 63 -35 96 -103 96h-82v-113c0 -60 29 -84 89 -84z" />
    <glyph glyph-name="uni044A.BUL" horiz-adv-x="641" 
d="M391 385c147 0 221 -66 221 -195c0 -118 -87 -205 -226 -205c-155 0 -227 67 -227 198v252h-141v115h279v-165h94zM385 88c58 0 96 39 96 101c0 63 -35 96 -104 96h-80v-113c0 -60 28 -84 88 -84z" />
    <glyph glyph-name="uni044E.BUL" horiz-adv-x="887" 
d="M569 562c153 0 277 -111 277 -287c0 -175 -125 -288 -277 -288c-132 0 -247 88 -272 229h-86v-216h-138v802h138v-471h86c23 143 139 231 272 231zM569 112c79 0 139 65 139 163c0 99 -60 162 -139 162c-78 0 -139 -63 -139 -162c0 -98 61 -163 139 -163z" />
    <glyph glyph-name="uni0431.SRB" horiz-adv-x="634" 
d="M387 526c137 -82 208 -163 208 -285c0 -147 -115 -256 -285 -256c-159 0 -271 97 -271 246c0 110 77 210 189 251c-75 50 -114 99 -114 165c0 101 86 163 229 163c62 0 132 -16 199 -39v-116c-75 29 -136 41 -186 41c-57 0 -96 -18 -96 -58c0 -35 24 -53 127 -112z
M316 107c83 0 142 57 142 136c0 72 -40 126 -133 178c-92 -35 -149 -107 -149 -182c0 -81 55 -132 140 -132z" />
    <glyph glyph-name="uni0434.ss01" horiz-adv-x="684" 
d="M587 115h74v-243h-121v128h-395v-128h-121v243h73l172 435h147zM338 416l-106 -301h215l-106 301h-3z" />
    <glyph glyph-name="uni0459.ss01" horiz-adv-x="812" 
d="M584 375c122 0 203 -77 203 -186s-94 -189 -218 -189h-210v429h-8l-211 -429h-142l275 550h220v-175h91zM562 101c54 0 89 38 89 88s-31 86 -85 86h-73v-174h69z" />
    <glyph glyph-name="uni0434.BUL.sc" horiz-adv-x="686" 
d="M582 124h81v-260h-112l-2 136h-413v-136h-112v260h82l158 473h161zM345 488l-115 -364h228z" />
    <glyph glyph-name="uni043B.BUL.sc" horiz-adv-x="589" 
d="M18 0l197 597h160l196 -597h-132l-144 476l-145 -476h-132z" />
    <glyph glyph-name="uni0459.BUL.sc" horiz-adv-x="828" 
d="M551 409c161 0 244 -73 244 -197c0 -127 -97 -213 -246 -213h-182v494h-6l-230 -493h-137l290 597h213v-188h54zM552 112c68 0 109 35 109 96c0 57 -39 88 -110 88h-54v-184h55z" />
    <glyph glyph-name="uni0430.sc" horiz-adv-x="596" 
d="M448 0l-45 147h-209l-46 -147h-132l202 597h161l201 -597h-132zM225 247h147l-72 234h-3z" />
    <glyph glyph-name="uni0431.sc" horiz-adv-x="560" 
d="M279 374c155 0 239 -56 239 -178s-88 -197 -236 -197h-201v598h397v-112h-264v-111h65zM276 101c66 0 107 32 107 89c0 58 -38 82 -108 82h-61v-171h62z" />
    <glyph glyph-name="uni0432.sc" horiz-adv-x="570" 
d="M424 306c66 -22 101 -71 101 -139c0 -95 -74 -167 -219 -167h-225v597h215c137 0 210 -63 210 -161c0 -60 -31 -106 -82 -130zM214 493v-146h74c55 -1 90 29 90 75c0 44 -33 71 -90 71h-74zM294 105c61 0 98 29 98 77s-36 76 -99 76h-79v-153h80z" />
    <glyph glyph-name="uni0433.sc" horiz-adv-x="464" 
d="M81 0v597h355v-125h-221v-472h-134z" />
    <glyph glyph-name="uni0434.sc" horiz-adv-x="676" 
d="M556 115h81v-251h-116v136h-382v-136h-114v251h62c31 48 51 106 51 220v262h418v-482zM267 331c0 -94 -16 -164 -46 -216h203v370h-157v-154z" />
    <glyph glyph-name="uni0435.sc" horiz-adv-x="506" 
d="M81 0v597h367v-113h-233v-132h213v-100h-213v-139h233v-113h-367z" />
    <glyph glyph-name="uni0451.sc" horiz-adv-x="506" 
d="M151 686c-37 0 -68 30 -68 67s31 67 68 67c38 0 69 -30 69 -67s-31 -67 -69 -67zM374 686c-38 0 -68 30 -68 67s30 67 68 67s68 -30 68 -67s-30 -67 -68 -67zM81 0v597h367v-113h-233v-132h213v-100h-213v-139h233v-113h-367z" />
    <glyph glyph-name="uni0436.sc" horiz-adv-x="845" 
d="M831 0h-150l-192 298v-298h-132v298l-192 -298h-150l212 313l-207 284h145l192 -272v272h132v-272l192 272h145l-207 -284z" />
    <glyph glyph-name="uni0437.sc" horiz-adv-x="509" 
d="M355 307c66 -20 103 -71 103 -141c0 -103 -87 -180 -224 -180c-63 0 -135 16 -184 45v128c50 -37 111 -56 160 -56c67 0 112 32 112 80c0 44 -33 69 -107 69h-90v101h94c69 0 99 28 99 72c0 41 -39 67 -103 67c-52 0 -107 -12 -156 -38v122c45 22 111 34 175 34
c139 0 217 -66 217 -162c0 -64 -38 -117 -96 -141z" />
    <glyph glyph-name="uni0438.sc" horiz-adv-x="672" 
d="M80 597h126v-398l253 398h132v-597h-125v402l-258 -402h-128v597z" />
    <glyph glyph-name="uni0439.sc" horiz-adv-x="672" 
d="M513 843c0 -118 -83 -171 -183 -171s-183 53 -182 171h102c1 -58 25 -93 80 -93s80 35 80 93h103zM80 597h126v-398l253 398h132v-597h-125v402l-258 -402h-128v597z" />
    <glyph glyph-name="uni043A.sc" horiz-adv-x="582" 
d="M568 0h-154l-199 299v-299h-134v597h134v-273l199 273h150l-214 -284z" />
    <glyph glyph-name="uni043B.sc" horiz-adv-x="623" 
d="M20 -5v118c75 0 103 41 103 148v336h420v-597h-135v482h-154v-220c0 -191 -67 -267 -234 -267z" />
    <glyph glyph-name="uni043C.sc" horiz-adv-x="812" 
d="M220 417l-49 -417h-127l87 597h148l127 -414h2l126 414h147l87 -597h-129l-49 417h-2l-129 -417h-111l-125 417h-3z" />
    <glyph glyph-name="uni043D.sc" horiz-adv-x="672" 
d="M457 0v236h-242v-236h-134v597h134v-236h242v236h134v-597h-134z" />
    <glyph glyph-name="uni043E.sc" horiz-adv-x="705" 
d="M352 610c168 0 308 -127 308 -312c0 -184 -140 -311 -308 -311s-307 127 -307 311c0 185 139 312 307 312zM352 485c-89 0 -170 -72 -170 -187s82 -186 170 -186c89 0 171 71 171 186s-82 187 -171 187z" />
    <glyph glyph-name="uni043F.sc" horiz-adv-x="656" 
d="M441 0v482h-226v-482h-134v597h494v-597h-134z" />
    <glyph glyph-name="uni0440.sc" horiz-adv-x="544" 
d="M81 597h167c169 0 263 -85 263 -211c0 -122 -88 -219 -255 -219h-41v-167h-134v597zM261 279c77 0 116 44 116 103c0 57 -39 96 -116 96h-46v-199h46z" />
    <glyph glyph-name="uni0441.sc" horiz-adv-x="533" 
d="M488 15c-44 -21 -95 -28 -142 -28c-157 0 -301 117 -301 311s144 312 301 312c49 0 100 -9 142 -29v-124c-41 19 -78 28 -120 28c-116 0 -187 -80 -187 -187c0 -106 71 -186 187 -186c42 0 79 9 120 27v-124z" />
    <glyph glyph-name="uni0442.sc" horiz-adv-x="546" 
d="M206 0v472h-178v125h491v-125h-179v-472h-134z" />
    <glyph glyph-name="uni0443.sc" horiz-adv-x="572" 
d="M438 597h132l-182 -418c-58 -135 -137 -186 -273 -186v115c61 0 103 17 131 56l-241 433h145l164 -320z" />
    <glyph glyph-name="uni0444.sc" horiz-adv-x="759" 
d="M441 569c161 0 277 -106 277 -263s-116 -263 -277 -263v-59h-123v59c-160 0 -277 106 -277 263s117 263 277 263v58h123v-58zM318 150v311c-92 0 -151 -65 -151 -155s59 -156 151 -156zM441 150c92 0 151 66 151 156s-59 155 -151 155v-311z" />
    <glyph glyph-name="uni0445.sc" horiz-adv-x="582" 
d="M561 597l-187 -297l191 -300h-150l-126 210l-123 -210h-147l189 299l-189 298h150l123 -209l121 209h148z" />
    <glyph glyph-name="uni0447.sc" horiz-adv-x="579" 
d="M365 597h134v-597h-134v226c-39 -12 -83 -21 -134 -21c-114 0 -185 64 -185 185v207h134v-181c0 -63 33 -90 93 -90c33 0 66 6 92 15v256z" />
    <glyph glyph-name="uni0446.sc" horiz-adv-x="682" 
d="M562 115h82v-251h-116v136h-447v597h134v-482h213v482h134v-482z" />
    <glyph glyph-name="uni0448.sc" horiz-adv-x="875" 
d="M663 597h132v-597h-714v597h132v-482h159v482h131v-482h160v482z" />
    <glyph glyph-name="uni0449.sc" horiz-adv-x="913" 
d="M793 115h81v-251h-116v136h-677v597h132v-482h158v482h131v-482h159v482h132v-482z" />
    <glyph glyph-name="uni045F.sc" horiz-adv-x="643" 
d="M562 597v-597h-182v-136h-116v136h-183v597h134v-482h213v482h134z" />
    <glyph glyph-name="uni044C.sc" horiz-adv-x="553" 
d="M276 409c160 0 243 -73 243 -197c0 -127 -97 -213 -246 -213h-192v598h134v-188h61zM275 112c69 0 109 35 109 96c0 57 -38 88 -109 88h-60v-184h60z" />
    <glyph glyph-name="uni044A.sc" horiz-adv-x="655" 
d="M378 409c161 0 244 -73 244 -197c0 -127 -97 -213 -246 -213h-190v474h-158v124h292v-188h58zM378 112c68 0 109 35 109 96c0 57 -39 88 -110 88h-57v-184h58z" />
    <glyph glyph-name="uni044B.sc" horiz-adv-x="793" 
d="M269 409c160 0 243 -73 243 -197c0 -127 -97 -213 -246 -213h-185v598h134v-188h54zM579 597h134v-597h-134v597zM269 112c69 0 109 35 109 96c0 57 -38 88 -109 88h-54v-184h54z" />
    <glyph glyph-name="uni0459.sc" horiz-adv-x="868" 
d="M591 409c160 0 243 -73 243 -197c0 -127 -97 -213 -246 -213h-181v483h-154v-222c0 -191 -67 -267 -233 -267v118c74 0 102 41 102 148v338h415v-188h54zM591 112c69 0 109 35 109 96c0 57 -38 88 -109 88h-54v-184h54z" />
    <glyph glyph-name="uni045A.sc" horiz-adv-x="903" 
d="M627 385c161 0 244 -65 244 -185c0 -121 -97 -201 -246 -201h-186v265h-224v-264h-134v597h134v-212h224v212h130v-212h58zM630 107c68 0 109 31 109 88c0 54 -39 78 -110 78h-60v-166h61z" />
    <glyph glyph-name="uni044D.sc" horiz-adv-x="584" 
d="M227 610c177 0 312 -123 312 -311c0 -189 -134 -312 -312 -312c-61 0 -117 11 -175 35v126c58 -31 106 -42 161 -42c110 0 177 55 193 144h-263v101h263c-17 86 -84 140 -193 140c-56 0 -109 -11 -161 -39v124c57 23 113 34 175 34z" />
    <glyph glyph-name="uni0458.sc" horiz-adv-x="396" 
d="M29 128c22 -11 40 -15 59 -15c63 0 100 39 100 116v368h134v-381c0 -135 -78 -227 -212 -227c-31 0 -56 6 -81 16v123z" />
    <glyph glyph-name="uni045B.sc" horiz-adv-x="658" 
d="M429 371c116 0 185 -60 185 -181v-190h-134v169c0 63 -29 87 -88 87c-34 0 -69 -7 -94 -17v-239h-134v472h-135v125h481v-120h-212v-129c38 14 81 23 131 23z" />
    <glyph glyph-name="uni044E.sc" horiz-adv-x="933" 
d="M589 610c169 0 299 -127 299 -311c0 -185 -131 -312 -299 -312c-147 0 -265 98 -292 248h-82v-235h-134v597h134v-243h81c23 154 142 256 293 256zM589 110c93 0 167 71 167 189c0 117 -75 189 -167 189s-166 -72 -166 -189c0 -118 74 -189 166 -189z" />
    <glyph glyph-name="uni044F.sc" horiz-adv-x="569" 
d="M294 597h195v-597h-134v243l-170 -243h-155l175 218c-119 28 -151 112 -151 180c0 136 98 199 240 199zM295 306h60v172h-61c-68 0 -105 -29 -105 -88c0 -58 41 -84 106 -84z" />
    <glyph glyph-name="uni0452.sc" horiz-adv-x="654" 
d="M427 365c117 0 194 -65 194 -178c0 -112 -82 -187 -199 -187h-26v98h10c45 0 81 30 81 80c0 52 -35 76 -91 76c-36 0 -71 -7 -98 -17v-237h-134v472h-135v125h485v-120h-216v-131c37 12 79 19 129 19z" />
    <glyph glyph-name="Alpha" unicode="&#x391;" horiz-adv-x="742" 
d="M737 0h-147l-73 196h-292l-72 -196h-146l283 745h161zM370 597l-105 -283h211z" />
    <glyph glyph-name="Beta" unicode="&#x392;" horiz-adv-x="670" 
d="M491 384c87 -28 133 -92 133 -176c0 -112 -85 -208 -262 -208h-274v745h262c166 0 253 -86 253 -197c0 -85 -48 -139 -112 -164zM227 625v-194h119c80 0 123 43 123 98c0 58 -43 96 -119 96h-123zM353 121c87 0 133 44 133 104c0 64 -52 103 -129 103h-130v-207h126z" />
    <glyph glyph-name="Gamma" unicode="&#x393;" horiz-adv-x="535" 
d="M88 0v745h426v-128h-286v-617h-140z" />
    <glyph glyph-name="uni0394" unicode="&#x394;" horiz-adv-x="742" 
d="M7 0l284 745h161l284 -745h-729zM193 118h356l-178 482z" />
    <glyph glyph-name="Epsilon" unicode="&#x395;" horiz-adv-x="597" 
d="M88 0v745h449v-127h-309v-181h283v-118h-283v-192h309v-127h-449z" />
    <glyph glyph-name="Zeta" unicode="&#x396;" horiz-adv-x="609" 
d="M591 745l-357 -616h331v-129h-548l357 617h-326v128h543z" />
    <glyph glyph-name="Eta" unicode="&#x397;" horiz-adv-x="790" 
d="M562 0v310h-334v-310h-140v745h140v-306h334v306h140v-745h-140z" />
    <glyph glyph-name="Theta" unicode="&#x398;" horiz-adv-x="854" 
d="M428 -17c-219 0 -384 165 -384 390c0 224 166 388 384 388s382 -164 382 -388c0 -225 -164 -390 -382 -390zM428 110c125 0 244 96 244 263c0 166 -119 263 -244 263c-128 0 -245 -97 -245 -263c0 -168 118 -263 245 -263zM271 320v110h313v-110h-313z" />
    <glyph glyph-name="Iota" unicode="&#x399;" horiz-adv-x="316" 
d="M88 0v745h140v-745h-140z" />
    <glyph glyph-name="Kappa" unicode="&#x39a;" horiz-adv-x="699" 
d="M699 0h-170l-301 359v-359h-140v745h140v-355l299 355h166l-314 -368z" />
    <glyph glyph-name="Lambda" unicode="&#x39b;" horiz-adv-x="717" 
d="M8 0l269 745h161l272 -745h-148l-205 598l-202 -598h-147z" />
    <glyph glyph-name="Mu" unicode="&#x39c;" horiz-adv-x="978" 
d="M249 548l-72 -548h-135l110 745h166l174 -532h1l169 532h165l109 -745h-136l-71 551h-3l-177 -551h-121l-176 548h-3z" />
    <glyph glyph-name="Nu" unicode="&#x39d;" horiz-adv-x="802" 
d="M714 745v-745h-132l-358 522h-1v-522h-135v745h137l353 -512h1v512h135z" />
    <glyph glyph-name="Xi" unicode="&#x39e;" horiz-adv-x="653" 
d="M50 745h554v-128h-554v128zM111 438h432v-124h-432v124zM50 129h554v-129h-554v129z" />
    <glyph glyph-name="Omicron" unicode="&#x39f;" horiz-adv-x="849" 
d="M426 -17c-217 0 -381 165 -381 390c0 224 164 389 381 389c216 0 379 -165 379 -389c0 -225 -163 -390 -379 -390zM426 113c121 0 237 95 237 260c0 164 -116 259 -237 259c-124 0 -238 -95 -238 -259c0 -166 115 -260 238 -260z" />
    <glyph glyph-name="Pi" unicode="&#x3a0;" horiz-adv-x="767" 
d="M539 0v617h-311v-617h-140v745h591v-745h-140z" />
    <glyph glyph-name="Rho" unicode="&#x3a1;" horiz-adv-x="640" 
d="M88 0v745h208c196 0 313 -97 313 -255c0 -151 -112 -266 -306 -266h-75v-224h-140zM310 351c94 0 158 49 158 134c0 86 -64 132 -159 132h-81v-266h82z" />
    <glyph glyph-name="Sigma" unicode="&#x3a3;" horiz-adv-x="609" 
d="M231 129h336v-129h-546l201 373l-196 372h531v-128h-318v-2l128 -239l-136 -246v-1z" />
    <glyph glyph-name="Tau" unicode="&#x3a4;" horiz-adv-x="629" 
d="M245 0v617h-224v128h587v-128h-223v-617h-140z" />
    <glyph glyph-name="Upsilon" unicode="&#x3a5;" horiz-adv-x="696" 
d="M279 0v303l-276 442h157l190 -316h3l188 316h151l-274 -441v-304h-139z" />
    <glyph glyph-name="Phi" unicode="&#x3a6;" horiz-adv-x="882" 
d="M509 722c184 0 332 -140 332 -340s-148 -340 -332 -340v-70h-135v70c-185 0 -333 140 -333 340s148 340 333 340v69h135v-69zM374 163v438c-118 0 -201 -93 -201 -219s83 -219 201 -219zM509 163c118 0 201 93 201 219s-83 219 -201 219v-438z" />
    <glyph glyph-name="Chi" unicode="&#x3a7;" horiz-adv-x="688" 
d="M10 0l245 374l-243 371h162l173 -270l169 270h159l-242 -370l247 -375h-161l-177 273l-172 -273h-160z" />
    <glyph glyph-name="Psi" unicode="&#x3a8;" horiz-adv-x="870" 
d="M678 745h139v-285c0 -183 -120 -304 -312 -304v-156h-139v156c-193 0 -312 121 -312 304v285h139v-284c0 -113 63 -177 173 -177v461h139v-461c109 0 173 64 173 177v284z" />
    <glyph glyph-name="uni03A9" unicode="&#x3a9;" horiz-adv-x="868" 
d="M659 110h164v-110h-323v101c83 56 156 157 156 283c1 144 -92 247 -222 247c-131 0 -223 -103 -223 -247c1 -126 74 -227 157 -283v-101h-323v110h164c-73 57 -142 157 -142 296c-1 207 152 356 367 356c214 0 367 -149 367 -356c0 -139 -69 -239 -142 -296z" />
    <glyph glyph-name="Alphatonos" unicode="&#x386;" horiz-adv-x="784" 
d="M101 747h130l-76 -232h-97zM779 0h-147l-73 196h-292l-72 -196h-146l283 745h161zM412 597l-105 -283h211z" />
    <glyph glyph-name="Epsilontonos" unicode="&#x388;" horiz-adv-x="752" 
d="M51 747h130l-76 -232h-97zM243 0v745h449v-127h-309v-181h283v-118h-283v-192h309v-127h-449z" />
    <glyph glyph-name="Etatonos" unicode="&#x389;" horiz-adv-x="944" 
d="M51 747h130l-76 -232h-97zM717 0v310h-334v-310h-140v745h140v-306h334v306h140v-745h-140z" />
    <glyph glyph-name="Iotatonos" unicode="&#x38a;" horiz-adv-x="471" 
d="M51 747h130l-76 -232h-97zM243 0v745h140v-745h-140z" />
    <glyph glyph-name="Omicrontonos" unicode="&#x38c;" horiz-adv-x="957" 
d="M534 -17c-217 0 -381 165 -381 390c0 224 164 389 381 389c216 0 379 -165 379 -389c0 -225 -163 -390 -379 -390zM62 747h130l-76 -232h-97zM534 113c121 0 237 95 237 260c0 164 -116 259 -237 259c-124 0 -238 -95 -238 -259c0 -166 115 -260 238 -260z" />
    <glyph glyph-name="Upsilontonos" unicode="&#x38e;" horiz-adv-x="920" 
d="M76 747h130l-76 -232h-97zM504 0v303l-276 442h157l190 -316h3l188 316h151l-274 -441v-304h-139z" />
    <glyph glyph-name="Omegatonos" unicode="&#x38f;" horiz-adv-x="969" 
d="M760 110h164v-110h-323v101c83 56 156 157 156 283c1 144 -92 247 -222 247c-131 0 -223 -103 -223 -247c1 -126 74 -227 157 -283v-101h-323v110h164c-73 57 -142 157 -142 296c-1 207 152 356 367 356c214 0 367 -149 367 -356c0 -139 -69 -239 -142 -296zM59 747h130
l-76 -232h-97z" />
    <glyph glyph-name="Iotadieresis" unicode="&#x3aa;" horiz-adv-x="316" 
d="M48 834c-37 0 -68 30 -68 67s31 67 68 67c38 0 69 -30 69 -67s-31 -67 -69 -67zM271 834c-38 0 -68 30 -68 67s30 67 68 67s68 -30 68 -67s-30 -67 -68 -67zM88 0v745h140v-745h-140z" />
    <glyph glyph-name="Upsilondieresis" unicode="&#x3ab;" horiz-adv-x="696" 
d="M242 834c-37 0 -68 30 -68 67s31 67 68 67c38 0 69 -30 69 -67s-31 -67 -69 -67zM465 834c-38 0 -68 30 -68 67s30 67 68 67s68 -30 68 -67s-30 -67 -68 -67zM279 0v303l-276 442h157l190 -316h3l188 316h151l-274 -441v-304h-139z" />
    <glyph glyph-name="alpha" unicode="&#x3b1;" horiz-adv-x="698" 
d="M636 106c9 0 18 2 26 4v-114c-14 -4 -37 -6 -57 -6c-72 0 -120 32 -140 91c-43 -63 -108 -95 -179 -95c-134 0 -244 116 -244 288c0 170 110 289 238 289c70 0 137 -33 177 -102h1l14 89h115v-386c0 -43 15 -58 49 -58zM317 112c77 0 135 67 135 163s-58 163 -135 163
c-78 0 -136 -68 -136 -163s58 -163 136 -163z" />
    <glyph glyph-name="beta" unicode="&#x3b2;" horiz-adv-x="670" 
d="M457 435c108 -33 174 -116 174 -222c0 -127 -99 -226 -232 -226c-82 0 -159 37 -191 77v-274h-136v759c0 158 102 261 259 261c144 0 241 -81 241 -201c0 -77 -44 -142 -115 -174zM354 106c84 0 141 51 141 131c0 81 -61 133 -156 133h-41l-1 101h30c71 0 116 47 116 118
c0 66 -42 105 -113 105c-75 0 -122 -50 -122 -130v-404c34 -34 90 -54 146 -54z" />
    <glyph glyph-name="gamma" unicode="&#x3b3;" horiz-adv-x="598" 
d="M560 550c0 -174 -87 -389 -201 -532v-228h-138v215l-214 545h148l142 -408h2c62 86 125 253 125 408h136z" />
    <glyph glyph-name="delta" unicode="&#x3b4;" horiz-adv-x="634" 
d="M387 526c137 -82 208 -163 208 -285c0 -147 -115 -256 -285 -256c-159 0 -271 97 -271 246c0 110 77 210 189 251c-75 50 -114 99 -114 165c0 101 86 163 229 163c62 0 132 -16 199 -39v-116c-75 29 -136 41 -186 41c-57 0 -96 -18 -96 -58c0 -35 24 -53 127 -112z
M316 107c83 0 142 57 142 136c0 72 -40 126 -133 178c-92 -35 -149 -107 -149 -182c0 -81 55 -132 140 -132z" />
    <glyph glyph-name="epsilon" unicode="&#x3b5;" horiz-adv-x="534" 
d="M315 98c65 0 122 12 176 35v-110c-51 -22 -128 -37 -203 -37c-156 0 -244 59 -244 162c0 61 45 115 108 135c-58 17 -94 67 -94 126c0 97 85 154 230 154c69 0 148 -15 197 -36v-108c-50 20 -119 33 -177 33c-72 0 -112 -21 -112 -60c0 -40 37 -65 95 -65h118v-97h-118
c-63 0 -107 -24 -107 -67s45 -65 131 -65z" />
    <glyph glyph-name="zeta" unicode="&#x3b6;" horiz-adv-x="501" 
d="M494 723c-185 -176 -311 -366 -311 -466c0 -52 20 -77 87 -107l120 -53c66 -29 101 -76 101 -139c0 -54 -19 -108 -61 -168h-151c47 61 69 106 69 141c0 30 -19 51 -64 70l-102 42c-99 41 -143 101 -143 195c0 113 83 251 268 447h-231v117h418v-79z" />
    <glyph glyph-name="eta" unicode="&#x3b7;" horiz-adv-x="654" 
d="M394 563c119 0 193 -75 193 -196v-577h-138v535c0 76 -34 112 -100 112c-63 0 -109 -45 -109 -108v-329h-138v385c0 43 -15 58 -49 58c-8 0 -18 -2 -25 -4v113c14 4 37 7 56 7c72 0 120 -32 141 -92c32 55 92 96 169 96z" />
    <glyph glyph-name="theta" unicode="&#x3b8;" horiz-adv-x="666" 
d="M333 807c170 0 284 -146 284 -409c0 -265 -113 -413 -284 -413c-169 0 -283 148 -283 413c0 263 115 409 283 409zM333 687c-88 0 -144 -77 -154 -233h309c-10 156 -66 233 -155 233zM333 106c91 0 146 80 156 242h-311c10 -162 65 -242 155 -242z" />
    <glyph glyph-name="iota" unicode="&#x3b9;" horiz-adv-x="360" 
d="M278 -11c-131 0 -209 69 -209 210v351h138v-343c0 -67 32 -97 104 -97c15 0 30 2 45 5v-117c-28 -6 -51 -9 -78 -9z" />
    <glyph glyph-name="kappa" unicode="&#x3ba;" horiz-adv-x="616" 
d="M445 0l-143 233l-93 -111v-122h-137v550h137v-274l233 274h155l-198 -231l208 -319h-162z" />
    <glyph glyph-name="lambda" unicode="&#x3bb;" horiz-adv-x="602" 
d="M583 0h-141l-139 391h-3l-143 -391h-146l227 543l-32 82c-16 43 -47 64 -94 64c-12 0 -25 -2 -40 -5v114c27 5 51 8 72 8c88 0 144 -39 176 -121z" />
    <glyph glyph-name="uni03BC" unicode="&#x3bc;" horiz-adv-x="660" 
d="M608 106c9 0 18 2 26 4v-114c-14 -4 -34 -6 -54 -6c-65 0 -111 30 -132 87c-25 -51 -76 -89 -138 -89c-52 0 -99 23 -126 62l29 -260h-141v760h138v-328c0 -69 39 -108 104 -108s105 36 105 111v325h138v-386c0 -43 17 -58 51 -58z" />
    <glyph glyph-name="nu" unicode="&#x3bd;" horiz-adv-x="599" 
d="M217 0l-209 550h149l142 -419h1c67 91 124 269 124 419h136c0 -183 -91 -407 -214 -550h-129z" />
    <glyph glyph-name="xi" unicode="&#x3be;" horiz-adv-x="534" 
d="M352 685c-99 0 -154 -36 -154 -102c0 -63 47 -100 127 -100h117l-1 -112h-110c-90 0 -149 -44 -149 -112c0 -48 24 -77 84 -103l134 -59c66 -29 101 -76 101 -138c0 -53 -20 -110 -61 -169h-151c48 62 69 106 69 141c0 30 -20 51 -65 70l-104 44
c-103 42 -149 101 -149 187c0 89 55 163 143 197c-76 36 -118 99 -118 175c0 124 103 203 268 203c64 0 137 -14 181 -33v-124c-44 21 -108 35 -162 35z" />
    <glyph glyph-name="omicron" unicode="&#x3bf;" horiz-adv-x="649" 
d="M325 -14c-161 0 -284 120 -284 289s124 288 284 288c161 0 283 -119 283 -288c0 -168 -122 -289 -283 -289zM325 112c74 0 144 60 144 163c0 104 -70 163 -144 163s-145 -59 -145 -163s71 -163 145 -163z" />
    <glyph glyph-name="rho" unicode="&#x3c1;" horiz-adv-x="660" 
d="M60 -210v449c0 202 106 324 281 324c161 0 278 -121 278 -289c0 -163 -107 -287 -243 -288c-74 0 -144 38 -177 94h-1v-290h-138zM339 112c82 0 141 69 141 164c0 93 -60 162 -142 162c-81 0 -139 -69 -139 -166c0 -91 60 -160 140 -160z" />
    <glyph glyph-name="uni03C2" unicode="&#x3c2;" horiz-adv-x="522" 
d="M271 -210c49 64 69 107 69 141c0 29 -17 49 -64 70l-82 37c-104 48 -153 125 -153 235c0 171 118 290 284 290c60 0 116 -13 159 -38v-130c-42 29 -87 43 -140 43c-97 0 -165 -67 -165 -162c0 -62 27 -102 92 -130l111 -49c66 -29 101 -77 101 -139
c0 -53 -21 -110 -61 -168h-151z" />
    <glyph glyph-name="sigma" unicode="&#x3c3;" horiz-adv-x="681" 
d="M671 550v-116h-159c57 -44 88 -108 88 -184c0 -150 -118 -263 -277 -263c-163 0 -282 120 -282 282s119 281 281 281h349zM323 112c81 0 142 67 142 161c0 90 -60 157 -142 157c-83 0 -143 -67 -143 -159s61 -159 143 -159z" />
    <glyph glyph-name="tau" unicode="&#x3c4;" horiz-adv-x="558" 
d="M531 434h-210v-220c0 -76 40 -104 113 -104c16 0 34 2 49 5v-117c-24 -6 -53 -9 -82 -9c-138 0 -218 69 -218 210v235h-165v116h513v-116z" />
    <glyph glyph-name="upsilon" unicode="&#x3c5;" horiz-adv-x="618" 
d="M308 -14c-153 0 -243 85 -243 229v335h138v-328c0 -73 38 -111 109 -111c80 0 120 57 120 171c0 89 -21 185 -61 268h141c37 -71 58 -173 58 -273c0 -183 -96 -291 -262 -291z" />
    <glyph glyph-name="phi" unicode="&#x3c6;" horiz-adv-x="817" 
d="M776 275c0 -175 -127 -287 -301 -288v-197h-133v197c-173 1 -301 113 -301 288c0 174 127 286 301 287v152h133v-152c174 -1 301 -113 301 -287zM177 275c0 -108 66 -174 165 -175v349c-99 -1 -165 -65 -165 -174zM475 100c99 1 165 67 165 175c0 109 -66 173 -165 174
v-349z" />
    <glyph glyph-name="chi" unicode="&#x3c7;" horiz-adv-x="547" 
d="M548 -210h-145l-139 261l-117 -261h-136l190 380l-202 380h146l141 -266l119 266h136l-192 -386z" />
    <glyph glyph-name="psi" unicode="&#x3c8;" horiz-adv-x="809" 
d="M761 288c0 -185 -110 -300 -287 -302v-200h-133v200c-177 1 -276 91 -276 249v315h136v-313c0 -87 43 -127 140 -128v605h133v-605c97 2 152 67 152 182c0 91 -17 180 -51 259h142c29 -77 44 -171 44 -262z" />
    <glyph glyph-name="omega" unicode="&#x3c9;" horiz-adv-x="875" 
d="M757 550c44 -78 72 -189 72 -289c0 -170 -82 -274 -216 -274c-79 0 -140 42 -175 119c-35 -77 -96 -119 -175 -119c-135 0 -216 104 -216 274c0 101 27 212 72 289h142c-47 -81 -76 -194 -76 -291s30 -146 91 -146c58 0 93 50 93 134v178h138v-178c0 -85 34 -134 93 -134
c60 0 91 49 91 146c0 98 -30 211 -76 291h142z" />
    <glyph glyph-name="iotatonos" unicode="&#x3af;" horiz-adv-x="360" 
d="M148 865h128l-96 -232h-95zM278 -11c-131 0 -209 69 -209 210v351h138v-343c0 -67 32 -97 104 -97c15 0 30 2 45 5v-117c-28 -6 -51 -9 -78 -9z" />
    <glyph glyph-name="iotadieresis" unicode="&#x3ca;" horiz-adv-x="360" 
d="M37 638c-37 0 -68 30 -68 67s31 67 68 67c38 0 69 -30 69 -67s-31 -67 -69 -67zM260 638c-38 0 -68 30 -68 67s30 67 68 67s68 -30 68 -67s-30 -67 -68 -67zM278 -11c-131 0 -209 69 -209 210v351h138v-343c0 -67 32 -97 104 -97c15 0 30 2 45 5v-117
c-28 -6 -51 -9 -78 -9z" />
    <glyph glyph-name="iotadieresistonos" unicode="&#x390;" horiz-adv-x="360" 
d="M70 633l63 232h125l-95 -232h-93zM-4 644c-31 0 -57 25 -57 56s26 57 57 57c32 0 58 -26 58 -57s-26 -56 -58 -56zM287 644c-32 0 -58 25 -58 56s26 57 58 57s57 -26 57 -57s-25 -56 -57 -56zM278 -11c-131 0 -209 69 -209 210v351h138v-343c0 -67 32 -97 104 -97
c15 0 30 2 45 5v-117c-28 -6 -51 -9 -78 -9z" />
    <glyph glyph-name="upsilontonos" unicode="&#x3cd;" horiz-adv-x="618" 
d="M312 865h128l-96 -232h-95zM308 -14c-153 0 -243 85 -243 229v335h138v-328c0 -73 38 -111 109 -111c80 0 120 57 120 171c0 89 -21 185 -61 268h141c37 -71 58 -173 58 -273c0 -183 -96 -291 -262 -291z" />
    <glyph glyph-name="upsilondieresis" unicode="&#x3cb;" horiz-adv-x="618" 
d="M191 638c-37 0 -68 30 -68 67s31 67 68 67c38 0 69 -30 69 -67s-31 -67 -69 -67zM414 638c-38 0 -68 30 -68 67s30 67 68 67s68 -30 68 -67s-30 -67 -68 -67zM308 -14c-153 0 -243 85 -243 229v335h138v-328c0 -73 38 -111 109 -111c80 0 120 57 120 171
c0 89 -21 185 -61 268h141c37 -71 58 -173 58 -273c0 -183 -96 -291 -262 -291z" />
    <glyph glyph-name="upsilondieresistonos" unicode="&#x3b0;" horiz-adv-x="618" 
d="M235 633l63 232h125l-95 -232h-93zM161 644c-31 0 -57 25 -57 56s26 57 57 57c32 0 58 -26 58 -57s-26 -56 -58 -56zM452 644c-32 0 -58 25 -58 56s26 57 58 57s57 -26 57 -57s-25 -56 -57 -56zM308 -14c-153 0 -243 85 -243 229v335h138v-328c0 -73 38 -111 109 -111
c80 0 120 57 120 171c0 89 -21 185 -61 268h141c37 -71 58 -173 58 -273c0 -183 -96 -291 -262 -291z" />
    <glyph glyph-name="omicrontonos" unicode="&#x3cc;" horiz-adv-x="649" 
d="M324 865h128l-96 -232h-95zM325 -14c-161 0 -284 120 -284 289s124 288 284 288c161 0 283 -119 283 -288c0 -168 -122 -289 -283 -289zM325 112c74 0 144 60 144 163c0 104 -70 163 -144 163s-145 -59 -145 -163s71 -163 145 -163z" />
    <glyph glyph-name="omegatonos" unicode="&#x3ce;" horiz-adv-x="875" 
d="M572 865l-96 -232h-95l63 232h128zM757 550c44 -78 72 -189 72 -289c0 -170 -82 -274 -216 -274c-79 0 -140 42 -175 119c-35 -77 -96 -119 -175 -119c-135 0 -216 104 -216 274c0 101 27 212 72 289h142c-47 -81 -76 -194 -76 -291s30 -146 91 -146c58 0 93 50 93 134
v178h138v-178c0 -85 34 -134 93 -134c60 0 91 49 91 146c0 98 -30 211 -76 291h142z" />
    <glyph glyph-name="alphatonos" unicode="&#x3ac;" horiz-adv-x="698" 
d="M485 865l-96 -232h-95l63 232h128zM636 106c9 0 18 2 26 4v-114c-14 -4 -37 -6 -57 -6c-72 0 -120 32 -140 91c-43 -63 -108 -95 -179 -95c-134 0 -244 116 -244 288c0 170 110 289 238 289c70 0 137 -33 177 -102h1l14 89h115v-386c0 -43 15 -58 49 -58zM317 112
c77 0 135 67 135 163s-58 163 -135 163c-78 0 -136 -68 -136 -163s58 -163 136 -163z" />
    <glyph glyph-name="epsilontonos" unicode="&#x3ad;" horiz-adv-x="534" 
d="M418 865l-96 -232h-95l63 232h128zM315 98c65 0 122 12 176 35v-110c-51 -22 -128 -37 -203 -37c-156 0 -244 59 -244 162c0 61 45 115 108 135c-58 17 -94 67 -94 126c0 97 85 154 230 154c69 0 148 -15 197 -36v-108c-50 20 -119 33 -177 33c-72 0 -112 -21 -112 -60
c0 -40 37 -65 95 -65h118v-97h-118c-63 0 -107 -24 -107 -67s45 -65 131 -65z" />
    <glyph glyph-name="etatonos" unicode="&#x3ae;" horiz-adv-x="654" 
d="M465 865l-96 -232h-95l63 232h128zM394 563c119 0 193 -75 193 -196v-577h-138v535c0 76 -34 112 -100 112c-63 0 -109 -45 -109 -108v-329h-138v385c0 43 -15 58 -49 58c-8 0 -18 -2 -25 -4v113c14 4 37 7 56 7c72 0 120 -32 141 -92c32 55 92 96 169 96z" />
    <glyph glyph-name="iotadieresistonos.001" horiz-adv-x="360" 
d="M103 633l63 232h125l-95 -232h-93zM29 644c-31 0 -57 25 -57 56s26 57 57 57c32 0 58 -26 58 -57s-26 -56 -58 -56zM320 644c-32 0 -58 25 -58 56s26 57 58 57s57 -26 57 -57s-25 -56 -57 -56zM278 -11c-131 0 -209 69 -209 210v351h138v-343c0 -67 32 -97 104 -97
c15 0 30 2 45 5v-117c-28 -6 -51 -9 -78 -9z" />
    <glyph glyph-name="alpha.sc" horiz-adv-x="596" 
d="M448 0l-45 147h-209l-46 -147h-132l202 597h161l201 -597h-132zM225 247h147l-72 234h-3z" />
    <glyph glyph-name="beta.sc" horiz-adv-x="570" 
d="M424 306c66 -22 101 -71 101 -139c0 -95 -74 -167 -219 -167h-225v597h215c137 0 210 -63 210 -161c0 -60 -31 -106 -82 -130zM214 493v-146h74c55 -1 90 29 90 75c0 44 -33 71 -90 71h-74zM294 105c61 0 98 29 98 77s-36 76 -99 76h-79v-153h80z" />
    <glyph glyph-name="gamma.sc" horiz-adv-x="465" 
d="M81 0v597h357v-124h-223v-473h-134z" />
    <glyph glyph-name="delta.sc" horiz-adv-x="596" 
d="M379 597l201 -597h-564l202 597h161zM180 102h237l-116 380h-4z" />
    <glyph glyph-name="epsilon.sc" horiz-adv-x="506" 
d="M81 0v597h367v-113h-233v-132h213v-100h-213v-139h233v-113h-367z" />
    <glyph glyph-name="zeta.sc" horiz-adv-x="534" 
d="M508 597l-280 -473h260v-124h-466l278 474h-248v123h456z" />
    <glyph glyph-name="eta.sc" horiz-adv-x="672" 
d="M457 0v236h-242v-236h-134v597h134v-236h242v236h134v-597h-134z" />
    <glyph glyph-name="theta.sc" horiz-adv-x="709" 
d="M354 -13c-169 0 -309 127 -309 311c0 185 140 311 309 311s310 -126 310 -311c0 -184 -141 -311 -310 -311zM354 108c94 0 179 71 179 190s-85 191 -179 191s-178 -72 -178 -191s84 -190 178 -190zM243 251v97h222v-97h-222z" />
    <glyph glyph-name="iota.sc" horiz-adv-x="295" 
d="M81 0v597h134v-597h-134z" />
    <glyph glyph-name="kappa.sc" horiz-adv-x="582" 
d="M568 0h-154l-199 299v-299h-134v597h134v-273l199 273h150l-214 -284z" />
    <glyph glyph-name="lambda.sc" horiz-adv-x="584" 
d="M17 0l195 597h161l194 -597h-132l-140 479h-4l-142 -479h-132z" />
    <glyph glyph-name="uni03BC.sc" horiz-adv-x="812" 
d="M220 417l-49 -417h-127l87 597h148l127 -414h2l126 414h147l87 -597h-129l-49 417h-2l-129 -417h-111l-125 417h-3z" />
    <glyph glyph-name="nu.sc" horiz-adv-x="672" 
d="M592 597v-597h-128l-258 402v-402h-125v597h132l253 -398v398h126z" />
    <glyph glyph-name="xi.sc" horiz-adv-x="562" 
d="M51 480v117h460v-117h-460zM104 250v103h355v-103h-355zM51 0v118h460v-118h-460z" />
    <glyph glyph-name="omicron.sc" horiz-adv-x="705" 
d="M352 610c168 0 308 -127 308 -312c0 -184 -140 -311 -308 -311s-307 127 -307 311c0 185 139 312 307 312zM352 485c-89 0 -170 -72 -170 -187s82 -186 170 -186c89 0 171 71 171 186s-82 187 -171 187z" />
    <glyph glyph-name="pi.sc" horiz-adv-x="656" 
d="M441 0v482h-226v-482h-134v597h494v-597h-134z" />
    <glyph glyph-name="rho.sc" horiz-adv-x="544" 
d="M81 597h167c169 0 263 -85 263 -211c0 -122 -88 -219 -255 -219h-41v-167h-134v597zM261 279c77 0 116 44 116 103c0 57 -39 96 -116 96h-46v-199h46z" />
    <glyph glyph-name="sigma.sc" horiz-adv-x="526" 
d="M220 116h262v-116h-456l163 298l-159 299h444v-116h-248v-1l97 -178l-103 -184v-2z" />
    <glyph glyph-name="tau.sc" horiz-adv-x="546" 
d="M206 0v472h-178v125h491v-125h-179v-472h-134z" />
    <glyph glyph-name="upsilon.sc" horiz-adv-x="598" 
d="M589 597l-222 -360v-237h-135v237l-223 360h151l143 -243h2l140 243h144z" />
    <glyph glyph-name="phi.sc" horiz-adv-x="752" 
d="M438 576c159 0 273 -111 273 -270s-114 -270 -273 -270v-60h-124v60c-158 0 -273 111 -273 270s115 270 273 270v60h124v-60zM167 306c0 -97 59 -166 147 -167v334c-88 -1 -147 -71 -147 -167zM438 139c88 0 148 70 148 167c0 96 -60 167 -148 167v-334z" />
    <glyph glyph-name="chi.sc" horiz-adv-x="582" 
d="M561 597l-187 -297l191 -300h-150l-126 210l-123 -210h-147l189 299l-189 298h150l123 -209l121 209h148z" />
    <glyph glyph-name="psi.sc" horiz-adv-x="755" 
d="M572 597h131v-225c0 -156 -111 -253 -260 -253v-119h-131v119c-149 0 -260 97 -260 253v225h131v-236c0 -73 49 -121 129 -121v357h131v-357c81 0 129 48 129 121v236z" />
    <glyph glyph-name="omega.sc" horiz-adv-x="732" 
d="M570 100h116v-100h-266v81c61 49 113 121 114 223c0 107 -71 179 -168 179c-96 0 -168 -71 -167 -179c0 -102 53 -174 114 -223v-81h-266v100h116c-49 45 -98 121 -98 223c0 165 125 287 301 287c177 0 302 -122 302 -287c0 -102 -49 -178 -98 -223z" />
    <glyph glyph-name="iotatonos.sc" horiz-adv-x="295" 
d="M81 0v597h134v-597h-134z" />
    <glyph glyph-name="iotadieresis.sc" horiz-adv-x="295" 
d="M37 686c-37 0 -68 30 -68 67s31 67 68 67c38 0 69 -30 69 -67s-31 -67 -69 -67zM260 686c-38 0 -68 30 -68 67s30 67 68 67s68 -30 68 -67s-30 -67 -68 -67zM81 0v597h134v-597h-134z" />
    <glyph glyph-name="upsilontonos.sc" horiz-adv-x="598" 
d="M589 597l-222 -360v-237h-135v237l-223 360h151l143 -243h2l140 243h144z" />
    <glyph glyph-name="upsilondieresis.sc" horiz-adv-x="598" 
d="M188 686c-37 0 -68 30 -68 67s31 67 68 67c38 0 69 -30 69 -67s-31 -67 -69 -67zM411 686c-38 0 -68 30 -68 67s30 67 68 67s68 -30 68 -67s-30 -67 -68 -67zM589 597l-222 -360v-237h-135v237l-223 360h151l143 -243h2l140 243h144z" />
    <glyph glyph-name="omicrontonos.sc" horiz-adv-x="705" 
d="M352 610c168 0 308 -127 308 -312c0 -184 -140 -311 -308 -311s-307 127 -307 311c0 185 139 312 307 312zM352 485c-89 0 -170 -72 -170 -187s82 -186 170 -186c89 0 171 71 171 186s-82 187 -171 187z" />
    <glyph glyph-name="omegatonos.sc" horiz-adv-x="732" 
d="M570 100h116v-100h-266v81c61 49 113 121 114 223c0 107 -71 179 -168 179c-96 0 -168 -71 -167 -179c0 -102 53 -174 114 -223v-81h-266v100h116c-49 45 -98 121 -98 223c0 165 125 287 301 287c177 0 302 -122 302 -287c0 -102 -49 -178 -98 -223z" />
    <glyph glyph-name="alphatonos.sc" horiz-adv-x="596" 
d="M448 0l-45 147h-209l-46 -147h-132l202 597h161l201 -597h-132zM225 247h147l-72 234h-3z" />
    <glyph glyph-name="epsilontonos.sc" horiz-adv-x="506" 
d="M81 0v597h367v-113h-233v-132h213v-100h-213v-139h233v-113h-367z" />
    <glyph glyph-name="etatonos.sc" horiz-adv-x="672" 
d="M457 0v236h-242v-236h-134v597h134v-236h242v236h134v-597h-134z" />
    <glyph glyph-name="one.ss01" horiz-adv-x="564" 
d="M535 127v-127h-472v127h169v437l-171 -71v140l298 118h11v-624h165z" />
    <glyph glyph-name="one.osf.ss01" horiz-adv-x="495" 
d="M460 119v-119h-394v119h132v270l-137 -50v126l266 96h9v-442h124z" />
    <glyph glyph-name="zero.sc" horiz-adv-x="595" 
d="M298 -10c-138 0 -246 120 -246 310c0 189 108 307 246 307c137 0 246 -118 246 -307c0 -190 -108 -310 -246 -310zM298 116c63 0 115 68 115 184s-52 181 -115 181c-64 0 -116 -65 -116 -181s52 -184 116 -184z" />
    <glyph glyph-name="one.sc" horiz-adv-x="378" 
d="M151 0v432l-115 -44v124l238 88h9v-600h-132z" />
    <glyph glyph-name="two.sc" horiz-adv-x="519" 
d="M471 116v-116h-441c250 286 276 322 276 385c0 54 -40 93 -105 93c-54 0 -102 -27 -136 -60v134c40 31 98 53 167 53c127 0 213 -81 213 -196c0 -93 -63 -167 -176 -293h202z" />
    <glyph glyph-name="three.sc" horiz-adv-x="503" 
d="M70 566c39 25 96 41 158 41c131 0 206 -75 206 -164c0 -59 -33 -111 -85 -134v-3c55 -20 103 -65 103 -137c0 -93 -77 -179 -225 -179c-65 0 -122 18 -174 49v122c44 -33 96 -53 156 -53c72 0 111 29 111 74c0 46 -40 73 -128 74h-60v98l59 -1c83 0 113 31 113 70
c0 41 -37 67 -101 67c-50 0 -102 -17 -133 -36v112z" />
    <glyph glyph-name="four.sc" horiz-adv-x="572" 
d="M533 232v-101h-97v-131h-130v131h-275v81l276 385h129v-365h97zM160 232h145v211h-1l-144 -208v-3z" />
    <glyph glyph-name="five.sc" horiz-adv-x="500" 
d="M424 597v-116h-206l-21 -111c12 4 35 6 55 6c114 0 201 -73 201 -185c0 -113 -89 -201 -236 -201c-65 0 -124 18 -168 48v128c48 -43 108 -59 158 -59c70 0 114 33 114 84c0 49 -45 89 -129 89c-46 0 -76 -10 -100 -18l-16 11l52 324h296z" />
    <glyph glyph-name="six.sc" horiz-adv-x="550" 
d="M303 413c116 0 205 -85 205 -201c0 -124 -95 -222 -231 -222c-135 0 -230 95 -230 219c0 70 29 129 80 189l172 199h160l-165 -184h9zM278 110c60 0 100 45 100 103s-44 103 -105 103c-24 0 -43 -6 -62 -15c-27 -31 -35 -61 -35 -87c0 -58 41 -104 102 -104z" />
    <glyph glyph-name="seven.sc" horiz-adv-x="497" 
d="M49 597h444l-306 -597h-140l249 474h-247v123z" />
    <glyph glyph-name="eight.sc" horiz-adv-x="561" 
d="M281 607c131 0 211 -75 211 -165c0 -65 -36 -109 -85 -133v-2c69 -28 103 -79 103 -141c0 -95 -84 -176 -229 -176c-146 0 -230 81 -230 176c0 62 36 113 104 141v2c-51 23 -86 68 -86 133c0 90 80 165 212 165zM191 425c0 -39 35 -74 90 -74c54 0 89 35 89 74
s-35 73 -89 73c-55 0 -90 -34 -90 -73zM281 257c-61 0 -100 -37 -100 -81c0 -42 39 -77 100 -77c60 0 100 35 100 77c0 44 -40 81 -100 81z" />
    <glyph glyph-name="nine.sc" horiz-adv-x="550" 
d="M274 607c135 0 230 -94 230 -219c0 -70 -29 -129 -81 -188l-171 -200h-161l165 184h-9c-116 0 -204 85 -204 201c0 125 94 222 231 222zM339 296c27 32 36 61 36 88c0 58 -42 103 -102 103s-101 -45 -101 -103c0 -57 45 -102 106 -102c23 0 43 6 61 14z" />
    <glyph glyph-name="one.sc.ss01" horiz-adv-x="473" 
d="M443 116v-116h-384v116h131v311l-132 -51v123l254 101h10v-484h121z" />
    <glyph glyph-name="colon.tf" 
d="M341 327c-46 0 -81 36 -81 81c0 46 35 81 81 81c45 0 81 -35 81 -81c0 -45 -36 -81 -81 -81zM341 -6c-46 0 -81 36 -81 81c0 46 35 81 81 81c45 0 81 -35 81 -81c0 -45 -36 -81 -81 -81z" />
    <glyph glyph-name="comma.tf" 
d="M225 -134c25 85 41 160 41 244v52h125v-43c0 -83 -33 -178 -66 -253h-100z" />
    <glyph glyph-name="numbersign.tf" 
d="M674 444h-133l-24 -143h123v-106h-140l-31 -195h-121l31 195h-138l-31 -195h-121l31 195h-114v106h131l24 143h-121v106h138l31 195h121l-31 -195h138l31 195h121l-31 -195h116v-106zM396 301l24 143h-138l-24 -143h138z" />
    <glyph glyph-name="period.tf" 
d="M341 -6c-46 0 -81 36 -81 81c0 46 35 81 81 81c45 0 81 -35 81 -81c0 -45 -36 -81 -81 -81z" />
    <glyph glyph-name="semicolon.tf" 
d="M338 327c-46 0 -81 36 -81 81c0 46 35 81 81 81c45 0 81 -35 81 -81c0 -45 -36 -81 -81 -81zM243 -134c25 85 41 160 41 244v52h125v-43c0 -83 -33 -178 -66 -253h-100z" />
    <glyph glyph-name="parenleft.tf" 
d="M517 745c-94 -92 -183 -248 -183 -435c0 -188 89 -344 183 -437h-138c-106 115 -173 264 -173 438c0 169 67 319 173 434h138z" />
    <glyph glyph-name="parenright.tf" 
d="M163 745h138c106 -115 173 -265 173 -434c0 -174 -67 -323 -173 -438h-138c94 93 183 249 183 437c0 187 -89 343 -183 435z" />
    <glyph glyph-name="endash.tf" 
d="M153 265v108h375v-108h-375z" />
    <glyph glyph-name="asterisk.sc" horiz-adv-x="483" 
d="M297 638l-23 -134l125 61l37 -106l-139 -22l99 -94l-90 -66l-66 121l-63 -121l-89 66l96 94l-136 22l34 107l124 -62l-21 134h112z" />
    <glyph glyph-name="backslash.sc" horiz-adv-x="424" 
d="M392 -36h-125l-235 667h126z" />
    <glyph glyph-name="periodcentered.sc" horiz-adv-x="290" 
d="M146 217c-46 0 -81 36 -81 81c0 46 35 81 81 81c45 0 81 -35 81 -81c0 -45 -36 -81 -81 -81z" />
    </font>
</defs>
</svg>
