<?xml version="1.0" standalone="no"?>
<!DOCTYPE svg PUBLIC "-//W3C//DTD SVG 1.1//EN" "http://www.w3.org/Graphics/SVG/1.1/DTD/svg11.dtd" >
<svg xmlns="http://www.w3.org/2000/svg" xmlns:xlink="http://www.w3.org/1999/xlink" version="1.1">
<metadata>
Created by FontForge 20190801 at Wed Jul  5 12:52:21 2017
 By Jimmy Wärting
Copyright 2015 \(c\) Newlyn Works Limited
</metadata>
<defs>
<font id="HeroNew-Regular" horiz-adv-x="680" >
  <font-face 
    font-family="Hero New"
    font-weight="400"
    font-stretch="normal"
    units-per-em="1000"
    panose-1="2 0 5 0 0 0 0 0 0 0"
    ascent="800"
    descent="-200"
    x-height="541"
    cap-height="744"
    bbox="-193 -281 1287 1050"
    underline-thickness="50"
    underline-position="-100"
    stemh="87"
    stemv="93"
    unicode-range="U+000D-FB02"
  />
<missing-glyph horiz-adv-x="717" 
d="M638 743v-743h-559v743h559zM511 670h-305l152 -236zM155 622v-501l162 250zM562 622l-162 -251l162 -250v501zM358 309l-152 -236h305z" />
    <glyph glyph-name="fi" unicode="fi" horiz-adv-x="654" 
d="M113 0v461h-78v80h78v81c0 107 74 183 184 183c31 0 62 -6 90 -15v-85c-19 8 -52 14 -79 14c-67 0 -104 -33 -104 -109v-69h156v-80h-155v-461h-92zM523 665c-33 0 -57 24 -57 56s24 56 57 56s57 -24 57 -56s-24 -56 -57 -56zM477 0v541h92v-541h-92z" />
    <glyph glyph-name="fl" unicode="fl" horiz-adv-x="657" 
d="M113 0v461h-78v80h78v81c0 107 74 183 184 183c31 0 62 -6 90 -15v-85c-19 8 -52 14 -79 14c-67 0 -104 -33 -104 -109v-69h156v-80h-155v-461h-92zM479 0v800h92v-800h-92z" />
    <glyph glyph-name=".notdef" horiz-adv-x="717" 
d="M638 743v-743h-559v743h559zM511 670h-305l152 -236zM155 622v-501l162 250zM562 622l-162 -251l162 -250v501zM358 309l-152 -236h305z" />
    <glyph glyph-name="NULL" horiz-adv-x="0" 
 />
    <glyph glyph-name="CR" unicode="&#xd;" horiz-adv-x="290" 
 />
    <glyph glyph-name="space" unicode=" " horiz-adv-x="273" 
 />
    <glyph glyph-name="uni00A0" unicode="&#xa0;" horiz-adv-x="273" 
 />
    <glyph glyph-name="A" unicode="A" horiz-adv-x="714" 
d="M703 0h-100l-87 226h-319l-87 -226h-98l292 744h105zM356 640l-129 -331h258z" />
    <glyph glyph-name="B" unicode="B" horiz-adv-x="649" 
d="M457 384c91 -28 137 -93 137 -179c0 -112 -84 -205 -254 -205h-238v744h226c159 0 242 -83 242 -193c0 -89 -49 -142 -113 -167zM194 660v-242h134c97 0 150 53 150 124c0 74 -54 118 -143 118h-141zM338 84c106 0 163 54 163 129c0 82 -67 128 -158 128h-149v-257h144z
" />
    <glyph glyph-name="C" unicode="C" horiz-adv-x="667" 
d="M620 36c-48 -28 -112 -51 -197 -51c-194 0 -369 150 -369 388c0 237 175 386 369 386c85 0 150 -23 197 -51v-98c-59 37 -114 60 -193 60c-139 0 -278 -110 -278 -298c0 -186 139 -298 278 -298c79 0 134 24 193 61v-99z" />
    <glyph glyph-name="D" unicode="D" horiz-adv-x="732" 
d="M282 744c240 0 395 -148 395 -372c0 -225 -160 -372 -395 -372h-180v744h180zM195 657v-570h91c172 0 296 103 296 284c0 184 -124 286 -295 286h-92z" />
    <glyph glyph-name="E" unicode="E" horiz-adv-x="578" 
d="M102 0v744h408v-87h-315v-237h292v-82h-292v-252h315v-86h-408z" />
    <glyph glyph-name="F" unicode="F" horiz-adv-x="565" 
d="M102 0v744h408v-87h-315v-258h300v-85h-300v-314h-93z" />
    <glyph glyph-name="G" unicode="G" horiz-adv-x="726" 
d="M149 371c0 -176 121 -297 273 -297c61 0 102 11 146 33v295h89v-353c-70 -40 -143 -64 -236 -64c-196 0 -367 152 -367 386c0 235 168 388 369 388c79 0 155 -20 214 -54v-99c-66 41 -135 62 -210 62c-155 0 -278 -121 -278 -297z" />
    <glyph glyph-name="H" unicode="H" horiz-adv-x="783" 
d="M588 0v334h-393v-334h-93v744h93v-323h393v323h93v-744h-93z" />
    <glyph glyph-name="I" unicode="I" horiz-adv-x="297" 
d="M102 0v744h93v-744h-93z" />
    <glyph glyph-name="J" unicode="J" horiz-adv-x="466" 
d="M29 140c31 -34 73 -64 129 -64c73 0 120 47 120 141v527h93v-540c0 -126 -77 -216 -203 -216c-51 0 -104 19 -139 51v101z" />
    <glyph glyph-name="K" unicode="K" horiz-adv-x="661" 
d="M654 0h-119l-340 364v-364h-93v744h93v-362l338 362h116l-348 -370z" />
    <glyph glyph-name="L" unicode="L" horiz-adv-x="546" 
d="M102 0v744h93v-657h328v-87h-421z" />
    <glyph glyph-name="M" unicode="M" horiz-adv-x="968" 
d="M233 606l-89 -606h-92l114 744h113l207 -604h1l201 604h115l113 -744h-92l-90 611h-2l-206 -611h-83l-208 606h-2z" />
    <glyph glyph-name="N" unicode="N" horiz-adv-x="793" 
d="M691 744v-744h-86l-411 594h-1v-594h-91v744h94l404 -584h1v584h90z" />
    <glyph glyph-name="O" unicode="O" horiz-adv-x="847" 
d="M424 -15c-213 0 -370 165 -370 387c0 219 157 387 370 387c212 0 369 -168 369 -387c0 -221 -157 -387 -369 -387zM424 73c141 0 274 110 274 299s-133 299 -274 299c-143 0 -275 -110 -275 -299c0 -190 134 -299 275 -299z" />
    <glyph glyph-name="P" unicode="P" horiz-adv-x="612" 
d="M102 0v744h182c176 0 291 -90 291 -242c0 -151 -112 -250 -288 -250h-92v-252h-93zM292 338c116 0 189 60 189 162c0 101 -73 157 -189 157h-97v-319h97z" />
    <glyph glyph-name="Q" unicode="Q" horiz-adv-x="852" 
d="M812 7l-63 -62l-108 109c-60 -44 -134 -69 -217 -69c-213 0 -370 165 -370 387c0 219 157 387 370 387c212 0 369 -168 369 -387c0 -100 -32 -189 -88 -257zM424 73c54 0 108 16 152 47l-146 149l63 62l147 -149c36 49 58 113 58 190c0 189 -133 299 -274 299
c-143 0 -275 -110 -275 -299c0 -190 134 -299 275 -299z" />
    <glyph glyph-name="R" unicode="R" horiz-adv-x="623" 
d="M316 303l276 -303h-119l-268 302h-10v-302h-93v744h197c172 0 262 -91 262 -221c0 -121 -83 -211 -245 -220zM195 380h90c129 0 181 56 181 140c0 85 -60 137 -173 137h-98v-277z" />
    <glyph glyph-name="S" unicode="S" horiz-adv-x="567" 
d="M301 760c69 0 133 -22 177 -49v-96c-52 37 -118 58 -176 58c-76 0 -142 -37 -142 -111c0 -65 52 -96 154 -142c113 -50 204 -98 204 -220c0 -136 -112 -216 -247 -216c-87 0 -163 34 -208 69v104c51 -52 129 -86 204 -86c83 0 155 44 155 124c0 69 -55 103 -159 150
c-109 49 -197 94 -197 212c0 129 104 203 235 203z" />
    <glyph glyph-name="T" unicode="T" horiz-adv-x="606" 
d="M257 0v657h-235v87h562v-87h-234v-657h-93z" />
    <glyph glyph-name="U" unicode="U" horiz-adv-x="752" 
d="M372 -15c-173 0 -279 121 -279 296v463h93v-468c0 -125 71 -203 186 -203c117 0 194 78 194 205v466h93v-462c0 -176 -112 -297 -287 -297z" />
    <glyph glyph-name="V" unicode="V" horiz-adv-x="710" 
d="M699 744l-294 -744h-99l-296 744h99l247 -640l245 640h98z" />
    <glyph glyph-name="W" unicode="W" horiz-adv-x="1072" 
d="M733 0l-196 613l-196 -613h-99l-222 744h98l176 -622h1l197 622h90l199 -623h1l173 623h95l-219 -744h-98z" />
    <glyph glyph-name="X" unicode="X" horiz-adv-x="658" 
d="M18 0l253 374l-249 370h108l201 -300l199 300h106l-249 -368l255 -376h-107l-207 304l-204 -304h-106z" />
    <glyph glyph-name="Y" unicode="Y" horiz-adv-x="652" 
d="M281 0v314l-274 430h105l215 -344h1l213 344h103l-272 -429v-315h-91z" />
    <glyph glyph-name="Z" unicode="Z" horiz-adv-x="591" 
d="M567 744l-394 -657h369v-87h-520l394 657h-363v87h514z" />
    <glyph glyph-name="Aacute" unicode="&#xc1;" horiz-adv-x="714" 
d="M395 994h99l-139 -168h-76zM703 0h-100l-87 226h-319l-87 -226h-98l292 744h105zM356 640l-129 -331h258z" />
    <glyph glyph-name="Abreve" unicode="&#x102;" horiz-adv-x="714" 
d="M520 991c3 -99 -81 -152 -164 -152s-168 53 -165 152h71c2 -47 35 -85 94 -85c58 0 92 38 93 85h71zM703 0h-100l-87 226h-319l-87 -226h-98l292 744h105zM356 640l-129 -331h258z" />
    <glyph glyph-name="Acircumflex" unicode="&#xc2;" horiz-adv-x="714" 
d="M390 994l135 -168h-88l-81 107l-82 -107h-86l133 168h69zM703 0h-100l-87 226h-319l-87 -226h-98l292 744h105zM356 640l-129 -331h258z" />
    <glyph glyph-name="Adieresis" unicode="&#xc4;" horiz-adv-x="714" 
d="M253 848c-29 0 -53 24 -53 53s24 52 53 52c30 0 55 -23 55 -52s-25 -53 -55 -53zM459 848c-30 0 -54 24 -54 53s24 52 54 52s53 -23 53 -52s-23 -53 -53 -53zM703 0h-100l-87 226h-319l-87 -226h-98l292 744h105zM356 640l-129 -331h258z" />
    <glyph glyph-name="Agrave" unicode="&#xc0;" horiz-adv-x="714" 
d="M320 994l116 -168h-77l-138 168h99zM703 0h-100l-87 226h-319l-87 -226h-98l292 744h105zM356 640l-129 -331h258z" />
    <glyph glyph-name="Amacron" unicode="&#x100;" horiz-adv-x="714" 
d="M189 867v68h333v-68h-333zM703 0h-100l-87 226h-319l-87 -226h-98l292 744h105zM356 640l-129 -331h258z" />
    <glyph glyph-name="Aogonek" unicode="&#x104;" horiz-adv-x="714" 
d="M604 -103c0 -36 29 -56 64 -56c12 0 30 3 35 6v-61c-5 -3 -26 -8 -48 -8c-68 0 -125 37 -125 104c0 42 21 82 72 122l-86 222h-319l-87 -226h-98l292 744h105l294 -744c-61 -32 -99 -68 -99 -103zM227 309h258l-129 331z" />
    <glyph glyph-name="Aring" unicode="&#xc5;" horiz-adv-x="714" 
d="M356 1024c59 0 106 -43 106 -99s-47 -100 -106 -100s-106 44 -106 100s47 99 106 99zM356 976c-31 0 -53 -22 -53 -51s22 -52 53 -52s53 23 53 52s-22 51 -53 51zM703 0h-100l-87 226h-319l-87 -226h-98l292 744h105zM356 640l-129 -331h258z" />
    <glyph glyph-name="Atilde" unicode="&#xc3;" horiz-adv-x="714" 
d="M542 961c5 -88 -51 -123 -108 -123c-72 0 -96 60 -150 60c-37 0 -51 -31 -50 -57h-64c-5 88 51 123 108 123c72 0 96 -61 150 -61c37 0 51 31 50 58h64zM703 0h-100l-87 226h-319l-87 -226h-98l292 744h105zM356 640l-129 -331h258z" />
    <glyph glyph-name="AE" unicode="&#xc6;" horiz-adv-x="1010" 
d="M942 657h-311v-237h289v-82h-289v-251h311v-87h-404v229h-284l-151 -229h-111l489 744h461v-87zM308 311h230v347h-1z" />
    <glyph glyph-name="Cacute" unicode="&#x106;" horiz-adv-x="667" 
d="M458 994h99l-139 -168h-76zM620 36c-48 -28 -112 -51 -197 -51c-194 0 -369 150 -369 388c0 237 175 386 369 386c85 0 150 -23 197 -51v-98c-59 37 -114 60 -193 60c-139 0 -278 -110 -278 -298c0 -186 139 -298 278 -298c79 0 134 24 193 61v-99z" />
    <glyph glyph-name="Ccaron" unicode="&#x10c;" horiz-adv-x="667" 
d="M587 994l-135 -168h-67l-135 168h88l81 -107l81 107h87zM620 36c-48 -28 -112 -51 -197 -51c-194 0 -369 150 -369 388c0 237 175 386 369 386c85 0 150 -23 197 -51v-98c-59 37 -114 60 -193 60c-139 0 -278 -110 -278 -298c0 -186 139 -298 278 -298
c79 0 134 24 193 61v-99z" />
    <glyph glyph-name="Ccedilla" unicode="&#xc7;" horiz-adv-x="667" 
d="M427 670c-139 0 -278 -110 -278 -298c0 -186 139 -298 278 -298c79 0 134 24 193 61v-99c-46 -27 -107 -49 -187 -51c-6 -64 -30 -113 -65 -156h-96c41 49 76 97 84 162c-165 30 -302 172 -302 382c0 237 175 386 369 386c85 0 150 -23 197 -51v-98
c-59 37 -114 60 -193 60z" />
    <glyph glyph-name="Cdotaccent" unicode="&#x10a;" horiz-adv-x="667" 
d="M418 848c-29 0 -54 24 -54 53s25 52 54 52c30 0 54 -23 54 -52s-24 -53 -54 -53zM620 36c-48 -28 -112 -51 -197 -51c-194 0 -369 150 -369 388c0 237 175 386 369 386c85 0 150 -23 197 -51v-98c-59 37 -114 60 -193 60c-139 0 -278 -110 -278 -298
c0 -186 139 -298 278 -298c79 0 134 24 193 61v-99z" />
    <glyph glyph-name="Eth" unicode="&#xd0;" horiz-adv-x="743" 
d="M293 744c240 0 395 -148 395 -372c0 -225 -160 -372 -395 -372h-180v337h-96v73h96v334h180zM297 87c172 0 296 103 296 284c0 184 -124 286 -295 286h-92v-247h194v-73h-194v-250h91z" />
    <glyph glyph-name="Dcaron" unicode="&#x10e;" horiz-adv-x="732" 
d="M523 994l-135 -168h-67l-135 168h88l81 -107l81 107h87zM282 744c240 0 395 -148 395 -372c0 -225 -160 -372 -395 -372h-180v744h180zM195 657v-570h91c172 0 296 103 296 284c0 184 -124 286 -295 286h-92z" />
    <glyph glyph-name="Dcroat" unicode="&#x110;" horiz-adv-x="743" 
d="M293 744c240 0 395 -148 395 -372c0 -225 -160 -372 -395 -372h-180v337h-96v73h96v334h180zM297 87c172 0 296 103 296 284c0 184 -124 286 -295 286h-92v-247h194v-73h-194v-250h91z" />
    <glyph glyph-name="Eacute" unicode="&#xc9;" horiz-adv-x="578" 
d="M344 994h99l-139 -168h-76zM102 0v744h408v-87h-315v-237h292v-82h-292v-252h315v-86h-408z" />
    <glyph glyph-name="Ecaron" unicode="&#x11a;" horiz-adv-x="578" 
d="M473 994l-135 -168h-67l-135 168h88l81 -107l81 107h87zM102 0v744h408v-87h-315v-237h292v-82h-292v-252h315v-86h-408z" />
    <glyph glyph-name="Ecircumflex" unicode="&#xca;" horiz-adv-x="578" 
d="M339 994l135 -168h-88l-81 107l-82 -107h-86l133 168h69zM102 0v744h408v-87h-315v-237h292v-82h-292v-252h315v-86h-408z" />
    <glyph glyph-name="Edieresis" unicode="&#xcb;" horiz-adv-x="578" 
d="M202 848c-29 0 -53 24 -53 53s24 52 53 52c30 0 55 -23 55 -52s-25 -53 -55 -53zM408 848c-30 0 -54 24 -54 53s24 52 54 52s53 -23 53 -52s-23 -53 -53 -53zM102 0v744h408v-87h-315v-237h292v-82h-292v-252h315v-86h-408z" />
    <glyph glyph-name="Edotaccent" unicode="&#x116;" horiz-adv-x="578" 
d="M304 848c-29 0 -54 24 -54 53s25 52 54 52c30 0 54 -23 54 -52s-24 -53 -54 -53zM102 0v744h408v-87h-315v-237h292v-82h-292v-252h315v-86h-408z" />
    <glyph glyph-name="Egrave" unicode="&#xc8;" horiz-adv-x="578" 
d="M269 994l116 -168h-77l-138 168h99zM102 0v744h408v-87h-315v-237h292v-82h-292v-252h315v-86h-408z" />
    <glyph glyph-name="Emacron" unicode="&#x112;" horiz-adv-x="578" 
d="M138 867v68h333v-68h-333zM102 0v744h408v-87h-315v-237h292v-82h-292v-252h315v-86h-408z" />
    <glyph glyph-name="Eogonek" unicode="&#x118;" horiz-adv-x="578" 
d="M510 657h-315v-237h292v-82h-292v-252h315v-86h-4c-61 -32 -99 -68 -99 -103c0 -36 29 -56 64 -56c12 0 30 3 35 6v-61c-5 -3 -26 -8 -48 -8c-68 0 -125 37 -125 104c0 40 20 80 67 118h-298v744h408v-87z" />
    <glyph glyph-name="Gbreve" unicode="&#x11e;" horiz-adv-x="726" 
d="M579 991c3 -99 -81 -152 -164 -152s-168 53 -165 152h71c2 -47 35 -85 94 -85c58 0 92 38 93 85h71zM149 371c0 -176 121 -297 273 -297c61 0 102 11 146 33v295h89v-353c-70 -40 -143 -64 -236 -64c-196 0 -367 152 -367 386c0 235 168 388 369 388
c79 0 155 -20 214 -54v-99c-66 41 -135 62 -210 62c-155 0 -278 -121 -278 -297z" />
    <glyph glyph-name="uni0122" unicode="&#x122;" horiz-adv-x="726" 
d="M149 371c0 -176 121 -297 273 -297c61 0 102 11 146 33v295h89v-353c-70 -40 -143 -64 -236 -64c-196 0 -367 152 -367 386c0 235 168 388 369 388c79 0 155 -20 214 -54v-99c-66 41 -135 62 -210 62c-155 0 -278 -121 -278 -297zM438 -79c12 -65 -4 -136 -41 -202h-66
c29 69 37 141 21 202h86z" />
    <glyph glyph-name="Gdotaccent" unicode="&#x120;" horiz-adv-x="726" 
d="M414 848c-29 0 -54 24 -54 53s25 52 54 52c30 0 54 -23 54 -52s-24 -53 -54 -53zM149 371c0 -176 121 -297 273 -297c61 0 102 11 146 33v295h89v-353c-70 -40 -143 -64 -236 -64c-196 0 -367 152 -367 386c0 235 168 388 369 388c79 0 155 -20 214 -54v-99
c-66 41 -135 62 -210 62c-155 0 -278 -121 -278 -297z" />
    <glyph glyph-name="Hbar" unicode="&#x126;" horiz-adv-x="792" 
d="M753 614v-73h-67v-541h-93v334h-393v-334h-93v541h-78v73h78v130h93v-130h393v130h93v-130h67zM593 421v120h-393v-120h393z" />
    <glyph glyph-name="IJ" unicode="&#x132;" horiz-adv-x="762" 
d="M102 0v744h93v-744h-93zM325 140c31 -34 73 -64 129 -64c73 0 120 47 120 141v527h93v-540c0 -126 -77 -216 -203 -216c-51 0 -104 19 -139 51v101z" />
    <glyph glyph-name="Iacute" unicode="&#xcd;" horiz-adv-x="297" 
d="M187 994h99l-139 -168h-76zM102 0v744h93v-744h-93z" />
    <glyph glyph-name="Icircumflex" unicode="&#xce;" horiz-adv-x="297" 
d="M182 994l135 -168h-88l-81 107l-82 -107h-86l133 168h69zM102 0v744h93v-744h-93z" />
    <glyph glyph-name="Idieresis" unicode="&#xcf;" horiz-adv-x="297" 
d="M45 848c-29 0 -53 24 -53 53s24 52 53 52c30 0 55 -23 55 -52s-25 -53 -55 -53zM251 848c-30 0 -54 24 -54 53s24 52 54 52s53 -23 53 -52s-23 -53 -53 -53zM102 0v744h93v-744h-93z" />
    <glyph glyph-name="Idotaccent" unicode="&#x130;" horiz-adv-x="297" 
d="M147 848c-29 0 -54 24 -54 53s25 52 54 52c30 0 54 -23 54 -52s-24 -53 -54 -53zM102 0v744h93v-744h-93z" />
    <glyph glyph-name="Igrave" unicode="&#xcc;" horiz-adv-x="297" 
d="M112 994l116 -168h-77l-138 168h99zM102 0v744h93v-744h-93z" />
    <glyph glyph-name="Imacron" unicode="&#x12a;" horiz-adv-x="297" 
d="M-19 867v68h333v-68h-333zM102 0v744h93v-744h-93z" />
    <glyph glyph-name="Iogonek" unicode="&#x12e;" horiz-adv-x="297" 
d="M195 0c-61 -32 -99 -68 -99 -103c0 -36 29 -56 64 -56c12 0 30 3 35 6v-61c-5 -3 -26 -8 -48 -8c-68 0 -125 37 -125 104c0 44 24 87 80 128v734h93v-744z" />
    <glyph glyph-name="uni0136" unicode="&#x136;" horiz-adv-x="661" 
d="M301 374l353 -374h-119l-340 364v-364h-93v744h93v-362l338 362h116zM305 -79h86c12 -65 -4 -136 -41 -202h-66c29 69 37 141 21 202z" />
    <glyph glyph-name="Lacute" unicode="&#x139;" horiz-adv-x="546" 
d="M187 994h99l-139 -168h-76zM102 0v744h93v-657h328v-87h-421z" />
    <glyph glyph-name="Lcaron" unicode="&#x13d;" horiz-adv-x="547" 
d="M272 605c4 26 12 57 12 108c0 34 -5 60 -13 87h85c3 -17 6 -37 6 -57c0 -34 -3 -73 -28 -138h-62zM102 0v744h93v-657h328v-87h-421z" />
    <glyph glyph-name="uni013B" unicode="&#x13b;" horiz-adv-x="546" 
d="M102 0v744h93v-657h328v-87h-421zM353 -79c12 -65 -4 -136 -41 -202h-66c29 69 37 141 21 202h86z" />
    <glyph glyph-name="Ldot" unicode="&#x13f;" horiz-adv-x="570" 
d="M102 0v744h93v-657h328v-87h-421zM423 326c-36 0 -62 27 -62 62c0 36 26 63 62 63c35 0 62 -27 62 -63c0 -35 -27 -62 -62 -62z" />
    <glyph glyph-name="Lslash" unicode="&#x141;" horiz-adv-x="567" 
d="M216 87h328v-87h-421v255l-98 -57v90l98 57v399h93v-346l185 107v-89l-185 -107v-222z" />
    <glyph glyph-name="Nacute" unicode="&#x143;" horiz-adv-x="793" 
d="M443 994h99l-139 -168h-76zM691 744v-744h-86l-411 594h-1v-594h-91v744h94l404 -584h1v584h90z" />
    <glyph glyph-name="Ncaron" unicode="&#x147;" horiz-adv-x="793" 
d="M572 994l-135 -168h-67l-135 168h88l81 -107l81 107h87zM691 744v-744h-86l-411 594h-1v-594h-91v744h94l404 -584h1v584h90z" />
    <glyph glyph-name="uni0145" unicode="&#x145;" horiz-adv-x="793" 
d="M691 744v-744h-86l-411 594h-1v-594h-91v744h94l404 -584h1v584h90zM442 -79c12 -65 -4 -136 -41 -202h-66c29 69 37 141 21 202h86z" />
    <glyph glyph-name="Eng" unicode="&#x14a;" horiz-adv-x="801" 
d="M699 744v-751c0 -125 -76 -215 -203 -215c-51 0 -103 18 -138 50v102c30 -35 73 -64 129 -64c72 0 122 47 122 141l-416 593h-1v-600h-90v744h94l412 -590h1v590h90z" />
    <glyph glyph-name="Ntilde" unicode="&#xd1;" horiz-adv-x="793" 
d="M590 961c5 -88 -51 -123 -108 -123c-72 0 -96 60 -150 60c-37 0 -51 -31 -50 -57h-64c-5 88 51 123 108 123c72 0 96 -61 150 -61c37 0 51 31 50 58h64zM691 744v-744h-86l-411 594h-1v-594h-91v744h94l404 -584h1v584h90z" />
    <glyph glyph-name="Oacute" unicode="&#xd3;" horiz-adv-x="847" 
d="M463 994h99l-139 -168h-76zM424 -15c-213 0 -370 165 -370 387c0 219 157 387 370 387c212 0 369 -168 369 -387c0 -221 -157 -387 -369 -387zM424 73c141 0 274 110 274 299s-133 299 -274 299c-143 0 -275 -110 -275 -299c0 -190 134 -299 275 -299z" />
    <glyph glyph-name="Ocircumflex" unicode="&#xd4;" horiz-adv-x="847" 
d="M458 994l135 -168h-88l-81 107l-82 -107h-86l133 168h69zM424 -15c-213 0 -370 165 -370 387c0 219 157 387 370 387c212 0 369 -168 369 -387c0 -221 -157 -387 -369 -387zM424 73c141 0 274 110 274 299s-133 299 -274 299c-143 0 -275 -110 -275 -299
c0 -190 134 -299 275 -299z" />
    <glyph glyph-name="Odieresis" unicode="&#xd6;" horiz-adv-x="847" 
d="M321 848c-29 0 -53 24 -53 53s24 52 53 52c30 0 55 -23 55 -52s-25 -53 -55 -53zM527 848c-30 0 -54 24 -54 53s24 52 54 52s53 -23 53 -52s-23 -53 -53 -53zM424 -15c-213 0 -370 165 -370 387c0 219 157 387 370 387c212 0 369 -168 369 -387
c0 -221 -157 -387 -369 -387zM424 73c141 0 274 110 274 299s-133 299 -274 299c-143 0 -275 -110 -275 -299c0 -190 134 -299 275 -299z" />
    <glyph glyph-name="Ograve" unicode="&#xd2;" horiz-adv-x="847" 
d="M388 994l116 -168h-77l-138 168h99zM424 -15c-213 0 -370 165 -370 387c0 219 157 387 370 387c212 0 369 -168 369 -387c0 -221 -157 -387 -369 -387zM424 73c141 0 274 110 274 299s-133 299 -274 299c-143 0 -275 -110 -275 -299c0 -190 134 -299 275 -299z" />
    <glyph glyph-name="Ohungarumlaut" unicode="&#x150;" horiz-adv-x="847" 
d="M515 994l-172 -168h-80l149 168h103zM688 994l-172 -168h-79l148 168h103zM424 -15c-213 0 -370 165 -370 387c0 219 157 387 370 387c212 0 369 -168 369 -387c0 -221 -157 -387 -369 -387zM424 73c141 0 274 110 274 299s-133 299 -274 299c-143 0 -275 -110 -275 -299
c0 -190 134 -299 275 -299z" />
    <glyph glyph-name="Omacron" unicode="&#x14c;" horiz-adv-x="847" 
d="M257 867v68h333v-68h-333zM424 -15c-213 0 -370 165 -370 387c0 219 157 387 370 387c212 0 369 -168 369 -387c0 -221 -157 -387 -369 -387zM424 73c141 0 274 110 274 299s-133 299 -274 299c-143 0 -275 -110 -275 -299c0 -190 134 -299 275 -299z" />
    <glyph glyph-name="Oslash" unicode="&#xd8;" horiz-adv-x="852" 
d="M711 626c54 -67 86 -155 86 -254c0 -221 -157 -387 -369 -387c-96 0 -181 33 -245 90l-81 -85l-48 45l84 88c-51 66 -81 152 -81 249c0 219 157 387 371 387c92 0 173 -31 236 -85l75 79l48 -47zM152 372c0 -73 19 -134 51 -181l398 418c-48 41 -110 63 -173 63
c-145 0 -276 -110 -276 -300zM428 72c141 0 274 110 274 300c0 76 -21 139 -55 187l-401 -418c50 -45 115 -69 182 -69z" />
    <glyph glyph-name="Otilde" unicode="&#xd5;" horiz-adv-x="847" 
d="M610 961c5 -88 -51 -123 -108 -123c-72 0 -96 60 -150 60c-37 0 -51 -31 -50 -57h-64c-5 88 51 123 108 123c72 0 96 -61 150 -61c37 0 51 31 50 58h64zM424 -15c-213 0 -370 165 -370 387c0 219 157 387 370 387c212 0 369 -168 369 -387c0 -221 -157 -387 -369 -387z
M424 73c141 0 274 110 274 299s-133 299 -274 299c-143 0 -275 -110 -275 -299c0 -190 134 -299 275 -299z" />
    <glyph glyph-name="OE" unicode="&#x152;" horiz-adv-x="988" 
d="M920 744v-87h-311v-237h289v-82h-289v-252h311v-86l-387 1c-34 -11 -71 -16 -109 -16c-213 0 -370 165 -370 387c0 219 157 387 370 387c38 0 75 -6 109 -15h387zM517 654c-30 11 -61 17 -93 17c-143 0 -275 -110 -275 -299c0 -190 134 -299 275 -299c32 0 63 6 93 16
v565z" />
    <glyph glyph-name="Thorn" unicode="&#xde;" horiz-adv-x="629" 
d="M102 0v744h93v-119h113c165 0 282 -85 282 -241c0 -155 -114 -250 -279 -250h-116v-134h-93zM316 220c108 0 179 65 179 161c0 98 -70 157 -179 157h-121v-318h121z" />
    <glyph glyph-name="Racute" unicode="&#x154;" horiz-adv-x="623" 
d="M455 994l-139 -168h-76l116 168h99zM316 303l276 -303h-119l-268 302h-10v-302h-93v744h197c172 0 262 -91 262 -221c0 -121 -83 -211 -245 -220zM195 380h90c129 0 181 56 181 140c0 85 -60 137 -173 137h-98v-277z" />
    <glyph glyph-name="Rcaron" unicode="&#x158;" horiz-adv-x="623" 
d="M350 826h-67l-135 168h88l81 -107l81 107h87zM316 303l276 -303h-119l-268 302h-10v-302h-93v744h197c172 0 262 -91 262 -221c0 -121 -83 -211 -245 -220zM195 380h90c129 0 181 56 181 140c0 85 -60 137 -173 137h-98v-277z" />
    <glyph glyph-name="uni0156" unicode="&#x156;" horiz-adv-x="623" 
d="M316 303l276 -303h-119l-268 302h-10v-302h-93v744h197c172 0 262 -91 262 -221c0 -121 -83 -211 -245 -220zM195 380h90c129 0 181 56 181 140c0 85 -60 137 -173 137h-98v-277zM280 -79h86c12 -65 -4 -136 -41 -202h-66c29 69 37 141 21 202z" />
    <glyph glyph-name="Sacute" unicode="&#x15a;" horiz-adv-x="567" 
d="M334 994h99l-139 -168h-76zM301 760c69 0 133 -22 177 -49v-96c-52 37 -118 58 -176 58c-76 0 -142 -37 -142 -111c0 -65 52 -96 154 -142c113 -50 204 -98 204 -220c0 -136 -112 -216 -247 -216c-87 0 -163 34 -208 69v104c51 -52 129 -86 204 -86c83 0 155 44 155 124
c0 69 -55 103 -159 150c-109 49 -197 94 -197 212c0 129 104 203 235 203z" />
    <glyph glyph-name="Scaron" unicode="&#x160;" horiz-adv-x="567" 
d="M463 994l-135 -168h-67l-135 168h88l81 -107l81 107h87zM301 760c69 0 133 -22 177 -49v-96c-52 37 -118 58 -176 58c-76 0 -142 -37 -142 -111c0 -65 52 -96 154 -142c113 -50 204 -98 204 -220c0 -136 -112 -216 -247 -216c-87 0 -163 34 -208 69v104
c51 -52 129 -86 204 -86c83 0 155 44 155 124c0 69 -55 103 -159 150c-109 49 -197 94 -197 212c0 129 104 203 235 203z" />
    <glyph glyph-name="uni015E" unicode="&#x15e;" horiz-adv-x="567" 
d="M518 200c0 -120 -88 -197 -201 -213c-6 -65 -31 -115 -66 -158h-96c40 48 74 94 84 157c-74 7 -137 36 -176 67v104c51 -52 129 -86 204 -86c83 0 155 44 155 124c0 69 -55 103 -159 150c-109 49 -197 94 -197 212c0 129 104 203 235 203c69 0 133 -22 177 -49v-96
c-52 37 -118 58 -176 58c-76 0 -142 -37 -142 -111c0 -65 52 -96 154 -142c113 -50 204 -98 204 -220z" />
    <glyph glyph-name="uni0218" unicode="&#x218;" horiz-adv-x="567" 
d="M301 760c69 0 133 -22 177 -49v-96c-52 37 -118 58 -176 58c-76 0 -142 -37 -142 -111c0 -65 52 -96 154 -142c113 -50 204 -98 204 -220c0 -136 -112 -216 -247 -216c-87 0 -163 34 -208 69v104c51 -52 129 -86 204 -86c83 0 155 44 155 124c0 69 -55 103 -159 150
c-109 49 -197 94 -197 212c0 129 104 203 235 203zM319 -79c12 -65 -4 -136 -41 -202h-66c29 69 37 141 21 202h86z" />
    <glyph glyph-name="uni1E9E" unicode="&#x1e9e;" horiz-adv-x="748" 
d="M476 413c130 0 224 -82 224 -203c0 -115 -84 -223 -247 -223c-75 0 -138 24 -183 63v98c43 -45 106 -77 174 -77c103 0 163 69 163 146c0 78 -63 138 -169 138h-100l206 269c-32 23 -78 47 -146 47c-120 0 -212 -78 -212 -212v-459h-93v468c0 174 129 291 312 291
c104 0 192 -40 258 -102z" />
    <glyph glyph-name="Tbar" unicode="&#x166;" horiz-adv-x="626" 
d="M594 657h-234v-258h149v-82h-149v-317h-93v317h-150v82h150v258h-235v87h562v-87z" />
    <glyph glyph-name="Tcaron" unicode="&#x164;" horiz-adv-x="606" 
d="M471 994l-135 -168h-67l-135 168h88l81 -107l81 107h87zM257 0v657h-235v87h562v-87h-234v-657h-93z" />
    <glyph glyph-name="uni0162" unicode="&#x162;" horiz-adv-x="606" 
d="M22 744h562v-87h-234v-657h-7c-4 -72 -29 -125 -67 -171h-96c43 51 80 101 85 171h-8v657h-235v87z" />
    <glyph glyph-name="uni021A" unicode="&#x21a;" horiz-adv-x="606" 
d="M257 0v657h-235v87h562v-87h-234v-657h-93zM344 -79c12 -65 -4 -136 -41 -202h-66c29 69 37 141 21 202h86z" />
    <glyph glyph-name="Uacute" unicode="&#xda;" horiz-adv-x="752" 
d="M415 994h99l-139 -168h-76zM372 -15c-173 0 -279 121 -279 296v463h93v-468c0 -125 71 -203 186 -203c117 0 194 78 194 205v466h93v-462c0 -176 -112 -297 -287 -297z" />
    <glyph glyph-name="Ucircumflex" unicode="&#xdb;" horiz-adv-x="752" 
d="M410 994l135 -168h-88l-81 107l-82 -107h-86l133 168h69zM372 -15c-173 0 -279 121 -279 296v463h93v-468c0 -125 71 -203 186 -203c117 0 194 78 194 205v466h93v-462c0 -176 -112 -297 -287 -297z" />
    <glyph glyph-name="Udieresis" unicode="&#xdc;" horiz-adv-x="752" 
d="M273 848c-29 0 -53 24 -53 53s24 52 53 52c30 0 55 -23 55 -52s-25 -53 -55 -53zM479 848c-30 0 -54 24 -54 53s24 52 54 52s53 -23 53 -52s-23 -53 -53 -53zM372 -15c-173 0 -279 121 -279 296v463h93v-468c0 -125 71 -203 186 -203c117 0 194 78 194 205v466h93v-462
c0 -176 -112 -297 -287 -297z" />
    <glyph glyph-name="Ugrave" unicode="&#xd9;" horiz-adv-x="752" 
d="M340 994l116 -168h-77l-138 168h99zM372 -15c-173 0 -279 121 -279 296v463h93v-468c0 -125 71 -203 186 -203c117 0 194 78 194 205v466h93v-462c0 -176 -112 -297 -287 -297z" />
    <glyph glyph-name="Uhungarumlaut" unicode="&#x170;" horiz-adv-x="752" 
d="M467 994l-172 -168h-80l149 168h103zM640 994l-172 -168h-79l148 168h103zM372 -15c-173 0 -279 121 -279 296v463h93v-468c0 -125 71 -203 186 -203c117 0 194 78 194 205v466h93v-462c0 -176 -112 -297 -287 -297z" />
    <glyph glyph-name="Umacron" unicode="&#x16a;" horiz-adv-x="752" 
d="M209 867v68h333v-68h-333zM372 -15c-173 0 -279 121 -279 296v463h93v-468c0 -125 71 -203 186 -203c117 0 194 78 194 205v466h93v-462c0 -176 -112 -297 -287 -297z" />
    <glyph glyph-name="Uogonek" unicode="&#x172;" horiz-adv-x="752" 
d="M566 744h93v-462c0 -96 -34 -187 -116 -246c-77 -58 -118 -98 -118 -138c0 -38 29 -55 65 -55c12 0 30 3 35 5v-60c-7 -5 -35 -8 -50 -8c-72 0 -123 41 -123 104c0 34 15 69 49 102c-9 -1 -19 -1 -29 -1c-173 0 -279 121 -279 296v463h93v-468c0 -125 71 -203 186 -203
c117 0 194 78 194 205v466z" />
    <glyph glyph-name="Uring" unicode="&#x16e;" horiz-adv-x="752" 
d="M376 1024c59 0 106 -43 106 -99s-47 -100 -106 -100s-106 44 -106 100s47 99 106 99zM376 976c-31 0 -53 -22 -53 -51s22 -52 53 -52s53 23 53 52s-22 51 -53 51zM372 -15c-173 0 -279 121 -279 296v463h93v-468c0 -125 71 -203 186 -203c117 0 194 78 194 205v466h93
v-462c0 -176 -112 -297 -287 -297z" />
    <glyph glyph-name="Wacute" unicode="&#x1e82;" horiz-adv-x="1072" 
d="M576 994h99l-139 -168h-76zM733 0l-196 613l-196 -613h-99l-222 744h98l176 -622h1l197 622h90l199 -623h1l173 623h95l-219 -744h-98z" />
    <glyph glyph-name="Wcircumflex" unicode="&#x174;" horiz-adv-x="1072" 
d="M571 994l135 -168h-88l-81 107l-82 -107h-86l133 168h69zM733 0l-196 613l-196 -613h-99l-222 744h98l176 -622h1l197 622h90l199 -623h1l173 623h95l-219 -744h-98z" />
    <glyph glyph-name="Wdieresis" unicode="&#x1e84;" horiz-adv-x="1072" 
d="M434 848c-29 0 -53 24 -53 53s24 52 53 52c30 0 55 -23 55 -52s-25 -53 -55 -53zM640 848c-30 0 -54 24 -54 53s24 52 54 52s53 -23 53 -52s-23 -53 -53 -53zM733 0l-196 613l-196 -613h-99l-222 744h98l176 -622h1l197 622h90l199 -623h1l173 623h95l-219 -744h-98z" />
    <glyph glyph-name="Wgrave" unicode="&#x1e80;" horiz-adv-x="1072" 
d="M501 994l116 -168h-77l-138 168h99zM733 0l-196 613l-196 -613h-99l-222 744h98l176 -622h1l197 622h90l199 -623h1l173 623h95l-219 -744h-98z" />
    <glyph glyph-name="Yacute" unicode="&#xdd;" horiz-adv-x="652" 
d="M365 994h99l-139 -168h-76zM281 0v314l-274 430h105l215 -344h1l213 344h103l-272 -429v-315h-91z" />
    <glyph glyph-name="Ycircumflex" unicode="&#x176;" horiz-adv-x="652" 
d="M360 994l135 -168h-88l-81 107l-82 -107h-86l133 168h69zM281 0v314l-274 430h105l215 -344h1l213 344h103l-272 -429v-315h-91z" />
    <glyph glyph-name="Ydieresis" unicode="&#x178;" horiz-adv-x="652" 
d="M223 848c-29 0 -53 24 -53 53s24 52 53 52c30 0 55 -23 55 -52s-25 -53 -55 -53zM429 848c-30 0 -54 24 -54 53s24 52 54 52s53 -23 53 -52s-23 -53 -53 -53zM281 0v314l-274 430h105l215 -344h1l213 344h103l-272 -429v-315h-91z" />
    <glyph glyph-name="Ygrave" unicode="&#x1ef2;" horiz-adv-x="652" 
d="M290 994l116 -168h-77l-138 168h99zM281 0v314l-274 430h105l215 -344h1l213 344h103l-272 -429v-315h-91z" />
    <glyph glyph-name="Zacute" unicode="&#x179;" horiz-adv-x="591" 
d="M343 994h99l-139 -168h-76zM567 744l-394 -657h369v-87h-520l394 657h-363v87h514z" />
    <glyph glyph-name="Zcaron" unicode="&#x17d;" horiz-adv-x="591" 
d="M472 994l-135 -168h-67l-135 168h88l81 -107l81 107h87zM567 744l-394 -657h369v-87h-520l394 657h-363v87h514z" />
    <glyph glyph-name="Zdotaccent" unicode="&#x17b;" horiz-adv-x="591" 
d="M303 848c-29 0 -54 24 -54 53s25 52 54 52c30 0 54 -23 54 -52s-24 -53 -54 -53zM567 744l-394 -657h369v-87h-520l394 657h-363v87h514z" />
    <glyph glyph-name="a" unicode="a" horiz-adv-x="658" 
d="M295 -12c-127 0 -246 111 -246 282c0 173 119 283 246 283c78 0 152 -39 193 -112l11 100h75v-541h-75l-11 99c-41 -73 -115 -111 -193 -111zM314 74c95 0 171 80 171 197c0 116 -76 196 -171 196c-97 0 -172 -80 -172 -197c0 -116 75 -196 172 -196z" />
    <glyph glyph-name="b" unicode="b" horiz-adv-x="659" 
d="M176 800v-354c37 69 113 107 188 107c127 0 244 -109 244 -283c0 -172 -119 -282 -246 -282c-78 0 -151 38 -192 111l-11 -99h-75v800h92zM344 467c-95 0 -170 -80 -170 -196c0 -117 75 -197 170 -197c97 0 172 80 172 196c0 117 -75 197 -172 197z" />
    <glyph glyph-name="c" unicode="c" horiz-adv-x="525" 
d="M142 271c0 -124 90 -197 186 -197c45 0 99 9 144 44v-93c-40 -23 -91 -37 -150 -37c-156 0 -273 121 -273 283c0 160 117 282 273 282c56 0 107 -11 150 -38v-94c-45 33 -89 46 -145 46c-95 0 -185 -74 -185 -196z" />
    <glyph glyph-name="d" unicode="d" horiz-adv-x="658" 
d="M296 -12c-127 0 -246 110 -246 282c0 174 118 283 246 283c75 0 150 -38 187 -106v353h92v-800h-75l-11 99c-41 -73 -116 -111 -193 -111zM315 74c95 0 170 80 170 197c0 116 -75 196 -170 196c-97 0 -173 -80 -173 -197c0 -116 76 -196 173 -196z" />
    <glyph glyph-name="e" unicode="e" horiz-adv-x="592" 
d="M544 281c0 -16 -1 -29 -3 -41h-401c13 -107 89 -172 191 -172c62 0 126 23 182 71v-91c-55 -40 -119 -60 -189 -60c-168 0 -274 113 -274 280c0 175 121 285 261 285c128 0 233 -94 233 -272zM140 309h315c-2 112 -71 164 -145 164c-83 0 -156 -63 -170 -164z" />
    <glyph glyph-name="f" unicode="f" horiz-adv-x="377" 
d="M113 0v461h-78v80h78v81c0 107 74 183 184 183c31 0 62 -6 90 -15v-85c-19 8 -52 14 -79 14c-67 0 -104 -33 -104 -109v-69h156v-80h-155v-461h-92z" />
    <glyph glyph-name="g" unicode="g" horiz-adv-x="657" 
d="M295 552c77 0 151 -37 192 -105l11 94h75v-497c0 -175 -125 -266 -266 -266c-73 0 -146 25 -202 67v99c56 -51 126 -80 198 -80c97 0 178 65 178 165v82c-40 -63 -110 -102 -186 -102c-128 0 -246 109 -246 271c0 161 119 272 246 272zM313 467c-96 0 -171 -80 -171 -188
c0 -106 75 -186 171 -186s171 81 171 190c0 107 -75 184 -171 184z" />
    <glyph glyph-name="h" unicode="h" horiz-adv-x="606" 
d="M176 800v-324h1c31 46 89 77 155 77c119 0 195 -68 195 -195v-358h-92v326c0 95 -41 141 -124 141c-72 0 -135 -42 -135 -132v-335h-92v800h92z" />
    <glyph glyph-name="i" unicode="i" horiz-adv-x="264" 
d="M132 665c-33 0 -57 24 -57 56s24 56 57 56s57 -24 57 -56s-24 -56 -57 -56zM86 0v541h92v-541h-92z" />
    <glyph glyph-name="j" unicode="j" horiz-adv-x="265" 
d="M133 665c-33 0 -57 24 -57 56s24 56 57 56s57 -24 57 -56s-24 -56 -57 -56zM-14 -210c67 70 101 150 101 280v471h92v-469c0 -119 -23 -205 -84 -282h-109z" />
    <glyph glyph-name="k" unicode="k" horiz-adv-x="548" 
d="M541 0h-119l-246 275v-275h-92v800h92v-510l239 251h117l-249 -257z" />
    <glyph glyph-name="l" unicode="l" horiz-adv-x="264" 
d="M86 0v800h92v-800h-92z" />
    <glyph glyph-name="m" unicode="m" horiz-adv-x="869" 
d="M619 553c118 0 171 -79 171 -192v-361h-92v346c0 78 -30 119 -102 119s-113 -57 -113 -119v-346h-92v346c0 78 -31 119 -103 119c-73 0 -112 -60 -112 -124v-341h-92v541h71l10 -80h3c27 52 77 92 145 92c77 0 124 -35 150 -95c32 57 84 95 156 95z" />
    <glyph glyph-name="n" unicode="n" horiz-adv-x="605" 
d="M334 553c117 0 193 -76 193 -195v-358h-92v325c0 95 -43 140 -124 140c-77 0 -135 -56 -135 -135v-330h-92v541h71l10 -82h3c31 50 89 94 166 94z" />
    <glyph glyph-name="o" unicode="o" horiz-adv-x="637" 
d="M319 -12c-154 0 -270 119 -270 282s116 283 270 283c153 0 268 -120 268 -283c0 -162 -115 -282 -268 -282zM319 74c90 0 176 72 176 196c0 125 -86 197 -176 197c-91 0 -177 -72 -177 -197s86 -196 177 -196z" />
    <glyph glyph-name="p" unicode="p" horiz-adv-x="659" 
d="M84 -210v751h75l11 -100c41 73 115 112 192 112c128 0 246 -110 246 -282c0 -174 -117 -283 -245 -283c-75 0 -151 40 -187 106v-304h-92zM344 74c97 0 172 79 172 197c0 116 -75 196 -172 196c-95 0 -170 -80 -170 -197c0 -116 75 -196 170 -196z" />
    <glyph glyph-name="q" unicode="q" horiz-adv-x="658" 
d="M294 553c79 0 153 -39 194 -112l11 100h76v-751h-92v304c-39 -69 -113 -106 -189 -106c-127 0 -244 111 -244 281c0 174 116 284 244 284zM314 467c-97 0 -172 -80 -172 -197c0 -116 75 -196 172 -196c96 0 171 80 171 196c0 117 -75 197 -171 197z" />
    <glyph glyph-name="r" unicode="r" horiz-adv-x="376" 
d="M84 0v541h73l10 -86h1c37 70 107 92 155 92c14 0 25 -1 36 -3v-88c-12 2 -25 4 -38 4c-72 0 -145 -46 -145 -152v-308h-92z" />
    <glyph glyph-name="s" unicode="s" horiz-adv-x="493" 
d="M254 553c62 0 125 -18 163 -47v-91c-39 33 -98 56 -162 56c-68 0 -106 -29 -106 -73c0 -48 47 -66 120 -87c83 -24 177 -51 177 -160c0 -99 -77 -163 -202 -163c-70 0 -137 20 -187 60v99c42 -43 106 -77 184 -77c73 0 115 32 115 80c0 52 -51 69 -129 93
c-89 27 -168 56 -168 151c0 91 75 159 195 159z" />
    <glyph glyph-name="t" unicode="t" horiz-adv-x="390" 
d="M197 668v-127h155v-80h-155v-268c0 -84 50 -119 119 -119c15 0 31 2 48 5v-80c-10 -2 -34 -6 -64 -6c-117 0 -193 70 -193 196v272h-81v80h83v127h88z" />
    <glyph glyph-name="u" unicode="u" horiz-adv-x="598" 
d="M297 -12c-138 0 -220 90 -220 220v333h92v-335c0 -83 49 -132 128 -132c81 0 132 49 132 132v335h92v-333c0 -130 -85 -220 -224 -220z" />
    <glyph glyph-name="v" unicode="v" horiz-adv-x="540" 
d="M221 0l-197 541h98l149 -439h3l149 439h95l-197 -541h-100z" />
    <glyph glyph-name="w" unicode="w" horiz-adv-x="855" 
d="M566 0l-136 424h-3l-137 -424h-105l-153 541h96l113 -438h2l138 438h96l137 -438h3l115 438h91l-152 -541h-105z" />
    <glyph glyph-name="x" unicode="x" horiz-adv-x="530" 
d="M502 541l-184 -266l191 -275h-105l-139 207h-1l-139 -207h-102l188 271l-186 270h103l136 -204h2l136 204h100z" />
    <glyph glyph-name="y" unicode="y" horiz-adv-x="540" 
d="M519 541l-293 -751h-94l93 229l-202 522h100l149 -412h2l149 412h96z" />
    <glyph glyph-name="z" unicode="z" horiz-adv-x="505" 
d="M481 541l-309 -456h280v-85h-430l309 456h-273v85h423z" />
    <glyph glyph-name="aacute" unicode="&#xe1;" horiz-adv-x="658" 
d="M377 791h99l-139 -168h-76zM295 -12c-127 0 -246 111 -246 282c0 173 119 283 246 283c78 0 152 -39 193 -112l11 100h75v-541h-75l-11 99c-41 -73 -115 -111 -193 -111zM314 74c95 0 171 80 171 197c0 116 -76 196 -171 196c-97 0 -172 -80 -172 -197
c0 -116 75 -196 172 -196z" />
    <glyph glyph-name="abreve" unicode="&#x103;" horiz-adv-x="658" 
d="M502 788c3 -99 -81 -152 -164 -152s-168 53 -165 152h71c2 -47 35 -85 94 -85c58 0 92 38 93 85h71zM295 -12c-127 0 -246 111 -246 282c0 173 119 283 246 283c78 0 152 -39 193 -112l11 100h75v-541h-75l-11 99c-41 -73 -115 -111 -193 -111zM314 74
c95 0 171 80 171 197c0 116 -76 196 -171 196c-97 0 -172 -80 -172 -197c0 -116 75 -196 172 -196z" />
    <glyph glyph-name="acircumflex" unicode="&#xe2;" horiz-adv-x="658" 
d="M372 791l135 -168h-88l-81 107l-82 -107h-86l133 168h69zM295 -12c-127 0 -246 111 -246 282c0 173 119 283 246 283c78 0 152 -39 193 -112l11 100h75v-541h-75l-11 99c-41 -73 -115 -111 -193 -111zM314 74c95 0 171 80 171 197c0 116 -76 196 -171 196
c-97 0 -172 -80 -172 -197c0 -116 75 -196 172 -196z" />
    <glyph glyph-name="adieresis" unicode="&#xe4;" horiz-adv-x="658" 
d="M235 645c-29 0 -53 24 -53 53s24 52 53 52c30 0 55 -23 55 -52s-25 -53 -55 -53zM441 645c-30 0 -54 24 -54 53s24 52 54 52s53 -23 53 -52s-23 -53 -53 -53zM295 -12c-127 0 -246 111 -246 282c0 173 119 283 246 283c78 0 152 -39 193 -112l11 100h75v-541h-75l-11 99
c-41 -73 -115 -111 -193 -111zM314 74c95 0 171 80 171 197c0 116 -76 196 -171 196c-97 0 -172 -80 -172 -197c0 -116 75 -196 172 -196z" />
    <glyph glyph-name="agrave" unicode="&#xe0;" horiz-adv-x="658" 
d="M302 791l116 -168h-77l-138 168h99zM295 -12c-127 0 -246 111 -246 282c0 173 119 283 246 283c78 0 152 -39 193 -112l11 100h75v-541h-75l-11 99c-41 -73 -115 -111 -193 -111zM314 74c95 0 171 80 171 197c0 116 -76 196 -171 196c-97 0 -172 -80 -172 -197
c0 -116 75 -196 172 -196z" />
    <glyph glyph-name="amacron" unicode="&#x101;" horiz-adv-x="658" 
d="M171 664v68h333v-68h-333zM295 -12c-127 0 -246 111 -246 282c0 173 119 283 246 283c78 0 152 -39 193 -112l11 100h75v-541h-75l-11 99c-41 -73 -115 -111 -193 -111zM314 74c95 0 171 80 171 197c0 116 -76 196 -171 196c-97 0 -172 -80 -172 -197
c0 -116 75 -196 172 -196z" />
    <glyph glyph-name="aogonek" unicode="&#x105;" horiz-adv-x="658" 
d="M574 0c-61 -32 -99 -68 -99 -103c0 -36 29 -56 64 -56c12 0 30 3 35 6v-61c-5 -3 -26 -8 -48 -8c-68 0 -125 37 -125 104c0 48 28 94 96 139l-9 78c-41 -73 -115 -111 -193 -111c-127 0 -246 111 -246 282c0 173 119 283 246 283c78 0 152 -39 193 -112l11 100h75v-541z
M314 74c95 0 171 80 171 197c0 116 -76 196 -171 196c-97 0 -172 -80 -172 -197c0 -116 75 -196 172 -196z" />
    <glyph glyph-name="aring" unicode="&#xe5;" horiz-adv-x="658" 
d="M338 821c59 0 106 -43 106 -99s-47 -100 -106 -100s-106 44 -106 100s47 99 106 99zM338 773c-31 0 -53 -22 -53 -51s22 -52 53 -52s53 23 53 52s-22 51 -53 51zM295 -12c-127 0 -246 111 -246 282c0 173 119 283 246 283c78 0 152 -39 193 -112l11 100h75v-541h-75
l-11 99c-41 -73 -115 -111 -193 -111zM314 74c95 0 171 80 171 197c0 116 -76 196 -171 196c-97 0 -172 -80 -172 -197c0 -116 75 -196 172 -196z" />
    <glyph glyph-name="atilde" unicode="&#xe3;" horiz-adv-x="658" 
d="M524 758c5 -88 -51 -123 -108 -123c-72 0 -96 60 -150 60c-37 0 -51 -31 -50 -57h-64c-5 88 51 123 108 123c72 0 96 -61 150 -61c37 0 51 31 50 58h64zM295 -12c-127 0 -246 111 -246 282c0 173 119 283 246 283c78 0 152 -39 193 -112l11 100h75v-541h-75l-11 99
c-41 -73 -115 -111 -193 -111zM314 74c95 0 171 80 171 197c0 116 -76 196 -171 196c-97 0 -172 -80 -172 -197c0 -116 75 -196 172 -196z" />
    <glyph glyph-name="ae" unicode="&#xe6;" horiz-adv-x="938" 
d="M890 281c0 -16 -1 -29 -2 -41h-401c12 -107 88 -172 191 -172c61 0 125 23 181 71v-91c-55 -40 -119 -60 -189 -60c-101 0 -177 42 -220 113c-41 -66 -117 -113 -213 -113c-112 0 -196 68 -196 169c0 89 67 170 209 170c54 0 110 -10 153 -19v43c0 71 -47 120 -136 120
c-69 0 -136 -29 -178 -64v88c47 34 112 58 187 58c94 0 156 -41 186 -100c46 64 118 100 197 100c126 0 231 -94 231 -272zM489 309h312c-2 112 -71 164 -145 164c-83 0 -153 -63 -167 -164zM250 65c82 0 153 58 153 138v41c-42 13 -88 18 -133 18c-96 0 -142 -43 -142 -99
c0 -59 51 -98 122 -98z" />
    <glyph glyph-name="cacute" unicode="&#x107;" horiz-adv-x="525" 
d="M346 791h99l-139 -168h-76zM142 271c0 -124 90 -197 186 -197c45 0 99 9 144 44v-93c-40 -23 -91 -37 -150 -37c-156 0 -273 121 -273 283c0 160 117 282 273 282c56 0 107 -11 150 -38v-94c-45 33 -89 46 -145 46c-95 0 -185 -74 -185 -196z" />
    <glyph glyph-name="ccaron" unicode="&#x10d;" horiz-adv-x="525" 
d="M475 791l-135 -168h-67l-135 168h88l81 -107l81 107h87zM142 271c0 -124 90 -197 186 -197c45 0 99 9 144 44v-93c-40 -23 -91 -37 -150 -37c-156 0 -273 121 -273 283c0 160 117 282 273 282c56 0 107 -11 150 -38v-94c-45 33 -89 46 -145 46c-95 0 -185 -74 -185 -196z
" />
    <glyph glyph-name="ccedilla" unicode="&#xe7;" horiz-adv-x="525" 
d="M327 467c-95 0 -185 -74 -185 -196c0 -124 90 -197 186 -197c45 0 99 9 144 44v-93c-35 -20 -77 -33 -126 -36c-6 -67 -30 -116 -66 -160h-96c42 50 77 98 85 164c-129 24 -220 135 -220 278c0 160 117 282 273 282c56 0 107 -11 150 -38v-94c-45 33 -89 46 -145 46z" />
    <glyph glyph-name="cdotaccent" unicode="&#x10b;" horiz-adv-x="525" 
d="M306 645c-29 0 -54 24 -54 53s25 52 54 52c30 0 54 -23 54 -52s-24 -53 -54 -53zM142 271c0 -124 90 -197 186 -197c45 0 99 9 144 44v-93c-40 -23 -91 -37 -150 -37c-156 0 -273 121 -273 283c0 160 117 282 273 282c56 0 107 -11 150 -38v-94c-45 33 -89 46 -145 46
c-95 0 -185 -74 -185 -196z" />
    <glyph glyph-name="eth" unicode="&#xf0;" horiz-adv-x="640" 
d="M405 702c114 -141 183 -270 183 -417c0 -177 -115 -297 -269 -297s-270 120 -270 281s113 279 256 279c66 0 111 -29 145 -62l2 1c-15 37 -56 100 -121 178l-97 -48l-23 46l86 43c-27 30 -56 61 -89 94h113c18 -19 34 -39 50 -57l98 48l23 -46zM319 74
c90 0 176 73 176 200c0 120 -86 192 -176 192c-91 0 -177 -72 -177 -196c0 -125 87 -196 177 -196z" />
    <glyph glyph-name="dcaron" unicode="&#x10f;" horiz-adv-x="686" 
d="M296 -12c-127 0 -246 110 -246 282c0 174 118 283 246 283c75 0 150 -38 187 -106v353h92v-800h-75l-11 99c-41 -73 -116 -111 -193 -111zM653 605c4 26 12 57 12 108c0 34 -5 60 -13 87h85c3 -17 6 -37 6 -57c0 -34 -3 -73 -28 -138h-62zM315 74c95 0 170 80 170 197
c0 116 -75 196 -170 196c-97 0 -173 -80 -173 -197c0 -116 76 -196 173 -196z" />
    <glyph glyph-name="dcroat" unicode="&#x111;" horiz-adv-x="658" 
d="M653 706v-72h-78v-634h-75l-11 99c-41 -73 -116 -111 -193 -111c-127 0 -246 110 -246 282c0 174 118 283 246 283c75 0 150 -38 187 -106v187h-157v72h157v94h92v-94h78zM315 74c95 0 170 80 170 197c0 116 -75 196 -170 196c-97 0 -173 -80 -173 -197
c0 -116 76 -196 173 -196z" />
    <glyph glyph-name="eacute" unicode="&#xe9;" horiz-adv-x="592" 
d="M448 791l-139 -168h-76l116 168h99zM544 281c0 -16 -1 -29 -3 -41h-401c13 -107 89 -172 191 -172c62 0 126 23 182 71v-91c-55 -40 -119 -60 -189 -60c-168 0 -274 113 -274 280c0 175 121 285 261 285c128 0 233 -94 233 -272zM140 309h315c-2 112 -71 164 -145 164
c-83 0 -156 -63 -170 -164z" />
    <glyph glyph-name="ecaron" unicode="&#x11b;" horiz-adv-x="592" 
d="M343 623h-67l-135 168h88l81 -107l81 107h87zM544 281c0 -16 -1 -29 -3 -41h-401c13 -107 89 -172 191 -172c62 0 126 23 182 71v-91c-55 -40 -119 -60 -189 -60c-168 0 -274 113 -274 280c0 175 121 285 261 285c128 0 233 -94 233 -272zM140 309h315
c-2 112 -71 164 -145 164c-83 0 -156 -63 -170 -164z" />
    <glyph glyph-name="ecircumflex" unicode="&#xea;" horiz-adv-x="592" 
d="M310 730l-82 -107h-86l133 168h69l135 -168h-88zM544 281c0 -16 -1 -29 -3 -41h-401c13 -107 89 -172 191 -172c62 0 126 23 182 71v-91c-55 -40 -119 -60 -189 -60c-168 0 -274 113 -274 280c0 175 121 285 261 285c128 0 233 -94 233 -272zM140 309h315
c-2 112 -71 164 -145 164c-83 0 -156 -63 -170 -164z" />
    <glyph glyph-name="edieresis" unicode="&#xeb;" horiz-adv-x="592" 
d="M207 645c-29 0 -53 24 -53 53s24 52 53 52c30 0 55 -23 55 -52s-25 -53 -55 -53zM413 645c-30 0 -54 24 -54 53s24 52 54 52s53 -23 53 -52s-23 -53 -53 -53zM544 281c0 -16 -1 -29 -3 -41h-401c13 -107 89 -172 191 -172c62 0 126 23 182 71v-91
c-55 -40 -119 -60 -189 -60c-168 0 -274 113 -274 280c0 175 121 285 261 285c128 0 233 -94 233 -272zM140 309h315c-2 112 -71 164 -145 164c-83 0 -156 -63 -170 -164z" />
    <glyph glyph-name="edotaccent" unicode="&#x117;" horiz-adv-x="592" 
d="M309 645c-29 0 -54 24 -54 53s25 52 54 52c30 0 54 -23 54 -52s-24 -53 -54 -53zM544 281c0 -16 -1 -29 -3 -41h-401c13 -107 89 -172 191 -172c62 0 126 23 182 71v-91c-55 -40 -119 -60 -189 -60c-168 0 -274 113 -274 280c0 175 121 285 261 285
c128 0 233 -94 233 -272zM140 309h315c-2 112 -71 164 -145 164c-83 0 -156 -63 -170 -164z" />
    <glyph glyph-name="egrave" unicode="&#xe8;" horiz-adv-x="592" 
d="M390 623h-77l-138 168h99zM544 281c0 -16 -1 -29 -3 -41h-401c13 -107 89 -172 191 -172c62 0 126 23 182 71v-91c-55 -40 -119 -60 -189 -60c-168 0 -274 113 -274 280c0 175 121 285 261 285c128 0 233 -94 233 -272zM140 309h315c-2 112 -71 164 -145 164
c-83 0 -156 -63 -170 -164z" />
    <glyph glyph-name="emacron" unicode="&#x113;" horiz-adv-x="592" 
d="M476 732v-68h-333v68h333zM544 281c0 -16 -1 -29 -3 -41h-401c13 -107 89 -172 191 -172c62 0 126 23 182 71v-91c-55 -40 -119 -60 -189 -60c-168 0 -274 113 -274 280c0 175 121 285 261 285c128 0 233 -94 233 -272zM140 309h315c-2 112 -71 164 -145 164
c-83 0 -156 -63 -170 -164z" />
    <glyph glyph-name="eogonek" unicode="&#x119;" horiz-adv-x="592" 
d="M544 281c0 -16 -1 -29 -3 -41h-400c12 -107 88 -172 190 -172c62 0 126 23 182 71v-91c-79 -56 -134 -106 -134 -151c0 -36 29 -56 64 -56c12 0 30 3 34 6v-61c-5 -3 -26 -8 -48 -8c-67 0 -124 37 -124 104c0 36 16 71 53 108c-11 -1 -22 -2 -34 -2
c-168 0 -274 113 -274 280c0 175 121 285 261 285c128 0 233 -94 233 -272zM143 309h312c-2 112 -71 164 -145 164c-83 0 -153 -63 -167 -164z" />
    <glyph glyph-name="gbreve" unicode="&#x11f;" horiz-adv-x="657" 
d="M506 788c3 -99 -81 -152 -164 -152s-168 53 -165 152h71c2 -47 35 -85 94 -85c58 0 92 38 93 85h71zM295 552c77 0 151 -37 192 -105l11 94h75v-497c0 -175 -125 -266 -266 -266c-73 0 -146 25 -202 67v99c56 -51 126 -80 198 -80c97 0 178 65 178 165v82
c-40 -63 -110 -102 -186 -102c-128 0 -246 109 -246 271c0 161 119 272 246 272zM313 467c-96 0 -171 -80 -171 -188c0 -106 75 -186 171 -186s171 81 171 190c0 107 -75 184 -171 184z" />
    <glyph glyph-name="uni0123" unicode="&#x123;" horiz-adv-x="657" 
d="M301 620c-12 65 4 136 41 202h66c-29 -69 -37 -141 -21 -202h-86zM295 552c77 0 151 -37 192 -105l11 94h75v-497c0 -175 -125 -266 -266 -266c-73 0 -146 25 -202 67v99c56 -51 126 -80 198 -80c97 0 178 65 178 165v82c-40 -63 -110 -102 -186 -102
c-128 0 -246 109 -246 271c0 161 119 272 246 272zM313 467c-96 0 -171 -80 -171 -188c0 -106 75 -186 171 -186s171 81 171 190c0 107 -75 184 -171 184z" />
    <glyph glyph-name="gdotaccent" unicode="&#x121;" horiz-adv-x="657" 
d="M341 645c-29 0 -54 24 -54 53s25 52 54 52c30 0 54 -23 54 -52s-24 -53 -54 -53zM295 552c77 0 151 -37 192 -105l11 94h75v-497c0 -175 -125 -266 -266 -266c-73 0 -146 25 -202 67v99c56 -51 126 -80 198 -80c97 0 178 65 178 165v82c-40 -63 -110 -102 -186 -102
c-128 0 -246 109 -246 271c0 161 119 272 246 272zM313 467c-96 0 -171 -80 -171 -188c0 -106 75 -186 171 -186s171 81 171 190c0 107 -75 184 -171 184z" />
    <glyph glyph-name="hbar" unicode="&#x127;" horiz-adv-x="606" 
d="M332 553c119 0 195 -68 195 -195v-358h-92v326c0 95 -41 141 -124 141c-72 0 -135 -42 -135 -132v-335h-92v634h-79v72h79v94h92v-94h156v-72h-156v-158h1c31 46 89 77 155 77z" />
    <glyph glyph-name="dotlessi" unicode="&#x131;" horiz-adv-x="264" 
d="M86 0v541h92v-541h-92z" />
    <glyph glyph-name="ij" unicode="&#x133;" horiz-adv-x="530" 
d="M132 665c-33 0 -57 24 -57 56s24 56 57 56s57 -24 57 -56s-24 -56 -57 -56zM399 665c-33 0 -57 24 -57 56s24 56 57 56s57 -24 57 -56s-24 -56 -57 -56zM86 0v541h92v-541h-92zM252 -210c67 70 101 150 101 280v471h92v-469c0 -119 -23 -205 -84 -282h-109z" />
    <glyph glyph-name="iacute" unicode="&#xed;" horiz-adv-x="264" 
d="M193 816h99l-139 -168h-76zM86 0v541h92v-541h-92z" />
    <glyph glyph-name="icircumflex" unicode="&#xee;" horiz-adv-x="264" 
d="M166 816l135 -168h-88l-81 107l-82 -107h-86l133 168h69zM86 0v541h92v-541h-92z" />
    <glyph glyph-name="idieresis" unicode="&#xef;" horiz-adv-x="264" 
d="M30 670c-29 0 -53 24 -53 53s24 52 53 52c30 0 55 -23 55 -52s-25 -53 -55 -53zM236 670c-30 0 -54 24 -54 53s24 52 54 52s53 -23 53 -52s-23 -53 -53 -53zM86 0v541h92v-541h-92z" />
    <glyph glyph-name="i.loclTRK" horiz-adv-x="264" 
d="M132 665c-33 0 -57 24 -57 56s24 56 57 56s57 -24 57 -56s-24 -56 -57 -56zM86 0v541h92v-541h-92z" />
    <glyph glyph-name="igrave" unicode="&#xec;" horiz-adv-x="264" 
d="M96 816l116 -168h-77l-138 168h99zM86 0v541h92v-541h-92z" />
    <glyph glyph-name="imacron" unicode="&#x12b;" horiz-adv-x="264" 
d="M-34 689v68h333v-68h-333zM86 0v541h92v-541h-92z" />
    <glyph glyph-name="iogonek" unicode="&#x12f;" horiz-adv-x="265" 
d="M133 665c-33 0 -57 24 -57 56s24 56 57 56s57 -24 57 -56s-24 -56 -57 -56zM87 11v530h92v-541c-61 -32 -99 -68 -99 -103c0 -36 29 -56 64 -56c12 0 30 3 35 6v-61c-5 -3 -26 -8 -48 -8c-68 0 -125 37 -125 104c0 44 24 87 81 129z" />
    <glyph glyph-name="uni0137" unicode="&#x137;" horiz-adv-x="548" 
d="M283 284l258 -284h-119l-246 275v-275h-92v800h92v-510l239 251h117zM237 -79h86c12 -65 -4 -136 -41 -202h-66c29 69 37 141 21 202z" />
    <glyph glyph-name="lacute" unicode="&#x13a;" horiz-adv-x="264" 
d="M171 1050h99l-139 -168h-76zM86 0v800h92v-800h-92z" />
    <glyph glyph-name="lcaron" unicode="&#x13e;" horiz-adv-x="288" 
d="M86 0v800h92v-800h-92zM256 605c4 26 12 57 12 108c0 34 -5 60 -13 87h85c3 -17 6 -37 6 -57c0 -34 -3 -73 -28 -138h-62z" />
    <glyph glyph-name="uni013C" unicode="&#x13c;" horiz-adv-x="264" 
d="M86 0v800h92v-800h-92zM173 -79c12 -65 -4 -136 -41 -202h-66c29 69 37 141 21 202h86z" />
    <glyph glyph-name="ldot" unicode="&#x140;" horiz-adv-x="376" 
d="M86 0v800h92v-800h-92zM320 337c-36 0 -62 27 -62 62c0 36 26 63 62 63c35 0 62 -27 62 -63c0 -35 -27 -62 -62 -62z" />
    <glyph glyph-name="lslash" unicode="&#x142;" horiz-adv-x="394" 
d="M370 553v-90l-122 -71v-392h-92v338l-122 -71v91l122 71v371h92v-318z" />
    <glyph glyph-name="nacute" unicode="&#x144;" horiz-adv-x="605" 
d="M350 791h99l-139 -168h-76zM334 553c117 0 193 -76 193 -195v-358h-92v325c0 95 -43 140 -124 140c-77 0 -135 -56 -135 -135v-330h-92v541h71l10 -82h3c31 50 89 94 166 94z" />
    <glyph glyph-name="ncaron" unicode="&#x148;" horiz-adv-x="605" 
d="M479 791l-135 -168h-67l-135 168h88l81 -107l81 107h87zM334 553c117 0 193 -76 193 -195v-358h-92v325c0 95 -43 140 -124 140c-77 0 -135 -56 -135 -135v-330h-92v541h71l10 -82h3c31 50 89 94 166 94z" />
    <glyph glyph-name="uni0146" unicode="&#x146;" horiz-adv-x="605" 
d="M334 553c117 0 193 -76 193 -195v-358h-92v325c0 95 -43 140 -124 140c-77 0 -135 -56 -135 -135v-330h-92v541h71l10 -82h3c31 50 89 94 166 94zM346 -79c12 -65 -4 -136 -41 -202h-66c29 69 37 141 21 202h86z" />
    <glyph glyph-name="eng" unicode="&#x14b;" horiz-adv-x="605" 
d="M527 358v-286c0 -119 -23 -205 -84 -282h-108c67 70 100 150 100 280v255c0 95 -43 140 -124 140c-77 0 -135 -56 -135 -135v-330h-92v541h71l10 -82h3c31 50 89 94 166 94c117 0 193 -76 193 -195z" />
    <glyph glyph-name="ntilde" unicode="&#xf1;" horiz-adv-x="605" 
d="M497 758c5 -88 -51 -123 -108 -123c-72 0 -96 60 -150 60c-37 0 -51 -31 -50 -57h-64c-5 88 51 123 108 123c72 0 96 -61 150 -61c37 0 51 31 50 58h64zM334 553c117 0 193 -76 193 -195v-358h-92v325c0 95 -43 140 -124 140c-77 0 -135 -56 -135 -135v-330h-92v541h71
l10 -82h3c31 50 89 94 166 94z" />
    <glyph glyph-name="oacute" unicode="&#xf3;" horiz-adv-x="637" 
d="M358 791h99l-139 -168h-76zM319 -12c-154 0 -270 119 -270 282s116 283 270 283c153 0 268 -120 268 -283c0 -162 -115 -282 -268 -282zM319 74c90 0 176 72 176 196c0 125 -86 197 -176 197c-91 0 -177 -72 -177 -197s86 -196 177 -196z" />
    <glyph glyph-name="ocircumflex" unicode="&#xf4;" horiz-adv-x="637" 
d="M353 791l135 -168h-88l-81 107l-82 -107h-86l133 168h69zM319 -12c-154 0 -270 119 -270 282s116 283 270 283c153 0 268 -120 268 -283c0 -162 -115 -282 -268 -282zM319 74c90 0 176 72 176 196c0 125 -86 197 -176 197c-91 0 -177 -72 -177 -197s86 -196 177 -196z
" />
    <glyph glyph-name="odieresis" unicode="&#xf6;" horiz-adv-x="637" 
d="M216 645c-29 0 -53 24 -53 53s24 52 53 52c30 0 55 -23 55 -52s-25 -53 -55 -53zM422 645c-30 0 -54 24 -54 53s24 52 54 52s53 -23 53 -52s-23 -53 -53 -53zM319 -12c-154 0 -270 119 -270 282s116 283 270 283c153 0 268 -120 268 -283c0 -162 -115 -282 -268 -282z
M319 74c90 0 176 72 176 196c0 125 -86 197 -176 197c-91 0 -177 -72 -177 -197s86 -196 177 -196z" />
    <glyph glyph-name="ograve" unicode="&#xf2;" horiz-adv-x="637" 
d="M283 791l116 -168h-77l-138 168h99zM319 -12c-154 0 -270 119 -270 282s116 283 270 283c153 0 268 -120 268 -283c0 -162 -115 -282 -268 -282zM319 74c90 0 176 72 176 196c0 125 -86 197 -176 197c-91 0 -177 -72 -177 -197s86 -196 177 -196z" />
    <glyph glyph-name="ohungarumlaut" unicode="&#x151;" horiz-adv-x="637" 
d="M410 791l-172 -168h-80l149 168h103zM583 791l-172 -168h-79l148 168h103zM319 -12c-154 0 -270 119 -270 282s116 283 270 283c153 0 268 -120 268 -283c0 -162 -115 -282 -268 -282zM319 74c90 0 176 72 176 196c0 125 -86 197 -176 197c-91 0 -177 -72 -177 -197
s86 -196 177 -196z" />
    <glyph glyph-name="omacron" unicode="&#x14d;" horiz-adv-x="637" 
d="M152 664v68h333v-68h-333zM319 -12c-154 0 -270 119 -270 282s116 283 270 283c153 0 268 -120 268 -283c0 -162 -115 -282 -268 -282zM319 74c90 0 176 72 176 196c0 125 -86 197 -176 197c-91 0 -177 -72 -177 -197s86 -196 177 -196z" />
    <glyph glyph-name="oslash" unicode="&#xf8;" horiz-adv-x="641" 
d="M593 506l-58 -61c34 -47 54 -107 54 -175c0 -162 -115 -282 -269 -282c-65 0 -123 21 -168 57l-52 -54l-43 41l53 56c-37 48 -59 111 -59 182c0 163 115 283 269 283c68 0 129 -23 175 -64l56 59zM138 270c0 -48 12 -88 33 -119l265 277c-32 29 -74 44 -116 44
c-93 0 -182 -73 -182 -202zM502 270c0 44 -10 82 -28 112l-263 -275c31 -25 70 -38 109 -38c93 0 182 74 182 201z" />
    <glyph glyph-name="otilde" unicode="&#xf5;" horiz-adv-x="637" 
d="M505 758c5 -88 -51 -123 -108 -123c-72 0 -96 60 -150 60c-37 0 -51 -31 -50 -57h-64c-5 88 51 123 108 123c72 0 96 -61 150 -61c37 0 51 31 50 58h64zM319 -12c-154 0 -270 119 -270 282s116 283 270 283c153 0 268 -120 268 -283c0 -162 -115 -282 -268 -282zM319 74
c90 0 176 72 176 196c0 125 -86 197 -176 197c-91 0 -177 -72 -177 -197s86 -196 177 -196z" />
    <glyph glyph-name="oe" unicode="&#x153;" horiz-adv-x="1034" 
d="M987 281c0 -16 -2 -29 -3 -41h-400c11 -107 87 -172 190 -172c62 0 125 23 182 71v-91c-56 -40 -119 -60 -190 -60c-102 0 -176 41 -228 119c-47 -69 -123 -119 -219 -119c-155 0 -270 119 -270 282c0 162 116 283 270 283c91 0 171 -49 219 -118c44 69 115 118 216 118
c127 0 233 -94 233 -272zM585 309h313c-3 112 -71 164 -145 164c-83 0 -154 -63 -168 -164zM319 73c90 0 176 72 176 197c0 126 -86 197 -176 197c-92 0 -178 -71 -178 -197c0 -125 87 -197 178 -197z" />
    <glyph glyph-name="thorn" unicode="&#xfe;" horiz-adv-x="658" 
d="M176 800v-354c37 67 113 103 187 103c128 0 245 -107 245 -278c0 -172 -117 -279 -245 -279c-74 0 -145 30 -187 104v-306h-92v1010h92zM342 465c-95 0 -168 -78 -168 -195c0 -116 73 -194 168 -194s170 77 170 195c0 117 -75 194 -170 194z" />
    <glyph glyph-name="racute" unicode="&#x155;" horiz-adv-x="376" 
d="M270 791h99l-139 -168h-76zM84 0v541h73l10 -86h1c37 70 107 92 155 92c14 0 25 -1 36 -3v-88c-12 2 -25 4 -38 4c-72 0 -145 -46 -145 -152v-308h-92z" />
    <glyph glyph-name="rcaron" unicode="&#x159;" horiz-adv-x="376" 
d="M399 791l-135 -168h-67l-135 168h88l81 -107l81 107h87zM84 0v541h73l10 -86h1c37 70 107 92 155 92c14 0 25 -1 36 -3v-88c-12 2 -25 4 -38 4c-72 0 -145 -46 -145 -152v-308h-92z" />
    <glyph glyph-name="uni0157" unicode="&#x157;" horiz-adv-x="376" 
d="M84 0v541h73l10 -86h1c37 70 107 92 155 92c14 0 25 -1 36 -3v-88c-12 2 -25 4 -38 4c-72 0 -145 -46 -145 -152v-308h-92zM171 -79c12 -65 -4 -136 -41 -202h-66c29 69 37 141 21 202h86z" />
    <glyph glyph-name="sacute" unicode="&#x15b;" horiz-adv-x="493" 
d="M296 791h99l-139 -168h-76zM254 553c62 0 125 -18 163 -47v-91c-39 33 -98 56 -162 56c-68 0 -106 -29 -106 -73c0 -48 47 -66 120 -87c83 -24 177 -51 177 -160c0 -99 -77 -163 -202 -163c-70 0 -137 20 -187 60v99c42 -43 106 -77 184 -77c73 0 115 32 115 80
c0 52 -51 69 -129 93c-89 27 -168 56 -168 151c0 91 75 159 195 159z" />
    <glyph glyph-name="scaron" unicode="&#x161;" horiz-adv-x="493" 
d="M425 791l-135 -168h-67l-135 168h88l81 -107l81 107h87zM254 553c62 0 125 -18 163 -47v-91c-39 33 -98 56 -162 56c-68 0 -106 -29 -106 -73c0 -48 47 -66 120 -87c83 -24 177 -51 177 -160c0 -99 -77 -163 -202 -163c-70 0 -137 20 -187 60v99c42 -43 106 -77 184 -77
c73 0 115 32 115 80c0 52 -51 69 -129 93c-89 27 -168 56 -168 151c0 91 75 159 195 159z" />
    <glyph glyph-name="uni015F" unicode="&#x15f;" horiz-adv-x="493" 
d="M446 151c0 -89 -62 -150 -165 -161c-6 -67 -30 -117 -66 -161h-96c41 49 76 97 84 161c-55 7 -106 26 -146 58v99c42 -43 106 -77 184 -77c73 0 115 32 115 80c0 52 -51 69 -129 93c-89 27 -168 56 -168 151c0 91 75 159 195 159c62 0 125 -18 163 -47v-91
c-39 33 -98 56 -162 56c-68 0 -106 -29 -106 -73c0 -48 47 -66 120 -87c83 -24 177 -51 177 -160z" />
    <glyph glyph-name="uni0219" unicode="&#x219;" horiz-adv-x="493" 
d="M254 553c62 0 125 -18 163 -47v-91c-39 33 -98 56 -162 56c-68 0 -106 -29 -106 -73c0 -48 47 -66 120 -87c83 -24 177 -51 177 -160c0 -99 -77 -163 -202 -163c-70 0 -137 20 -187 60v99c42 -43 106 -77 184 -77c73 0 115 32 115 80c0 52 -51 69 -129 93
c-89 27 -168 56 -168 151c0 91 75 159 195 159zM283 -79c12 -65 -4 -136 -41 -202h-66c29 69 37 141 21 202h86z" />
    <glyph glyph-name="germandbls" unicode="&#xdf;" horiz-adv-x="655" 
d="M84 559c0 150 91 246 232 246c134 0 213 -87 213 -188c0 -76 -40 -134 -98 -160v-2c94 -22 176 -88 176 -218c0 -158 -118 -242 -261 -242c-31 0 -64 4 -85 10v83c20 -6 48 -10 76 -10c96 0 179 52 179 164c0 101 -72 156 -182 156h-59v73h23c88 0 142 54 142 128
c0 72 -53 123 -128 123c-79 0 -136 -55 -136 -152v-570h-92v559z" />
    <glyph glyph-name="tbar" unicode="&#x167;" horiz-adv-x="398" 
d="M321 74c15 0 31 2 48 5v-80c-10 -2 -34 -6 -64 -6c-117 0 -193 70 -193 196v57h-81v71h81v144h-81v80h83v127h88v-127h155v-80h-155v-144h155v-71h-155v-53c0 -84 50 -119 119 -119z" />
    <glyph glyph-name="tcaron" unicode="&#x165;" horiz-adv-x="390" 
d="M276 617c3 22 11 54 11 99c0 32 -6 59 -12 84h84c4 -16 6 -35 6 -55c0 -32 -4 -71 -25 -128h-64zM197 668v-127h155v-80h-155v-268c0 -84 50 -119 119 -119c15 0 31 2 48 5v-80c-10 -2 -34 -6 -64 -6c-117 0 -193 70 -193 196v272h-81v80h83v127h88z" />
    <glyph glyph-name="uni0163" unicode="&#x163;" horiz-adv-x="391" 
d="M317 74c15 0 31 2 48 5v-80c-10 -2 -34 -6 -64 -6h-12c-5 -68 -29 -119 -66 -164h-96c45 54 83 106 86 180c-66 28 -105 89 -105 180v272h-81v80h83v127h88v-127h155v-80h-155v-268c0 -84 50 -119 119 -119z" />
    <glyph glyph-name="uni021B" unicode="&#x21b;" horiz-adv-x="390" 
d="M197 668v-127h155v-80h-155v-268c0 -84 50 -119 119 -119c15 0 31 2 48 5v-80c-10 -2 -34 -6 -64 -6c-117 0 -193 70 -193 196v272h-81v80h83v127h88zM291 -79c12 -65 -4 -136 -41 -202h-66c29 69 37 141 21 202h86z" />
    <glyph glyph-name="uacute" unicode="&#xfa;" horiz-adv-x="598" 
d="M338 791h99l-139 -168h-76zM297 -12c-138 0 -220 90 -220 220v333h92v-335c0 -83 49 -132 128 -132c81 0 132 49 132 132v335h92v-333c0 -130 -85 -220 -224 -220z" />
    <glyph glyph-name="ucircumflex" unicode="&#xfb;" horiz-adv-x="598" 
d="M333 791l135 -168h-88l-81 107l-82 -107h-86l133 168h69zM297 -12c-138 0 -220 90 -220 220v333h92v-335c0 -83 49 -132 128 -132c81 0 132 49 132 132v335h92v-333c0 -130 -85 -220 -224 -220z" />
    <glyph glyph-name="udieresis" unicode="&#xfc;" horiz-adv-x="598" 
d="M196 645c-29 0 -53 24 -53 53s24 52 53 52c30 0 55 -23 55 -52s-25 -53 -55 -53zM402 645c-30 0 -54 24 -54 53s24 52 54 52s53 -23 53 -52s-23 -53 -53 -53zM297 -12c-138 0 -220 90 -220 220v333h92v-335c0 -83 49 -132 128 -132c81 0 132 49 132 132v335h92v-333
c0 -130 -85 -220 -224 -220z" />
    <glyph glyph-name="ugrave" unicode="&#xf9;" horiz-adv-x="598" 
d="M263 791l116 -168h-77l-138 168h99zM297 -12c-138 0 -220 90 -220 220v333h92v-335c0 -83 49 -132 128 -132c81 0 132 49 132 132v335h92v-333c0 -130 -85 -220 -224 -220z" />
    <glyph glyph-name="uhungarumlaut" unicode="&#x171;" horiz-adv-x="598" 
d="M390 791l-172 -168h-80l149 168h103zM563 791l-172 -168h-79l148 168h103zM297 -12c-138 0 -220 90 -220 220v333h92v-335c0 -83 49 -132 128 -132c81 0 132 49 132 132v335h92v-333c0 -130 -85 -220 -224 -220z" />
    <glyph glyph-name="umacron" unicode="&#x16b;" horiz-adv-x="598" 
d="M132 664v68h333v-68h-333zM297 -12c-138 0 -220 90 -220 220v333h92v-335c0 -83 49 -132 128 -132c81 0 132 49 132 132v335h92v-333c0 -130 -85 -220 -224 -220z" />
    <glyph glyph-name="uogonek" unicode="&#x173;" horiz-adv-x="598" 
d="M429 541h92v-333c0 -82 -34 -146 -92 -185c-70 -50 -107 -89 -107 -128c0 -37 29 -54 65 -54c12 0 30 2 34 5v-60c-5 -4 -31 -9 -49 -9c-68 0 -123 37 -123 105c0 35 17 71 54 106h-6c-138 0 -220 90 -220 220v333h92v-335c0 -82 47 -132 128 -132s132 49 132 132v335z
" />
    <glyph glyph-name="uring" unicode="&#x16f;" horiz-adv-x="598" 
d="M299 821c59 0 106 -43 106 -99s-47 -100 -106 -100s-106 44 -106 100s47 99 106 99zM299 773c-31 0 -53 -22 -53 -51s22 -52 53 -52s53 23 53 52s-22 51 -53 51zM297 -12c-138 0 -220 90 -220 220v333h92v-335c0 -83 49 -132 128 -132c81 0 132 49 132 132v335h92v-333
c0 -130 -85 -220 -224 -220z" />
    <glyph glyph-name="wacute" unicode="&#x1e83;" horiz-adv-x="855" 
d="M467 791h99l-139 -168h-76zM566 0l-136 424h-3l-137 -424h-105l-153 541h96l113 -438h2l138 438h96l137 -438h3l115 438h91l-152 -541h-105z" />
    <glyph glyph-name="wcircumflex" unicode="&#x175;" horiz-adv-x="855" 
d="M462 791l135 -168h-88l-81 107l-82 -107h-86l133 168h69zM566 0l-136 424h-3l-137 -424h-105l-153 541h96l113 -438h2l138 438h96l137 -438h3l115 438h91l-152 -541h-105z" />
    <glyph glyph-name="wdieresis" unicode="&#x1e85;" horiz-adv-x="855" 
d="M325 645c-29 0 -53 24 -53 53s24 52 53 52c30 0 55 -23 55 -52s-25 -53 -55 -53zM531 645c-30 0 -54 24 -54 53s24 52 54 52s53 -23 53 -52s-23 -53 -53 -53zM566 0l-136 424h-3l-137 -424h-105l-153 541h96l113 -438h2l138 438h96l137 -438h3l115 438h91l-152 -541h-105
z" />
    <glyph glyph-name="wgrave" unicode="&#x1e81;" horiz-adv-x="855" 
d="M392 791l116 -168h-77l-138 168h99zM566 0l-136 424h-3l-137 -424h-105l-153 541h96l113 -438h2l138 438h96l137 -438h3l115 438h91l-152 -541h-105z" />
    <glyph glyph-name="yacute" unicode="&#xfd;" horiz-adv-x="540" 
d="M312 791h99l-139 -168h-76zM519 541l-293 -751h-94l93 229l-202 522h100l149 -412h2l149 412h96z" />
    <glyph glyph-name="ycircumflex" unicode="&#x177;" horiz-adv-x="540" 
d="M307 791l135 -168h-88l-81 107l-82 -107h-86l133 168h69zM519 541l-293 -751h-94l93 229l-202 522h100l149 -412h2l149 412h96z" />
    <glyph glyph-name="ydieresis" unicode="&#xff;" horiz-adv-x="540" 
d="M170 645c-29 0 -53 24 -53 53s24 52 53 52c30 0 55 -23 55 -52s-25 -53 -55 -53zM376 645c-30 0 -54 24 -54 53s24 52 54 52s53 -23 53 -52s-23 -53 -53 -53zM519 541l-293 -751h-94l93 229l-202 522h100l149 -412h2l149 412h96z" />
    <glyph glyph-name="ygrave" unicode="&#x1ef3;" horiz-adv-x="540" 
d="M237 791l116 -168h-77l-138 168h99zM519 541l-293 -751h-94l93 229l-202 522h100l149 -412h2l149 412h96z" />
    <glyph glyph-name="zacute" unicode="&#x17a;" horiz-adv-x="505" 
d="M300 791h99l-139 -168h-76zM481 541l-309 -456h280v-85h-430l309 456h-273v85h423z" />
    <glyph glyph-name="zcaron" unicode="&#x17e;" horiz-adv-x="505" 
d="M429 791l-135 -168h-67l-135 168h88l81 -107l81 107h87zM481 541l-309 -456h280v-85h-430l309 456h-273v85h423z" />
    <glyph glyph-name="zdotaccent" unicode="&#x17c;" horiz-adv-x="505" 
d="M260 645c-29 0 -54 24 -54 53s25 52 54 52c30 0 54 -23 54 -52s-24 -53 -54 -53zM481 541l-309 -456h280v-85h-430l309 456h-273v85h423z" />
    <glyph glyph-name="ordmasculine" unicode="&#xba;" horiz-adv-x="528" 
d="M264 754c122 0 214 -94 214 -224c0 -129 -92 -223 -214 -223c-123 0 -214 93 -214 223s92 224 214 224zM264 681c-69 0 -135 -55 -135 -151c0 -95 66 -150 135 -150c70 0 135 55 135 150c0 96 -65 151 -135 151z" />
    <glyph glyph-name="ordfeminine" unicode="&#xaa;" horiz-adv-x="550" 
d="M469 744v-427h-65l-10 76c-31 -55 -88 -86 -151 -86c-99 0 -192 88 -192 222c0 137 93 225 192 225c63 0 120 -31 151 -87l10 77h65zM262 681c-75 0 -132 -62 -132 -151c0 -88 57 -149 132 -149c73 0 129 61 129 150c0 88 -56 150 -129 150z" />
    <glyph glyph-name="ampersand" unicode="&#x26;" horiz-adv-x="756" 
d="M721 0h-109l-93 97c-60 -71 -130 -111 -222 -111c-135 0 -231 87 -231 209c0 105 71 161 159 205c-62 65 -102 118 -102 184c0 98 87 175 203 175c119 0 198 -82 198 -179c0 -100 -82 -155 -171 -199l157 -164l113 179h94l-152 -235zM326 681c-71 0 -116 -45 -116 -100
c0 -41 26 -78 90 -146c79 37 140 74 140 141c0 55 -41 105 -114 105zM301 65c59 0 114 26 164 87l-187 193c-71 -36 -123 -73 -123 -145c0 -79 61 -135 146 -135z" />
    <glyph glyph-name="period" unicode="." horiz-adv-x="252" 
d="M126 -5c-36 0 -62 27 -62 62c0 36 26 63 62 63c35 0 62 -27 62 -63c0 -35 -27 -62 -62 -62z" />
    <glyph glyph-name="comma" unicode="," horiz-adv-x="243" 
d="M38 -133c21 68 42 147 42 229v45h87v-41c0 -75 -33 -170 -60 -233h-69z" />
    <glyph glyph-name="colon" unicode=":" horiz-adv-x="270" 
d="M135 334c-36 0 -62 27 -62 62c0 36 26 63 62 63c35 0 62 -27 62 -63c0 -35 -27 -62 -62 -62zM135 -5c-36 0 -62 27 -62 62c0 36 26 63 62 63c35 0 62 -27 62 -63c0 -35 -27 -62 -62 -62z" />
    <glyph glyph-name="semicolon" unicode=";" horiz-adv-x="271" 
d="M135 334c-36 0 -62 27 -62 62c0 36 26 63 62 63c35 0 62 -27 62 -63c0 -35 -27 -62 -62 -62zM59 -133c21 68 42 147 42 229v45h87v-41c0 -75 -33 -170 -60 -233h-69z" />
    <glyph glyph-name="ellipsis" unicode="&#x2026;" horiz-adv-x="803" 
d="M126 -5c-36 0 -62 27 -62 62c0 36 26 63 62 63c35 0 62 -27 62 -63c0 -35 -27 -62 -62 -62zM402 -5c-36 0 -62 27 -62 62c0 36 26 63 62 63c35 0 62 -27 62 -63c0 -35 -27 -62 -62 -62zM677 -5c-36 0 -62 27 -62 62c0 36 26 63 62 63c35 0 62 -27 62 -63
c0 -35 -27 -62 -62 -62z" />
    <glyph glyph-name="exclam" unicode="!" horiz-adv-x="260" 
d="M95 231l-14 513h98l-15 -513h-69zM131 -5c-36 0 -63 27 -63 62c0 36 27 63 63 63c35 0 62 -27 62 -63c0 -35 -27 -62 -62 -62z" />
    <glyph glyph-name="exclamdown" unicode="&#xa1;" horiz-adv-x="260" 
d="M193 684c0 -36 -27 -63 -62 -63c-36 0 -63 27 -63 63c0 35 27 62 63 62c35 0 62 -27 62 -62zM95 510h69l15 -513h-98z" />
    <glyph glyph-name="question" unicode="?" horiz-adv-x="512" 
d="M240 759c126 0 217 -92 217 -210c0 -97 -69 -169 -180 -292h-99c116 133 183 195 183 276c0 82 -57 136 -137 136c-65 0 -132 -42 -173 -91v104c41 41 110 77 189 77zM232 120c36 0 63 -27 63 -63c0 -35 -27 -62 -63 -62c-35 0 -62 27 -62 62c0 36 27 63 62 63z" />
    <glyph glyph-name="questiondown" unicode="&#xbf;" horiz-adv-x="513" 
d="M280 624c-36 0 -63 27 -63 63c0 35 27 62 63 62c35 0 62 -27 62 -62c0 -36 -27 -63 -62 -63zM272 -15c-126 0 -217 92 -217 210c0 97 69 169 180 292h99c-116 -133 -183 -195 -183 -276c0 -82 57 -136 137 -136c65 0 132 42 173 91v-104c-41 -41 -110 -77 -189 -77z" />
    <glyph glyph-name="quotesingle" unicode="'" horiz-adv-x="224" 
d="M84 477l-19 267h91l-16 -267h-56z" />
    <glyph glyph-name="quotedbl" unicode="&#x22;" horiz-adv-x="394" 
d="M84 477l-19 267h91l-16 -267h-56zM255 477l-19 267h91l-16 -267h-56z" />
    <glyph glyph-name="quoteleft" unicode="&#x2018;" horiz-adv-x="245" 
d="M196 744c-21 -68 -42 -147 -42 -229v-45h-87v41c0 75 33 170 60 233h69z" />
    <glyph glyph-name="quoteright" unicode="&#x2019;" horiz-adv-x="244" 
d="M59 470c21 68 42 147 42 229v45h87v-41c0 -75 -33 -170 -60 -233h-69z" />
    <glyph glyph-name="quotedblleft" unicode="&#x201c;" horiz-adv-x="424" 
d="M196 744c-21 -68 -42 -147 -42 -229v-45h-87v41c0 75 33 170 60 233h69zM375 744c-21 -68 -42 -147 -42 -229v-45h-87v41c0 75 33 170 60 233h69z" />
    <glyph glyph-name="quotedblright" unicode="&#x201d;" horiz-adv-x="422" 
d="M59 470c21 68 42 147 42 229v45h87v-41c0 -75 -33 -170 -60 -233h-69zM237 470c21 68 42 147 42 229v45h87v-41c0 -75 -33 -170 -60 -233h-69z" />
    <glyph glyph-name="quotesinglbase" unicode="&#x201a;" horiz-adv-x="243" 
d="M38 -133c21 68 42 147 42 229v45h87v-41c0 -75 -33 -170 -60 -233h-69z" />
    <glyph glyph-name="quotedblbase" unicode="&#x201e;" horiz-adv-x="428" 
d="M38 -134c21 68 42 147 42 229v45h87v-41c0 -75 -33 -170 -60 -233h-69zM223 -134c21 68 42 147 42 229v45h87v-41c0 -75 -33 -170 -60 -233h-69z" />
    <glyph glyph-name="guilsinglleft" unicode="&#x2039;" horiz-adv-x="376" 
d="M310 515v-98l-184 -147l184 -147v-97l-263 214v61z" />
    <glyph glyph-name="guilsinglright" unicode="&#x203a;" horiz-adv-x="376" 
d="M66 26v98l184 147l-184 147v97l263 -214v-61z" />
    <glyph glyph-name="guillemotleft" unicode="&#xab;" horiz-adv-x="617" 
d="M310 515v-98l-184 -147l184 -147v-97l-263 214v61zM551 515v-98l-184 -147l184 -147v-97l-263 214v61z" />
    <glyph glyph-name="guillemotright" unicode="&#xbb;" horiz-adv-x="617" 
d="M66 26v98l184 147l-184 147v97l263 -214v-61zM307 26v98l184 147l-184 147v97l263 -214v-61z" />
    <glyph glyph-name="hyphen" unicode="-" horiz-adv-x="407" 
d="M74 279v80h259v-80h-259z" />
    <glyph glyph-name="uni00AD" unicode="&#xad;" horiz-adv-x="407" 
d="M74 279v80h259v-80h-259z" />
    <glyph glyph-name="endash" unicode="&#x2013;" horiz-adv-x="517" 
d="M74 279v80h369v-80h-369z" />
    <glyph glyph-name="emdash" unicode="&#x2014;" horiz-adv-x="813" 
d="M74 279v80h665v-80h-665z" />
    <glyph glyph-name="periodcentered" unicode="&#xb7;" horiz-adv-x="266" 
d="M133 310c-36 0 -62 27 -62 62c0 36 26 63 62 63c35 0 62 -27 62 -63c0 -35 -27 -62 -62 -62z" />
    <glyph glyph-name="bullet" unicode="&#x2022;" horiz-adv-x="445" 
d="M87 371c0 75 60 135 135 135s135 -60 135 -135s-60 -135 -135 -135s-135 60 -135 135z" />
    <glyph glyph-name="underscore" unicode="_" horiz-adv-x="527" 
d="M0 -171v76h527v-76h-527z" />
    <glyph glyph-name="slash" unicode="/" horiz-adv-x="494" 
d="M35 -133l334 1009h90l-335 -1009h-89z" />
    <glyph glyph-name="backslash" unicode="\" horiz-adv-x="494" 
d="M459 -133h-89l-335 1009h90z" />
    <glyph glyph-name="fraction" unicode="&#x2044;" horiz-adv-x="176" 
d="M-193 0l490 744h75l-490 -744h-75z" />
    <glyph glyph-name="bar" unicode="|" horiz-adv-x="247" 
d="M81 -183v1108h85v-1108h-85z" />
    <glyph glyph-name="brokenbar" unicode="&#xa6;" horiz-adv-x="255" 
d="M88 488v437h80v-437h-80zM168 254v-437h-80v437h80z" />
    <glyph glyph-name="parenleft" unicode="(" horiz-adv-x="340" 
d="M331 744c-109 -105 -190 -257 -190 -436c0 -180 82 -332 190 -437h-102c-105 113 -176 261 -176 437c0 174 71 323 176 436h102z" />
    <glyph glyph-name="parenright" unicode=")" horiz-adv-x="340" 
d="M9 744h102c105 -113 176 -262 176 -436c0 -176 -71 -324 -176 -437h-102c108 105 190 257 190 437c0 179 -81 331 -190 436z" />
    <glyph glyph-name="bracketleft" unicode="[" horiz-adv-x="328" 
d="M80 -210v1010h216v-78h-135v-855h135v-77h-216z" />
    <glyph glyph-name="bracketright" unicode="]" horiz-adv-x="328" 
d="M248 -210h-216v77h135v855h-135v78h216v-1010z" />
    <glyph glyph-name="braceleft" unicode="{" horiz-adv-x="351" 
d="M315 772v-76c-74 7 -103 -27 -103 -80v-190c0 -63 -19 -125 -86 -146v-2c67 -20 86 -83 86 -145v-188c0 -54 29 -88 104 -80v-76c-115 -13 -183 48 -183 145v201c0 46 -16 97 -105 109v70c89 13 105 64 105 111v202c0 97 67 158 182 145z" />
    <glyph glyph-name="braceright" unicode="}" horiz-adv-x="351" 
d="M218 627v-202c0 -47 16 -98 105 -111v-70c-89 -12 -105 -63 -105 -109v-201c0 -97 -68 -158 -183 -145v76c75 -8 104 26 104 80v188c0 62 19 125 86 145v2c-67 21 -86 83 -86 146v190c0 53 -29 87 -103 80v76c115 13 182 -48 182 -145z" />
    <glyph glyph-name="asterisk" unicode="*" horiz-adv-x="580" 
d="M331 800l-16 -180l177 70l30 -83l-190 -38l126 -137l-69 -51l-99 156h-1l-99 -156l-71 51l125 137l-185 38l26 82l175 -69l-16 180h87z" />
    <glyph glyph-name="dagger" unicode="&#x2020;" horiz-adv-x="523" 
d="M221 -210v666h-185v78h185v210h81v-210h185v-78h-185v-666h-81z" />
    <glyph glyph-name="daggerdbl" unicode="&#x2021;" horiz-adv-x="584" 
d="M333 744v-210h185v-78h-185v-378h185v-78h-185v-210h-82v210h-185v78h185v378h-185v78h185v210h82z" />
    <glyph glyph-name="section" unicode="&#xa7;" horiz-adv-x="536" 
d="M377 139c46 -30 83 -72 83 -140c0 -102 -85 -185 -212 -185c-74 0 -137 28 -176 60v97c41 -47 111 -78 172 -78c68 0 126 40 126 102c0 61 -55 85 -139 122c-70 31 -164 72 -164 177c0 67 40 124 108 151c-47 28 -87 70 -87 140c0 97 80 174 207 174
c54 0 110 -15 149 -38v-93c-45 34 -96 51 -150 51c-76 0 -118 -42 -118 -90c0 -52 43 -76 108 -104c79 -34 194 -74 194 -190c0 -70 -42 -126 -101 -156zM154 302c0 -56 47 -81 111 -108c11 -5 24 -10 36 -15c49 13 90 50 90 107s-48 83 -123 116c-76 -5 -114 -54 -114 -100
z" />
    <glyph glyph-name="paragraph" unicode="&#xb6;" horiz-adv-x="651" 
d="M332 -210v458h-29c-152 0 -268 94 -268 246c0 155 116 250 277 250h250v-954h-82v875h-67v-875h-81z" />
    <glyph glyph-name="copyright" unicode="&#xa9;" horiz-adv-x="896" 
d="M448 759c217 0 390 -176 390 -388c0 -210 -173 -386 -390 -386c-218 0 -389 176 -389 386c0 212 171 388 389 388zM127 371c0 -174 140 -320 321 -320s323 146 323 320c0 175 -142 323 -323 323s-321 -148 -321 -323zM570 184c-27 -16 -61 -25 -109 -25
c-108 0 -208 84 -208 213c0 128 100 214 208 214c48 0 83 -10 109 -25v-72c-31 21 -60 31 -101 31c-73 0 -145 -59 -145 -148c0 -88 72 -148 145 -148c41 0 69 10 101 31v-71z" />
    <glyph glyph-name="registered" unicode="&#xae;" horiz-adv-x="896" 
d="M448 759c217 0 390 -176 390 -388c0 -210 -173 -386 -390 -386c-218 0 -389 176 -389 386c0 212 171 388 389 388zM448 51c181 0 323 146 323 320c0 175 -142 323 -323 323s-321 -148 -321 -323c0 -174 140 -320 321 -320zM591 456c0 -72 -62 -115 -125 -122l149 -166
h-81l-138 161h-7v-161h-62v417h106c104 0 158 -56 158 -129zM389 383h36c63 0 102 25 102 73c0 51 -41 70 -107 70h-31v-143z" />
    <glyph glyph-name="trademark" unicode="&#x2122;" horiz-adv-x="967" 
d="M364 744v-73h-122v-356h-74v356h-122v73h318zM831 744l67 -429h-73l-47 320h-2l-105 -320h-58l-104 318h-2l-48 -318h-71l66 429h85l104 -315h1l103 315h84z" />
    <glyph glyph-name="at" unicode="@" horiz-adv-x="995" 
d="M638 44h-31l4 77c-41 -57 -90 -87 -152 -87c-94 0 -185 70 -185 205c0 141 99 263 226 263c67 0 123 -33 150 -98l25 88h64l-58 -383c90 26 176 122 176 265c0 170 -144 268 -317 268c-197 0 -398 -141 -398 -397c0 -246 190 -343 389 -343c49 0 108 6 168 26l-12 -78
c-54 -15 -108 -23 -166 -23c-238 0 -463 126 -463 409c0 299 234 482 488 482c207 0 388 -126 388 -335c0 -188 -133 -339 -296 -339zM480 110c87 0 147 80 147 178c0 84 -45 138 -115 138c-85 0 -152 -82 -152 -183c0 -93 58 -133 120 -133z" />
    <glyph glyph-name="numbersign" unicode="#" horiz-adv-x="709" 
d="M658 452h-128l-25 -161h122v-74h-134l-35 -217h-83l35 217h-161l-35 -217h-84l35 217h-114v74h126l25 161h-120v74h132l35 218h84l-35 -218h161l35 218h83l-35 -218h116v-74zM422 291l25 161h-161l-25 -161h161z" />
    <glyph glyph-name="zero" unicode="0" horiz-adv-x="682" 
d="M341 759c154 0 279 -146 279 -388c0 -241 -125 -386 -279 -386s-278 145 -278 386c0 242 124 388 278 388zM341 671c-103 0 -184 -110 -184 -300s81 -298 184 -298c102 0 186 109 186 298c0 190 -84 300 -186 300z" />
    <glyph glyph-name="one" unicode="1" horiz-adv-x="455" 
d="M223 0v618l-185 -79v97l268 111h9v-747h-92z" />
    <glyph glyph-name="two" unicode="2" horiz-adv-x="586" 
d="M37 0c331 370 373 439 373 526c0 74 -52 145 -147 145c-81 0 -148 -42 -190 -89v104c42 40 117 73 198 73c147 0 233 -102 233 -228c0 -118 -100 -240 -286 -443h313v-88h-494z" />
    <glyph glyph-name="three" unicode="3" horiz-adv-x="576" 
d="M81 692c42 40 108 67 183 67c140 0 225 -94 225 -199c0 -77 -41 -140 -111 -171v-2c72 -25 136 -87 136 -187c0 -110 -87 -213 -249 -213c-84 0 -151 26 -204 73v104c47 -55 115 -91 196 -91c101 0 164 58 164 135c0 78 -64 133 -172 133h-93v79h72c113 0 169 53 169 128
c0 68 -51 124 -143 124c-71 0 -135 -34 -173 -79v99z" />
    <glyph glyph-name="four" unicode="4" horiz-adv-x="655" 
d="M614 259v-82h-128v-177h-88v177h-363v56l374 511h77v-485h128zM145 259h253v347l-253 -346v-1z" />
    <glyph glyph-name="five" unicode="5" horiz-adv-x="571" 
d="M483 744v-87h-255l-41 -210c20 7 51 15 81 15c160 0 248 -115 248 -232c0 -120 -81 -245 -265 -245c-76 0 -146 26 -198 70v108c50 -58 127 -89 197 -89c105 0 171 64 171 152c0 90 -66 157 -180 157c-57 0 -98 -17 -135 -35l-12 10l67 386h322z" />
    <glyph glyph-name="six" unicode="6" horiz-adv-x="612" 
d="M320 477c122 0 247 -95 247 -238c0 -142 -105 -254 -258 -254c-152 0 -258 113 -258 251c0 84 39 153 104 231l222 277h111l-219 -272c16 3 33 5 51 5zM309 70c97 0 166 78 166 164c0 109 -89 167 -183 167c-32 0 -64 -7 -94 -21c-37 -48 -56 -89 -56 -144
c0 -87 70 -166 167 -166z" />
    <glyph glyph-name="seven" unicode="7" horiz-adv-x="553" 
d="M58 0l346 657h-352v87h494l-389 -744h-99z" />
    <glyph glyph-name="eight" unicode="8" horiz-adv-x="636" 
d="M441 383c87 -32 133 -105 133 -187c0 -119 -100 -211 -256 -211c-154 0 -255 93 -255 211c0 81 46 156 132 187v2c-62 29 -111 86 -111 170c0 107 89 204 234 204s234 -97 234 -203c0 -85 -50 -143 -111 -171v-2zM173 549c0 -76 60 -129 145 -129s145 53 145 129
c0 69 -59 127 -145 127c-87 0 -145 -57 -145 -127zM318 341c-99 0 -163 -59 -163 -137c0 -73 62 -137 163 -137c103 0 165 64 165 137c0 78 -65 137 -165 137z" />
    <glyph glyph-name="nine" unicode="9" horiz-adv-x="603" 
d="M301 759c151 0 253 -110 253 -248c0 -75 -33 -146 -103 -229l-227 -282h-112l219 271c-13 -2 -30 -3 -41 -3c-117 0 -245 89 -245 238c0 137 105 253 256 253zM404 363c39 51 58 92 58 146c0 90 -64 165 -161 165s-163 -76 -163 -164c0 -98 75 -167 171 -167
c31 0 66 7 95 20z" />
    <glyph glyph-name="zero.osf" horiz-adv-x="681" 
d="M340 552c139 0 282 -104 282 -283c0 -175 -143 -282 -282 -282s-281 104 -281 282c0 179 142 283 281 283zM340 464c-94 0 -188 -71 -188 -195s94 -194 188 -194c95 0 188 71 188 194c0 125 -93 195 -188 195z" />
    <glyph glyph-name="one.osf" horiz-adv-x="399" 
d="M188 0v428l-143 -59v93l227 91h8v-553h-92z" />
    <glyph glyph-name="two.osf" horiz-adv-x="595" 
d="M538 88v-88h-494c307 221 367 279 368 360c1 60 -53 107 -133 107c-82 0 -147 -44 -195 -101v106c52 48 126 81 216 81c126 0 210 -77 210 -175c0 -112 -110 -199 -242 -290h270z" />
    <glyph glyph-name="three.osf" horiz-adv-x="548" 
d="M75 488c41 39 105 65 176 65c135 0 215 -90 215 -197c0 -76 -40 -146 -106 -176v-2c72 -27 131 -88 131 -186c0 -114 -80 -214 -236 -214c-76 0 -147 24 -200 68v99c47 -45 113 -81 188 -81c98 0 155 61 155 135c0 76 -60 135 -162 135h-86v79h65c106 0 160 62 160 131
c0 67 -50 123 -136 123c-67 0 -128 -33 -164 -78v99z" />
    <glyph glyph-name="four.osf" horiz-adv-x="632" 
d="M592 82v-82h-120v-210h-88v210h-356v57l354 484h90v-459h120zM137 82h247v341l-247 -339v-2z" />
    <glyph glyph-name="five.osf" horiz-adv-x="560" 
d="M478 541v-87h-255l-41 -212c20 7 51 14 81 14c161 0 248 -114 248 -233c0 -120 -80 -245 -264 -245c-76 0 -145 27 -199 70v108c50 -58 126 -89 197 -89c104 0 171 64 171 153c1 89 -66 157 -180 157c-56 0 -97 -16 -135 -34l-12 9l67 389h322z" />
    <glyph glyph-name="six.osf" horiz-adv-x="612" 
d="M320 477c122 0 247 -95 247 -238c0 -142 -105 -254 -258 -254c-152 0 -258 113 -258 251c0 84 39 153 104 231l222 277h111l-219 -272c16 3 33 5 51 5zM309 70c97 0 166 78 166 164c0 109 -89 167 -183 167c-32 0 -64 -7 -94 -21c-37 -48 -56 -89 -56 -144
c0 -87 70 -166 167 -166z" />
    <glyph glyph-name="seven.osf" horiz-adv-x="545" 
d="M50 -210l350 664h-353v87h494l-392 -751h-99z" />
    <glyph glyph-name="eight.osf" horiz-adv-x="636" 
d="M441 383c87 -32 133 -105 133 -187c0 -119 -100 -211 -256 -211c-154 0 -255 93 -255 211c0 81 46 156 132 187v2c-62 29 -111 86 -111 170c0 107 89 204 234 204s234 -97 234 -203c0 -85 -50 -143 -111 -171v-2zM173 549c0 -76 60 -129 145 -129s145 53 145 129
c0 69 -59 127 -145 127c-87 0 -145 -57 -145 -127zM318 341c-99 0 -163 -59 -163 -137c0 -73 62 -137 163 -137c103 0 165 64 165 137c0 78 -65 137 -165 137z" />
    <glyph glyph-name="nine.osf" horiz-adv-x="590" 
d="M296 553c152 0 253 -110 253 -248c0 -75 -32 -146 -103 -229l-231 -286h-111l222 275c-12 -3 -26 -4 -41 -4c-117 0 -244 90 -244 239c0 137 104 253 255 253zM400 157c39 51 58 92 58 146c0 90 -65 164 -162 164s-163 -75 -163 -163c0 -98 75 -167 171 -167
c32 0 66 7 96 20z" />
    <glyph glyph-name="zero.tf" 
d="M341 759c141 0 257 -147 257 -388c0 -242 -115 -386 -257 -386c-144 0 -259 144 -259 386c0 241 115 388 259 388zM341 671c-93 0 -166 -110 -166 -300c0 -189 74 -298 166 -298c90 0 165 109 165 297c0 190 -75 301 -165 301z" />
    <glyph glyph-name="one.tf" 
d="M568 86v-86h-416v86h166v533l-176 -76v97l259 107h9v-661h158z" />
    <glyph glyph-name="two.tf" 
d="M85 0c331 370 373 439 373 526c0 74 -52 145 -147 145c-81 0 -148 -42 -190 -89v104c42 40 117 73 198 73c147 0 233 -102 233 -228c0 -118 -100 -240 -286 -443h313v-88h-494z" />
    <glyph glyph-name="three.tf" 
d="M133 692c42 40 108 67 183 67c140 0 225 -94 225 -199c0 -77 -41 -140 -111 -171v-2c72 -25 136 -87 136 -187c0 -110 -87 -213 -249 -213c-84 0 -151 26 -204 73v104c47 -55 115 -91 196 -91c101 0 164 58 164 135c0 78 -64 133 -172 133h-93v79h72
c113 0 169 53 169 128c0 68 -51 124 -143 124c-71 0 -135 -34 -173 -79v99z" />
    <glyph glyph-name="four.tf" 
d="M627 259v-82h-128v-177h-88v177h-363v56l374 511h77v-485h128zM158 259h253v347l-253 -346v-1z" />
    <glyph glyph-name="five.tf" 
d="M537 744v-87h-255l-41 -210c20 7 51 15 81 15c160 0 248 -115 248 -232c0 -120 -81 -245 -265 -245c-76 0 -146 26 -198 70v108c50 -58 127 -89 197 -89c105 0 171 64 171 152c0 90 -66 157 -180 157c-57 0 -98 -17 -135 -35l-12 10l67 386h322z" />
    <glyph glyph-name="six.tf" 
d="M354 477c122 0 247 -95 247 -238c0 -142 -105 -254 -258 -254c-152 0 -258 113 -258 251c0 84 39 153 104 231l222 277h111l-219 -272c16 3 33 5 51 5zM343 70c97 0 166 78 166 164c0 109 -89 167 -183 167c-32 0 -64 -7 -94 -21c-37 -48 -56 -89 -56 -144
c0 -87 70 -166 167 -166z" />
    <glyph glyph-name="seven.tf" 
d="M122 0l346 657h-352v87h494l-389 -744h-99z" />
    <glyph glyph-name="eight.tf" 
d="M462 383c87 -32 134 -105 134 -187c0 -119 -101 -211 -257 -211c-154 0 -255 93 -255 211c0 81 47 156 133 187v2c-62 29 -112 86 -112 170c0 107 89 204 234 204s234 -97 234 -203c0 -85 -49 -143 -111 -171v-2zM339 676c-86 0 -145 -57 -145 -127
c0 -76 61 -129 145 -129c85 0 146 53 146 129c0 69 -60 127 -146 127zM504 204c0 78 -65 137 -165 137c-99 0 -162 -59 -162 -137c0 -73 61 -137 162 -137c104 0 165 64 165 137z" />
    <glyph glyph-name="nine.tf" 
d="M340 759c151 0 253 -110 253 -248c0 -75 -33 -146 -103 -229l-227 -282h-112l219 271c-13 -2 -30 -3 -41 -3c-117 0 -245 89 -245 238c0 137 105 253 256 253zM443 363c39 51 58 92 58 146c0 90 -64 165 -161 165s-163 -76 -163 -164c0 -98 75 -167 171 -167
c31 0 66 7 95 20z" />
    <glyph glyph-name="zero.dnom" horiz-adv-x="466" 
d="M233 430c103 0 186 -82 186 -222s-83 -222 -186 -222s-187 82 -187 222s84 222 187 222zM233 360c-62 0 -111 -53 -111 -152c0 -100 49 -153 111 -153c61 0 111 53 111 153c0 99 -50 152 -111 152z" />
    <glyph glyph-name="one.dnom" horiz-adv-x="300" 
d="M139 0v338l-105 -45v73l168 72h10v-438h-73z" />
    <glyph glyph-name="two.dnom" horiz-adv-x="380" 
d="M335 68v-68h-306c190 209 214 248 214 300c0 34 -25 69 -79 69c-41 0 -79 -22 -104 -50v78c29 25 75 41 119 41c83 0 143 -50 143 -131c0 -68 -47 -126 -153 -239h166z" />
    <glyph glyph-name="three.dnom" horiz-adv-x="377" 
d="M60 392c26 21 71 38 118 38c87 0 138 -52 138 -115c0 -48 -27 -78 -63 -97v-1c45 -17 79 -52 79 -105c0 -66 -56 -126 -155 -126c-52 0 -99 18 -130 43v78c30 -33 76 -56 129 -56c47 0 83 23 83 64c0 45 -40 66 -104 66h-58v62h56c65 0 90 32 90 63c0 32 -28 58 -71 58
c-44 1 -84 -17 -112 -44v72z" />
    <glyph glyph-name="four.dnom" horiz-adv-x="419" 
d="M381 162v-63h-65v-99h-66v99h-220v46l221 287h65v-270h65zM113 162h137v176z" />
    <glyph glyph-name="five.dnom" horiz-adv-x="394" 
d="M332 424v-66h-175l-21 -103h1c12 3 31 6 58 6c105 0 157 -62 157 -131c0 -72 -55 -144 -178 -144c-53 0 -101 14 -133 36v74c33 -28 81 -44 132 -44c61 0 105 31 105 76s-43 76 -105 76c-44 0 -77 -8 -101 -17l-8 5l43 232h225z" />
    <glyph glyph-name="six.dnom" horiz-adv-x="421" 
d="M221 278c95 0 165 -61 165 -144c0 -82 -72 -148 -173 -148c-102 0 -175 67 -175 151c0 47 24 89 69 136l142 151h88l-140 -147c8 1 16 1 24 1zM213 51c60 0 100 40 100 85c0 55 -51 86 -100 86c-30 0 -53 -4 -69 -10c-24 -24 -33 -49 -33 -76c0 -45 41 -85 102 -85z" />
    <glyph glyph-name="seven.dnom" horiz-adv-x="392" 
d="M44 0l220 366h-222v66h337l-255 -432h-80z" />
    <glyph glyph-name="eight.dnom" horiz-adv-x="433" 
d="M307 215c49 -21 80 -59 80 -106c0 -71 -72 -123 -170 -123c-99 0 -171 52 -171 123c0 46 31 85 80 106c-41 20 -67 56 -67 98c0 68 66 117 155 117c93 0 160 -49 160 -117c0 -42 -26 -77 -67 -98zM214 373c-49 0 -85 -29 -85 -68c0 -38 36 -67 85 -67c52 0 90 29 90 67
c0 39 -38 68 -90 68zM217 43c56 0 98 30 98 71c0 40 -42 70 -98 70c-58 0 -99 -30 -99 -70c0 -41 41 -71 99 -71z" />
    <glyph glyph-name="nine.dnom" horiz-adv-x="417" 
d="M208 438c98 0 171 -64 171 -152c0 -47 -23 -85 -68 -133l-144 -153h-89l137 147c-5 -1 -10 -1 -15 -1c-93 0 -164 60 -164 142c0 85 73 150 172 150zM274 214c21 24 32 49 32 73c0 50 -42 86 -98 86c-57 0 -99 -36 -99 -86c0 -49 41 -85 99 -85c21 0 49 5 66 12z" />
    <glyph glyph-name="zero.numr" horiz-adv-x="466" 
d="M233 750c103 0 186 -82 186 -222s-83 -222 -186 -222s-187 82 -187 222s84 222 187 222zM233 680c-62 0 -111 -53 -111 -152c0 -100 49 -153 111 -153c61 0 111 53 111 153c0 99 -50 152 -111 152z" />
    <glyph glyph-name="one.numr" horiz-adv-x="299" 
d="M138 312v338l-105 -45v73l168 72h10v-438h-73z" />
    <glyph glyph-name="two.numr" horiz-adv-x="378" 
d="M333 380v-68h-306c190 209 214 248 214 300c0 34 -25 69 -79 69c-41 0 -79 -22 -104 -50v78c29 25 75 41 119 41c83 0 143 -50 143 -131c0 -68 -47 -126 -153 -239h166z" />
    <glyph glyph-name="three.numr" horiz-adv-x="376" 
d="M59 712c26 21 71 38 118 38c87 0 138 -52 138 -115c0 -48 -27 -78 -63 -97v-1c45 -17 79 -52 79 -105c0 -66 -56 -126 -155 -126c-52 0 -99 18 -130 43v78c30 -33 76 -56 129 -56c47 0 83 23 83 64c0 45 -40 66 -104 66h-58v62h56c65 0 90 32 90 63c0 32 -28 58 -71 58
c-44 1 -84 -17 -112 -44v72z" />
    <glyph glyph-name="four.numr" horiz-adv-x="419" 
d="M381 474v-63h-65v-99h-66v99h-220v46l221 287h65v-270h65zM113 474h137v176z" />
    <glyph glyph-name="five.numr" horiz-adv-x="394" 
d="M332 744v-66h-175l-21 -103h1c12 3 31 6 58 6c105 0 157 -62 157 -131c0 -72 -55 -144 -178 -144c-53 0 -101 14 -133 36v74c33 -28 81 -44 132 -44c61 0 105 31 105 76s-43 76 -105 76c-44 0 -77 -8 -101 -17l-8 5l43 232h225z" />
    <glyph glyph-name="six.numr" horiz-adv-x="422" 
d="M222 598c95 0 165 -61 165 -144c0 -82 -72 -148 -173 -148c-102 0 -175 67 -175 151c0 47 24 89 69 136l142 151h88l-140 -147c8 1 16 1 24 1zM214 371c60 0 100 40 100 85c0 55 -51 86 -100 86c-30 0 -53 -4 -69 -10c-24 -24 -33 -49 -33 -76c0 -45 41 -85 102 -85z" />
    <glyph glyph-name="seven.numr" horiz-adv-x="389" 
d="M43 312l220 366h-222v66h337l-255 -432h-80z" />
    <glyph glyph-name="eight.numr" horiz-adv-x="433" 
d="M307 535c49 -21 80 -59 80 -106c0 -71 -72 -123 -170 -123c-99 0 -171 52 -171 123c0 46 31 85 80 106c-41 20 -67 56 -67 98c0 68 66 117 155 117c93 0 160 -49 160 -117c0 -42 -26 -77 -67 -98zM214 693c-49 0 -85 -29 -85 -68c0 -38 36 -67 85 -67c52 0 90 29 90 67
c0 39 -38 68 -90 68zM217 363c56 0 98 30 98 71c0 40 -42 70 -98 70c-58 0 -99 -30 -99 -70c0 -41 41 -71 99 -71z" />
    <glyph glyph-name="nine.numr" horiz-adv-x="418" 
d="M208 750c98 0 171 -64 171 -152c0 -47 -23 -85 -68 -133l-144 -153h-89l137 147c-5 -1 -10 -1 -15 -1c-93 0 -164 60 -164 142c0 85 73 150 172 150zM274 526c21 24 32 49 32 73c0 50 -42 86 -98 86c-57 0 -99 -36 -99 -86c0 -49 41 -85 99 -85c21 0 49 5 66 12z" />
    <glyph glyph-name="uni00B9" unicode="&#xb9;" horiz-adv-x="299" 
d="M138 312v338l-105 -45v73l168 72h10v-438h-73z" />
    <glyph glyph-name="uni00B2" unicode="&#xb2;" horiz-adv-x="378" 
d="M333 380v-68h-306c190 209 214 248 214 300c0 34 -25 69 -79 69c-41 0 -79 -22 -104 -50v78c29 25 75 41 119 41c83 0 143 -50 143 -131c0 -68 -47 -126 -153 -239h166z" />
    <glyph glyph-name="uni00B3" unicode="&#xb3;" horiz-adv-x="376" 
d="M59 712c26 21 71 38 118 38c87 0 138 -52 138 -115c0 -48 -27 -78 -63 -97v-1c45 -17 79 -52 79 -105c0 -66 -56 -126 -155 -126c-52 0 -99 18 -130 43v78c30 -33 76 -56 129 -56c47 0 83 23 83 64c0 45 -40 66 -104 66h-58v62h56c65 0 90 32 90 63c0 32 -28 58 -71 58
c-44 1 -84 -17 -112 -44v72z" />
    <glyph glyph-name="onequarter" unicode="&#xbc;" horiz-adv-x="866" 
d="M146 312v338l-105 -45v73l168 72h10v-438h-73zM626 744h75l-490 -744h-75zM824 162v-63h-65v-99h-66v99h-220v46l221 287h65v-270h65zM556 162h137v176z" />
    <glyph glyph-name="onehalf" unicode="&#xbd;" horiz-adv-x="910" 
d="M146 312v338l-105 -45v73l168 72h10v-438h-73zM136 0l490 744h75l-490 -744h-75zM861 68v-68h-306c190 209 214 248 214 300c0 34 -25 69 -79 69c-41 0 -79 -22 -104 -50v78c29 25 75 41 119 41c83 0 143 -50 143 -131c0 -68 -47 -126 -153 -239h166z" />
    <glyph glyph-name="threequarters" unicode="&#xbe;" horiz-adv-x="938" 
d="M340 432c0 -66 -56 -126 -155 -126c-52 0 -99 18 -130 43v78c30 -33 76 -56 129 -56c47 0 83 23 83 64c0 45 -40 66 -104 66h-58v62h56c65 0 90 32 90 63c0 32 -28 58 -71 58c-44 1 -84 -17 -112 -44v72c26 21 71 38 118 38c87 0 138 -52 138 -115c0 -48 -27 -78 -63 -97
v-1c45 -17 79 -52 79 -105zM698 744h75l-490 -744h-75zM896 162v-63h-65v-99h-66v99h-220v46l221 287h65v-270h65zM628 162h137v176z" />
    <glyph glyph-name="dollar" unicode="$" horiz-adv-x="556" 
d="M508 214c0 -94 -74 -179 -188 -200v-86h-82v82c-75 5 -132 30 -175 60v109c47 -53 126 -83 196 -83c86 0 154 48 154 121c0 71 -70 96 -148 124c-98 35 -200 74 -200 201c0 92 68 167 173 186v86h82v-82c55 -5 108 -22 144 -43v-99c-34 27 -100 55 -168 55
c-85 0 -137 -46 -137 -105c0 -68 68 -93 145 -120c99 -34 204 -73 204 -206z" />
    <glyph glyph-name="cent" unicode="&#xa2;" horiz-adv-x="549" 
d="M332 465c-91 0 -180 -68 -180 -185c0 -118 89 -186 184 -186c43 0 95 10 141 43v-91c-34 -18 -75 -30 -123 -34v-91h-69v93c-132 19 -227 125 -227 266s96 247 228 265v103h70v-101c46 -4 89 -16 121 -36v-90c-46 32 -94 44 -145 44z" />
    <glyph glyph-name="sterling" unicode="&#xa3;" horiz-adv-x="578" 
d="M167 84h345v-84h-475c45 66 90 154 115 307l2 10h-88v73h100l20 126c26 161 98 243 229 243c39 0 74 -11 94 -21v-88c-24 14 -58 25 -90 25c-75 0 -126 -39 -146 -168l-19 -117h176v-73h-188l-2 -13c-14 -89 -33 -149 -73 -220z" />
    <glyph glyph-name="currency" unicode="&#xa4;" horiz-adv-x="657" 
d="M526 626l57 -56l-74 -74c24 -35 38 -77 38 -123c0 -47 -15 -90 -39 -125l75 -75l-56 -56l-74 75c-35 -24 -78 -38 -124 -38c-47 0 -90 14 -124 38l-75 -75l-56 56l75 75c-25 35 -40 78 -40 125c0 46 14 89 38 124l-73 73l57 56l73 -74c35 25 78 39 125 39
c46 0 89 -14 123 -39zM329 226c81 0 145 65 145 147c0 81 -64 146 -145 146c-83 0 -147 -65 -147 -146c0 -82 64 -147 147 -147z" />
    <glyph glyph-name="yen" unicode="&#xa5;" horiz-adv-x="700" 
d="M668 744l-249 -368h156v-68h-178v-68h178v-69h-178v-171h-92v171h-178v69h178v68h-178v68h155l-251 368h105l215 -318h2l213 318h102z" />
    <glyph glyph-name="Euro" unicode="&#x20ac;" horiz-adv-x="662" 
d="M480 670c-125 0 -216 -78 -250 -193h269v-69h-282c-1 -12 -2 -24 -2 -37c0 -11 0 -22 1 -32h283v-69h-271c32 -119 124 -197 252 -197c42 0 80 11 115 28v-92c-32 -16 -76 -24 -125 -24c-168 0 -296 119 -333 285h-87v69h77c-1 11 -1 21 -1 32c0 12 0 25 1 37h-77v69h88
c39 163 166 282 332 282c49 0 93 -8 125 -24v-93c-35 18 -73 28 -115 28z" />
    <glyph glyph-name="florin" unicode="&#x192;" horiz-adv-x="460" 
d="M391 722c-87 0 -109 -55 -118 -112l-10 -69h141v-80h-153l-73 -482c-18 -118 -63 -201 -201 -201c-16 0 -34 2 -50 4v80c14 -2 27 -3 40 -3c80 0 112 59 122 124l71 478h-79v80h91l11 75c17 118 68 189 199 189c16 0 41 -2 54 -6v-82c-10 2 -32 5 -45 5z" />
    <glyph glyph-name="uni20B9" unicode="&#x20b9;" horiz-adv-x="650" 
d="M595 744v-71h-170c34 -32 56 -73 63 -120h107v-71h-108c-17 -99 -100 -170 -248 -179l283 -303h-120l-343 373h154c106 0 166 44 181 109h-331v71h332c-15 69 -73 111 -174 111h-158v80h532z" />
    <glyph glyph-name="uni20BD" unicode="&#x20bd;" horiz-adv-x="665" 
d="M344 269h-97v-85h145v-71h-145v-113h-93v113h-94v71h94v85h-94v77h94v398h190c173 0 279 -92 279 -238s-106 -237 -279 -237zM247 660v-314h96c114 0 186 58 186 157c0 100 -72 157 -186 157h-96z" />
    <glyph glyph-name="uni20BA" unicode="&#x20ba;" horiz-adv-x="679" 
d="M636 362c12 -215 -113 -362 -323 -362h-151v225l-98 -57v83l98 57v77l-98 -56v82l98 57v276h93v-222l184 106v-83l-184 -106v-77l184 106v-83l-184 -106v-192h36c156 0 259 93 251 275h94z" />
    <glyph glyph-name="percent" unicode="%" horiz-adv-x="887" 
d="M226 380c-104 0 -184 79 -184 190c0 110 80 189 184 189c103 0 181 -79 181 -189s-78 -190 -181 -190zM154 0l490 744h88l-489 -744h-89zM226 449c54 0 108 45 108 121c0 77 -54 120 -108 120c-56 0 -110 -43 -110 -120c0 -76 54 -121 110 -121zM662 -15
c-104 0 -183 79 -183 189c0 111 79 190 183 190s182 -79 182 -190c0 -109 -78 -189 -182 -189zM662 54c55 0 109 44 109 120c0 77 -54 121 -109 121s-109 -44 -109 -121c0 -76 54 -120 109 -120z" />
    <glyph glyph-name="perthousand" unicode="&#x2030;" horiz-adv-x="1300" 
d="M407 570c0 -110 -78 -190 -181 -190c-104 0 -184 79 -184 190c0 110 80 189 184 189c103 0 181 -79 181 -189zM154 0l490 744h88l-489 -744h-89zM334 570c0 77 -54 120 -108 120c-56 0 -110 -43 -110 -120c0 -76 54 -121 110 -121c54 0 108 45 108 121zM844 174
c0 -109 -78 -189 -182 -189s-183 79 -183 189c0 111 79 190 183 190s182 -79 182 -190zM1262 174c0 -109 -78 -189 -182 -189s-183 79 -183 189c0 111 79 190 183 190s182 -79 182 -190zM771 174c0 77 -54 121 -109 121s-109 -44 -109 -121c0 -76 54 -120 109 -120
s109 44 109 120zM1189 174c0 77 -54 121 -109 121s-109 -44 -109 -121c0 -76 54 -120 109 -120s109 44 109 120z" />
    <glyph glyph-name="plus" unicode="+" horiz-adv-x="679" 
d="M379 658v-246h247v-81h-247v-247h-84v247h-241v81h241v246h84z" />
    <glyph glyph-name="minus" unicode="&#x2212;" horiz-adv-x="691" 
d="M80 331v81h531v-81h-531z" />
    <glyph glyph-name="plusminus" unicode="&#xb1;" horiz-adv-x="714" 
d="M396 656v-221h243v-80h-243v-225h-84v225h-237v80h237v221h84zM639 80v-80h-564v80h564z" />
    <glyph glyph-name="divide" unicode="&#xf7;" horiz-adv-x="696" 
d="M347 492c-35 0 -62 27 -62 62c0 36 27 63 62 63c36 0 62 -27 62 -63c0 -35 -26 -62 -62 -62zM75 331v81h545v-81h-545zM347 126c-35 0 -62 27 -62 63c0 35 27 62 62 62c36 0 62 -27 62 -62c0 -36 -26 -63 -62 -63z" />
    <glyph glyph-name="multiply" unicode="&#xd7;" horiz-adv-x="650" 
d="M578 569l-197 -197l197 -198l-55 -56l-198 198l-197 -198l-56 56l197 198l-197 197l56 56l197 -197l197 197z" />
    <glyph glyph-name="equal" unicode="=" horiz-adv-x="691" 
d="M80 419v81h531v-81h-531zM80 242v81h531v-81h-531z" />
    <glyph glyph-name="less" unicode="&#x3c;" horiz-adv-x="661" 
d="M574 541v92l-523 -217v-91l523 -215v92l-418 169z" />
    <glyph glyph-name="greater" unicode="&#x3e;" horiz-adv-x="661" 
d="M87 541l418 -170l-418 -169v-92l523 215v91l-523 217v-92z" />
    <glyph glyph-name="lessequal" unicode="&#x2264;" horiz-adv-x="663" 
d="M591 551v92l-523 -217v-91l523 -215v92l-418 169zM68 0v77h522v-77h-522z" />
    <glyph glyph-name="greaterequal" unicode="&#x2265;" horiz-adv-x="663" 
d="M72 551l418 -170l-418 -169v-92l523 215v91l-523 217v-92zM74 0v77h522v-77h-522z" />
    <glyph glyph-name="approxequal" unicode="&#x2248;" horiz-adv-x="731" 
d="M653 555c-4 -124 -83 -160 -148 -160c-97 0 -183 76 -259 76c-39 0 -80 -20 -86 -74h-77c4 124 83 159 149 159c96 0 181 -76 258 -76c39 0 80 21 86 75h77zM653 347c-4 -124 -83 -160 -148 -160c-97 0 -183 76 -259 76c-39 0 -80 -20 -86 -74h-77c4 124 83 159 149 159
c96 0 181 -76 258 -76c39 0 80 21 86 75h77z" />
    <glyph glyph-name="notequal" unicode="&#x2260;" horiz-adv-x="691" 
d="M611 419h-188l-70 -96h258v-81h-318l-117 -159h-86l117 159h-127v81h187l70 96h-257v81h317l118 160h86l-118 -160h128v-81z" />
    <glyph glyph-name="logicalnot" unicode="&#xac;" horiz-adv-x="733" 
d="M566 84v247h-488v81h572v-328h-84z" />
    <glyph glyph-name="partialdiff" unicode="&#x2202;" horiz-adv-x="648" 
d="M318 805c179 0 278 -141 278 -336c0 -36 -3 -81 -9 -127c-25 -186 -124 -352 -306 -352c-134 0 -232 91 -232 245c0 178 125 313 309 313c60 0 110 -14 145 -31c-9 123 -77 204 -197 204c-45 0 -89 -11 -121 -28v84c36 18 85 28 133 28zM288 74c103 0 182 94 206 267
c5 35 8 68 9 95c-33 17 -76 31 -129 31c-146 0 -232 -106 -232 -227c0 -104 62 -166 146 -166z" />
    <glyph glyph-name="product" unicode="&#x220f;" horiz-adv-x="710" 
d="M86 744h539v-954h-93v871h-354v-871h-92v954z" />
    <glyph glyph-name="summation" unicode="&#x2211;" horiz-adv-x="648" 
d="M589 744v-84h-394l248 -393l-248 -393h396v-84h-557l299 476l-299 478h555z" />
    <glyph glyph-name="radical" unicode="&#x221a;" horiz-adv-x="677" 
d="M156 259l-123 -45l-20 66l198 77l133 -389h1l232 957h85l-268 -1094h-86z" />
    <glyph glyph-name="infinity" unicode="&#x221e;" horiz-adv-x="723" 
d="M512 524c81 0 145 -67 145 -152c0 -84 -64 -150 -145 -150c-68 0 -113 45 -150 95c-38 -50 -83 -95 -151 -95c-82 0 -146 66 -146 150c0 85 64 152 146 152c68 0 113 -45 151 -95c37 50 82 95 150 95zM219 295c41 0 72 35 103 78c-31 43 -62 78 -103 78
c-42 0 -74 -35 -74 -79c0 -43 32 -77 74 -77zM504 295c41 0 73 34 73 77c0 44 -32 79 -73 79s-72 -35 -103 -78c31 -43 62 -78 103 -78z" />
    <glyph glyph-name="integral" unicode="&#x222b;" horiz-adv-x="503" 
d="M481 779v-83c-29 16 -55 25 -86 25c-60 0 -96 -40 -96 -96v-670c0 -120 -86 -174 -172 -174c-45 0 -82 13 -105 26v83c30 -16 55 -25 86 -25c60 0 96 40 96 96v670c0 120 86 174 172 174c45 0 82 -13 105 -26z" />
    <glyph glyph-name="asciicircum" unicode="^" horiz-adv-x="572" 
d="M522 249h-92l-144 370l-146 -370h-90l199 495h74z" />
    <glyph glyph-name="asciitilde" unicode="~" horiz-adv-x="730" 
d="M653 451c-4 -124 -83 -160 -148 -160c-97 0 -183 76 -259 76c-39 0 -80 -20 -86 -74h-77c4 124 83 159 149 159c96 0 181 -76 258 -76c39 0 80 21 86 75h77z" />
    <glyph glyph-name="degree" unicode="&#xb0;" horiz-adv-x="433" 
d="M217 428c-94 0 -166 72 -166 165s72 166 166 166s166 -73 166 -166s-72 -165 -166 -165zM217 698c-58 0 -103 -46 -103 -105c0 -58 45 -104 103 -104s103 46 103 104c0 59 -45 105 -103 105z" />
    <glyph glyph-name="uni2206" unicode="&#x2206;" horiz-adv-x="687" 
d="M1 0l290 744h106l290 -744h-686zM129 83h429l-214 559z" />
    <glyph glyph-name="uni2126" unicode="&#x2126;" horiz-adv-x="861" 
d="M633 80h175v-80h-305v68c97 55 189 171 189 318c1 168 -109 285 -262 285c-154 0 -262 -117 -261 -285c0 -147 92 -263 189 -318v-68h-305v80h176c-84 60 -156 169 -157 317c-1 212 149 362 358 362s358 -150 358 -362c0 -148 -72 -257 -155 -317z" />
    <glyph glyph-name="pi" unicode="&#x3c0;" horiz-adv-x="711" 
d="M626 74c13 0 26 2 37 5v-79c-13 -5 -37 -7 -58 -7c-108 0 -160 64 -160 184v283h-208v-460h-92v460h-125v81h642v-81h-126v-276c0 -78 23 -110 90 -110z" />
    <glyph glyph-name="uni00B5" unicode="&#xb5;" horiz-adv-x="642" 
d="M581 73c8 0 16 1 22 2v-78c-9 -2 -25 -4 -39 -4c-59 0 -99 29 -114 83c-26 -48 -82 -86 -148 -86c-59 0 -110 26 -137 69l12 -269h-93v751h92v-330c0 -84 50 -134 130 -134c79 0 130 45 130 138v326h92v-409c0 -44 17 -59 53 -59z" />
    <glyph glyph-name="lozenge" unicode="&#x25ca;" horiz-adv-x="625" 
d="M583 371l-228 -386h-84l-230 386l228 388h85zM482 371l-169 289h-2l-168 -289l169 -286h1z" />
    <glyph glyph-name="arrowup" unicode="&#x2191;" horiz-adv-x="765" 
d="M719 428v-116l-291 275l1 -587h-93l1 587l-290 -275v116l336 316z" />
    <glyph glyph-name="uni2197" unicode="&#x2197;" horiz-adv-x="765" 
d="M83 155l428 428h-412l81 85h481v-479l-85 -82v410l-427 -427z" />
    <glyph glyph-name="arrowright" unicode="&#x2192;" horiz-adv-x="765" 
d="M428 36h-116l275 291l-587 -1v93l587 -1l-275 290h116l316 -336z" />
    <glyph glyph-name="uni2198" unicode="&#x2198;" horiz-adv-x="765" 
d="M83 591l66 65l427 -427v410l85 -82v-479h-481l-81 85h412z" />
    <glyph glyph-name="arrowdown" unicode="&#x2193;" horiz-adv-x="765" 
d="M719 316l-336 -316l-336 316v116l290 -275l-1 587h93l-1 -587l291 275v-116z" />
    <glyph glyph-name="uni2199" unicode="&#x2199;" horiz-adv-x="765" 
d="M682 591l-428 -428h412l-81 -85h-481v479l85 82v-410l427 427z" />
    <glyph glyph-name="arrowleft" unicode="&#x2190;" horiz-adv-x="765" 
d="M337 709h116l-275 -291l587 1v-93l-587 1l275 -290h-116l-316 336z" />
    <glyph glyph-name="uni2196" unicode="&#x2196;" horiz-adv-x="765" 
d="M682 155l-66 -65l-427 427v-410l-85 82v479h481l81 -85h-412z" />
    <glyph glyph-name="grave" unicode="`" horiz-adv-x="637" 
d="M293 791l116 -168h-77l-138 168h99z" />
    <glyph glyph-name="acute" unicode="&#xb4;" horiz-adv-x="637" 
d="M344 791h99l-139 -168h-76z" />
    <glyph glyph-name="circumflex" unicode="&#x2c6;" horiz-adv-x="637" 
d="M352 791l135 -168h-88l-81 107l-82 -107h-86l133 168h69z" />
    <glyph glyph-name="caron" unicode="&#x2c7;" horiz-adv-x="637" 
d="M487 791l-135 -168h-67l-135 168h88l81 -107l81 107h87z" />
    <glyph glyph-name="tilde" unicode="&#x2dc;" horiz-adv-x="637" 
d="M512 758c5 -88 -51 -123 -108 -123c-72 0 -96 60 -150 60c-37 0 -51 -31 -50 -57h-64c-5 88 51 123 108 123c72 0 96 -61 150 -61c37 0 51 31 50 58h64z" />
    <glyph glyph-name="dieresis" unicode="&#xa8;" horiz-adv-x="637" 
d="M215 645c-29 0 -53 24 -53 53s24 52 53 52c30 0 55 -23 55 -52s-25 -53 -55 -53zM421 645c-30 0 -54 24 -54 53s24 52 54 52s53 -23 53 -52s-23 -53 -53 -53z" />
    <glyph glyph-name="ring" unicode="&#x2da;" horiz-adv-x="637" 
d="M318 821c59 0 106 -43 106 -99s-47 -100 -106 -100s-106 44 -106 100s47 99 106 99zM318 773c-31 0 -53 -22 -53 -51s22 -52 53 -52s53 23 53 52s-22 51 -53 51z" />
    <glyph glyph-name="macron" unicode="&#xaf;" horiz-adv-x="637" 
d="M152 664v68h333v-68h-333z" />
    <glyph glyph-name="breve" unicode="&#x2d8;" horiz-adv-x="637" 
d="M483 788c3 -99 -81 -152 -164 -152s-168 53 -165 152h71c2 -47 35 -85 94 -85c58 0 92 38 93 85h71z" />
    <glyph glyph-name="dotaccent" unicode="&#x2d9;" horiz-adv-x="637" 
d="M318 645c-29 0 -54 24 -54 53s25 52 54 52c30 0 54 -23 54 -52s-24 -53 -54 -53z" />
    <glyph glyph-name="hungarumlaut" unicode="&#x2dd;" horiz-adv-x="637" 
d="M377 791l-172 -168h-80l149 168h103zM550 791l-172 -168h-79l148 168h103z" />
    <glyph glyph-name="cedilla" unicode="&#xb8;" horiz-adv-x="637" 
d="M219 -171c47 56 86 110 86 190h77c0 -82 -26 -140 -67 -190h-96z" />
    <glyph glyph-name="ogonek" unicode="&#x2db;" horiz-adv-x="637" 
d="M397 0c-61 -32 -99 -68 -99 -103c0 -36 29 -56 64 -56c12 0 30 3 35 6v-61c-5 -3 -26 -8 -48 -8c-68 0 -125 37 -125 104c0 55 37 108 129 159z" />
    <glyph glyph-name="caron.alt" horiz-adv-x="290" 
d="M101 605c4 26 12 57 12 108c0 34 -5 60 -13 87h85c3 -17 6 -37 6 -57c0 -34 -3 -73 -28 -138h-62z" />
    <glyph glyph-name="gravecomb" unicode="&#x300;" horiz-adv-x="0" 
d="M-36 791l116 -168h-77l-138 168h99z" />
    <glyph glyph-name="acutecomb" unicode="&#x301;" horiz-adv-x="0" 
d="M39 791h99l-139 -168h-76z" />
    <glyph glyph-name="uni0302" unicode="&#x302;" horiz-adv-x="0" 
d="M34 791l135 -168h-88l-81 107l-82 -107h-86l133 168h69z" />
    <glyph glyph-name="uni030C" unicode="&#x30c;" horiz-adv-x="0" 
d="M168 791l-135 -168h-67l-135 168h88l81 -107l81 107h87z" />
    <glyph glyph-name="tildecomb" unicode="&#x303;" horiz-adv-x="0" 
d="M186 758c5 -88 -51 -123 -108 -123c-72 0 -96 60 -150 60c-37 0 -51 -31 -50 -57h-64c-5 88 51 123 108 123c72 0 96 -61 150 -61c37 0 51 31 50 58h64z" />
    <glyph glyph-name="uni0308" unicode="&#x308;" horiz-adv-x="0" 
d="M-103 645c-29 0 -53 24 -53 53s24 52 53 52c30 0 55 -23 55 -52s-25 -53 -55 -53zM103 645c-30 0 -54 24 -54 53s24 52 54 52s53 -23 53 -52s-23 -53 -53 -53z" />
    <glyph glyph-name="uni030A" unicode="&#x30a;" horiz-adv-x="0" 
d="M0 821c59 0 106 -43 106 -99s-47 -100 -106 -100s-106 44 -106 100s47 99 106 99zM0 773c-31 0 -53 -22 -53 -51s22 -52 53 -52s53 23 53 52s-22 51 -53 51z" />
    <glyph glyph-name="uni0304" unicode="&#x304;" horiz-adv-x="0" 
d="M-167 664v68h333v-68h-333z" />
    <glyph glyph-name="uni0306" unicode="&#x306;" horiz-adv-x="0" 
d="M164 788c3 -99 -81 -152 -164 -152s-168 53 -165 152h71c2 -47 35 -85 94 -85c58 0 92 38 93 85h71z" />
    <glyph glyph-name="uni0307" unicode="&#x307;" horiz-adv-x="0" 
d="M-1 645c-29 0 -54 24 -54 53s25 52 54 52c30 0 54 -23 54 -52s-24 -53 -54 -53z" />
    <glyph glyph-name="uni030B" unicode="&#x30b;" horiz-adv-x="0" 
d="M91 791l-172 -168h-80l149 168h103zM264 791l-172 -168h-79l148 168h103z" />
    <glyph glyph-name="uni0327" unicode="&#x327;" horiz-adv-x="0" 
d="M-123 -171c47 56 86 110 86 190h77c0 -82 -26 -140 -67 -190h-96z" />
    <glyph glyph-name="uni0328" unicode="&#x328;" horiz-adv-x="0" 
d="M0 0c-61 -32 -99 -68 -99 -103c0 -36 29 -56 64 -56c12 0 30 3 35 6v-61c-5 -3 -26 -8 -48 -8c-68 0 -125 37 -125 104c0 55 37 108 129 159z" />
    <glyph glyph-name="uni0326" unicode="&#x326;" horiz-adv-x="0" 
d="M41 -79c12 -65 -4 -136 -41 -202h-66c29 69 37 141 21 202h86z" />
    <glyph glyph-name="I.ss01" horiz-adv-x="433" 
d="M166 83v578h-119v83h339v-83h-124v-578h124v-83h-339v83h119z" />
    <glyph glyph-name="IJ.ss01" horiz-adv-x="955" 
d="M166 83v578h-119v83h339v-83h-124v-578h124v-83h-339v83h119zM860 744v-534c0 -132 -76 -222 -219 -222c-71 0 -129 31 -161 57v103c37 -41 96 -72 157 -72c81 0 128 50 128 132v448h-201v88h296z" />
    <glyph glyph-name="Iacute.ss01" horiz-adv-x="433" 
d="M253 994h99l-139 -168h-76zM166 83v578h-119v83h339v-83h-124v-578h124v-83h-339v83h119z" />
    <glyph glyph-name="Icircumflex.ss01" horiz-adv-x="433" 
d="M248 994l135 -168h-88l-81 107l-82 -107h-86l133 168h69zM166 83v578h-119v83h339v-83h-124v-578h124v-83h-339v83h119z" />
    <glyph glyph-name="Idieresis.ss01" horiz-adv-x="433" 
d="M111 848c-29 0 -53 24 -53 53s24 52 53 52c30 0 55 -23 55 -52s-25 -53 -55 -53zM317 848c-30 0 -54 24 -54 53s24 52 54 52s53 -23 53 -52s-23 -53 -53 -53zM166 83v578h-119v83h339v-83h-124v-578h124v-83h-339v83h119z" />
    <glyph glyph-name="Idotaccent.ss01" horiz-adv-x="433" 
d="M213 848c-29 0 -54 24 -54 53s25 52 54 52c30 0 54 -23 54 -52s-24 -53 -54 -53zM166 83v578h-119v83h339v-83h-124v-578h124v-83h-339v83h119z" />
    <glyph glyph-name="Igrave.ss01" horiz-adv-x="433" 
d="M178 994l116 -168h-77l-138 168h99zM166 83v578h-119v83h339v-83h-124v-578h124v-83h-339v83h119z" />
    <glyph glyph-name="Imacron.ss01" horiz-adv-x="433" 
d="M47 867v68h333v-68h-333zM166 83v578h-119v83h339v-83h-124v-578h124v-83h-339v83h119z" />
    <glyph glyph-name="Iogonek.ss01" horiz-adv-x="433" 
d="M386 661h-124v-578h124v-83h-54c-61 -32 -99 -68 -99 -103c0 -36 29 -56 64 -56c12 0 30 3 35 6v-61c-5 -3 -26 -8 -48 -8c-68 0 -125 37 -125 104c0 40 20 80 67 118h-179v83h119v578h-119v83h339v-83z" />
    <glyph glyph-name="J.ss01" horiz-adv-x="505" 
d="M410 744v-534c0 -132 -76 -222 -219 -222c-71 0 -129 31 -161 57v103c37 -41 96 -72 157 -72c81 0 128 50 128 132v448h-201v88h296z" />
    <glyph glyph-name="kgreenlandic" unicode="&#x138;" horiz-adv-x="548" 
d="M541 0h-119l-246 275v-275h-92v541h92v-251l239 251h117l-249 -257z" />
    <glyph glyph-name="a.ss01" horiz-adv-x="571" 
d="M279 553c139 0 214 -82 214 -189v-364h-69l-12 85c-38 -62 -105 -97 -179 -97c-112 0 -191 72 -191 169c0 90 68 170 205 170c58 0 115 -15 156 -35v59c0 72 -46 120 -134 120c-69 0 -140 -29 -181 -64v88c45 34 114 58 191 58zM263 262c-93 0 -134 -47 -134 -100
c0 -57 49 -97 119 -97c81 0 155 56 155 138v22c-37 23 -89 37 -140 37z" />
    <glyph glyph-name="aacute.ss01" horiz-adv-x="571" 
d="M325 791h99l-139 -168h-76zM279 553c139 0 214 -82 214 -189v-364h-69l-12 85c-38 -62 -105 -97 -179 -97c-112 0 -191 72 -191 169c0 90 68 170 205 170c58 0 115 -15 156 -35v59c0 72 -46 120 -134 120c-69 0 -140 -29 -181 -64v88c45 34 114 58 191 58zM263 262
c-93 0 -134 -47 -134 -100c0 -57 49 -97 119 -97c81 0 155 56 155 138v22c-37 23 -89 37 -140 37z" />
    <glyph glyph-name="abreve.ss01" horiz-adv-x="571" 
d="M450 788c3 -99 -81 -152 -164 -152s-168 53 -165 152h71c2 -47 35 -85 94 -85c58 0 92 38 93 85h71zM279 553c139 0 214 -82 214 -189v-364h-69l-12 85c-38 -62 -105 -97 -179 -97c-112 0 -191 72 -191 169c0 90 68 170 205 170c58 0 115 -15 156 -35v59
c0 72 -46 120 -134 120c-69 0 -140 -29 -181 -64v88c45 34 114 58 191 58zM263 262c-93 0 -134 -47 -134 -100c0 -57 49 -97 119 -97c81 0 155 56 155 138v22c-37 23 -89 37 -140 37z" />
    <glyph glyph-name="acircumflex.ss01" horiz-adv-x="571" 
d="M320 791l135 -168h-88l-81 107l-82 -107h-86l133 168h69zM279 553c139 0 214 -82 214 -189v-364h-69l-12 85c-38 -62 -105 -97 -179 -97c-112 0 -191 72 -191 169c0 90 68 170 205 170c58 0 115 -15 156 -35v59c0 72 -46 120 -134 120c-69 0 -140 -29 -181 -64v88
c45 34 114 58 191 58zM263 262c-93 0 -134 -47 -134 -100c0 -57 49 -97 119 -97c81 0 155 56 155 138v22c-37 23 -89 37 -140 37z" />
    <glyph glyph-name="adieresis.ss01" horiz-adv-x="571" 
d="M183 645c-29 0 -53 24 -53 53s24 52 53 52c30 0 55 -23 55 -52s-25 -53 -55 -53zM389 645c-30 0 -54 24 -54 53s24 52 54 52s53 -23 53 -52s-23 -53 -53 -53zM279 553c139 0 214 -82 214 -189v-364h-69l-12 85c-38 -62 -105 -97 -179 -97c-112 0 -191 72 -191 169
c0 90 68 170 205 170c58 0 115 -15 156 -35v59c0 72 -46 120 -134 120c-69 0 -140 -29 -181 -64v88c45 34 114 58 191 58zM263 262c-93 0 -134 -47 -134 -100c0 -57 49 -97 119 -97c81 0 155 56 155 138v22c-37 23 -89 37 -140 37z" />
    <glyph glyph-name="agrave.ss01" horiz-adv-x="571" 
d="M250 791l116 -168h-77l-138 168h99zM279 553c139 0 214 -82 214 -189v-364h-69l-12 85c-38 -62 -105 -97 -179 -97c-112 0 -191 72 -191 169c0 90 68 170 205 170c58 0 115 -15 156 -35v59c0 72 -46 120 -134 120c-69 0 -140 -29 -181 -64v88c45 34 114 58 191 58z
M263 262c-93 0 -134 -47 -134 -100c0 -57 49 -97 119 -97c81 0 155 56 155 138v22c-37 23 -89 37 -140 37z" />
    <glyph glyph-name="amacron.ss01" horiz-adv-x="571" 
d="M119 664v68h333v-68h-333zM279 553c139 0 214 -82 214 -189v-364h-69l-12 85c-38 -62 -105 -97 -179 -97c-112 0 -191 72 -191 169c0 90 68 170 205 170c58 0 115 -15 156 -35v59c0 72 -46 120 -134 120c-69 0 -140 -29 -181 -64v88c45 34 114 58 191 58zM263 262
c-93 0 -134 -47 -134 -100c0 -57 49 -97 119 -97c81 0 155 56 155 138v22c-37 23 -89 37 -140 37z" />
    <glyph glyph-name="aogonek.ss01" horiz-adv-x="571" 
d="M493 0c-61 -32 -99 -68 -99 -103c0 -36 29 -56 64 -56c12 0 30 3 35 6v-61c-5 -3 -26 -8 -48 -8c-68 0 -125 37 -125 104c0 49 29 96 101 142l-9 61c-38 -62 -105 -97 -179 -97c-112 0 -191 72 -191 169c0 90 68 170 205 170c58 0 115 -15 156 -35v59
c0 72 -46 120 -134 120c-69 0 -140 -29 -181 -64v88c45 34 114 58 191 58c139 0 214 -82 214 -189v-364zM403 203v22c-37 23 -89 37 -140 37c-93 0 -134 -47 -134 -100c0 -57 49 -97 119 -97c81 0 155 56 155 138z" />
    <glyph glyph-name="aring.ss01" horiz-adv-x="571" 
d="M286 821c59 0 106 -43 106 -99s-47 -100 -106 -100s-106 44 -106 100s47 99 106 99zM286 773c-31 0 -53 -22 -53 -51s22 -52 53 -52s53 23 53 52s-22 51 -53 51zM279 553c139 0 214 -82 214 -189v-364h-69l-12 85c-38 -62 -105 -97 -179 -97c-112 0 -191 72 -191 169
c0 90 68 170 205 170c58 0 115 -15 156 -35v59c0 72 -46 120 -134 120c-69 0 -140 -29 -181 -64v88c45 34 114 58 191 58zM263 262c-93 0 -134 -47 -134 -100c0 -57 49 -97 119 -97c81 0 155 56 155 138v22c-37 23 -89 37 -140 37z" />
    <glyph glyph-name="atilde.ss01" horiz-adv-x="571" 
d="M472 758c5 -88 -51 -123 -108 -123c-72 0 -96 60 -150 60c-37 0 -51 -31 -50 -57h-64c-5 88 51 123 108 123c72 0 96 -61 150 -61c37 0 51 31 50 58h64zM279 553c139 0 214 -82 214 -189v-364h-69l-12 85c-38 -62 -105 -97 -179 -97c-112 0 -191 72 -191 169
c0 90 68 170 205 170c58 0 115 -15 156 -35v59c0 72 -46 120 -134 120c-69 0 -140 -29 -181 -64v88c45 34 114 58 191 58zM263 262c-93 0 -134 -47 -134 -100c0 -57 49 -97 119 -97c81 0 155 56 155 138v22c-37 23 -89 37 -140 37z" />
    <glyph glyph-name="g.ss01" horiz-adv-x="591" 
d="M381 104c106 0 172 -67 172 -146c0 -102 -105 -180 -267 -180c-159 0 -260 64 -260 162c0 53 32 97 80 121c-21 19 -33 45 -33 75c0 42 24 80 65 102c-39 32 -62 78 -62 133c0 106 85 182 211 182c30 0 57 -4 82 -12h182v-77h-78c17 -27 26 -58 26 -93
c0 -106 -86 -181 -212 -181c-31 0 -59 4 -84 13c-24 -6 -44 -26 -44 -50c0 -19 13 -49 65 -49h157zM287 483c-74 0 -126 -48 -126 -113c0 -64 52 -110 126 -110s127 46 127 112c0 64 -53 111 -127 111zM288 -147c107 0 176 43 176 99c0 41 -39 73 -97 73h-162
c-8 0 -16 1 -24 2c-41 -12 -66 -43 -66 -76c0 -63 75 -98 173 -98z" />
    <glyph glyph-name="gbreve.ss01" horiz-adv-x="591" 
d="M299 636c-83 0 -168 53 -165 152h71c2 -47 35 -85 94 -85c58 0 92 38 93 85h71c3 -99 -81 -152 -164 -152zM381 104c106 0 172 -67 172 -146c0 -102 -105 -180 -267 -180c-159 0 -260 64 -260 162c0 53 32 97 80 121c-21 19 -33 45 -33 75c0 42 24 80 65 102
c-39 32 -62 78 -62 133c0 106 85 182 211 182c30 0 57 -4 82 -12h182v-77h-78c17 -27 26 -58 26 -93c0 -106 -86 -181 -212 -181c-31 0 -59 4 -84 13c-24 -6 -44 -26 -44 -50c0 -19 13 -49 65 -49h157zM287 483c-74 0 -126 -48 -126 -113c0 -64 52 -110 126 -110
s127 46 127 112c0 64 -53 111 -127 111zM288 -147c107 0 176 43 176 99c0 41 -39 73 -97 73h-162c-8 0 -16 1 -24 2c-41 -12 -66 -43 -66 -76c0 -63 75 -98 173 -98z" />
    <glyph glyph-name="gcommaaccent.ss01" horiz-adv-x="591" 
d="M344 620h-86c-12 65 4 136 41 202h66c-29 -69 -37 -141 -21 -202zM381 104c106 0 172 -67 172 -146c0 -102 -105 -180 -267 -180c-159 0 -260 64 -260 162c0 53 32 97 80 121c-21 19 -33 45 -33 75c0 42 24 80 65 102c-39 32 -62 78 -62 133c0 106 85 182 211 182
c30 0 57 -4 82 -12h182v-77h-78c17 -27 26 -58 26 -93c0 -106 -86 -181 -212 -181c-31 0 -59 4 -84 13c-24 -6 -44 -26 -44 -50c0 -19 13 -49 65 -49h157zM287 483c-74 0 -126 -48 -126 -113c0 -64 52 -110 126 -110s127 46 127 112c0 64 -53 111 -127 111zM288 -147
c107 0 176 43 176 99c0 41 -39 73 -97 73h-162c-8 0 -16 1 -24 2c-41 -12 -66 -43 -66 -76c0 -63 75 -98 173 -98z" />
    <glyph glyph-name="gdotaccent.ss01" horiz-adv-x="591" 
d="M298 645c-29 0 -54 24 -54 53s25 52 54 52c30 0 54 -23 54 -52s-24 -53 -54 -53zM381 104c106 0 172 -67 172 -146c0 -102 -105 -180 -267 -180c-159 0 -260 64 -260 162c0 53 32 97 80 121c-21 19 -33 45 -33 75c0 42 24 80 65 102c-39 32 -62 78 -62 133
c0 106 85 182 211 182c30 0 57 -4 82 -12h182v-77h-78c17 -27 26 -58 26 -93c0 -106 -86 -181 -212 -181c-31 0 -59 4 -84 13c-24 -6 -44 -26 -44 -50c0 -19 13 -49 65 -49h157zM287 483c-74 0 -126 -48 -126 -113c0 -64 52 -110 126 -110s127 46 127 112
c0 64 -53 111 -127 111zM288 -147c107 0 176 43 176 99c0 41 -39 73 -97 73h-162c-8 0 -16 1 -24 2c-41 -12 -66 -43 -66 -76c0 -63 75 -98 173 -98z" />
    <glyph glyph-name="l.ss01" horiz-adv-x="310" 
d="M171 800v-638c0 -56 27 -82 83 -82c11 0 24 0 37 3v-82c-8 -2 -30 -6 -53 -6c-107 0 -159 72 -159 149v656h92z" />
    <glyph glyph-name="lacute.ss01" horiz-adv-x="309" 
d="M164 1050h99l-139 -168h-76zM171 800v-638c0 -56 27 -82 83 -82c11 0 24 0 37 3v-82c-8 -2 -30 -6 -53 -6c-107 0 -159 72 -159 149v656h92z" />
    <glyph glyph-name="lcaron.ss01" horiz-adv-x="324" 
d="M171 800v-638c0 -56 27 -82 83 -82c11 0 24 0 37 3v-82c-8 -2 -30 -6 -53 -6c-107 0 -159 72 -159 149v656h92zM249 605c4 26 12 57 12 108c0 34 -5 60 -13 87h85c3 -17 6 -37 6 -57c0 -34 -3 -73 -28 -138h-62z" />
    <glyph glyph-name="lcommaaccent.ss01" horiz-adv-x="309" 
d="M171 800v-638c0 -56 27 -82 83 -82c11 0 24 0 37 3v-82c-8 -2 -30 -6 -53 -6c-107 0 -159 72 -159 149v656h92zM221 -79c12 -65 -4 -136 -41 -202h-66c29 69 37 141 21 202h86z" />
    <glyph glyph-name="lslash.ss01" horiz-adv-x="421" 
d="M372 463l-127 -74v-227c0 -56 27 -82 83 -82c11 0 24 0 37 3v-82c-8 -2 -30 -6 -53 -6c-107 0 -159 72 -159 149v191l-117 -68v91l117 68v374h92v-321l127 74v-90z" />
    <glyph glyph-name="fl.ss01" horiz-adv-x="693" 
d="M113 0v461h-78v80h78v81c0 107 74 183 184 183c31 0 62 -6 90 -15v-85c-19 8 -52 14 -79 14c-67 0 -104 -33 -104 -109v-69h156v-80h-155v-461h-92zM554 800v-638c0 -56 27 -82 83 -82c11 0 24 0 37 3v-82c-8 -2 -30 -6 -53 -6c-107 0 -159 72 -159 149v656h92z" />
    <glyph glyph-name="A.sc" horiz-adv-x="574" 
d="M460 0l-58 173h-230l-59 -173h-90l211 596h107l210 -596h-91zM197 247h180l-88 264h-2z" />
    <glyph glyph-name="Aacute.sc" horiz-adv-x="574" 
d="M426 846l-139 -168h-76l116 168h99zM460 0l-58 173h-230l-59 -173h-90l211 596h107l210 -596h-91zM197 247h180l-88 264h-2z" />
    <glyph glyph-name="Abreve.sc" horiz-adv-x="574" 
d="M288 691c-83 0 -168 53 -165 152h71c2 -47 35 -85 94 -85c58 0 92 38 93 85h71c3 -99 -81 -152 -164 -152zM460 0l-58 173h-230l-59 -173h-90l211 596h107l210 -596h-91zM197 247h180l-88 264h-2z" />
    <glyph glyph-name="Acircumflex.sc" horiz-adv-x="574" 
d="M288 785l-82 -107h-86l133 168h69l135 -168h-88zM460 0l-58 173h-230l-59 -173h-90l211 596h107l210 -596h-91zM197 247h180l-88 264h-2z" />
    <glyph glyph-name="Adieresis.sc" horiz-adv-x="574" 
d="M185 700c-29 0 -53 24 -53 53s24 52 53 52c30 0 55 -23 55 -52s-25 -53 -55 -53zM391 700c-30 0 -54 24 -54 53s24 52 54 52s53 -23 53 -52s-23 -53 -53 -53zM460 0l-58 173h-230l-59 -173h-90l211 596h107l210 -596h-91zM197 247h180l-88 264h-2z" />
    <glyph glyph-name="Agrave.sc" horiz-adv-x="574" 
d="M368 678h-77l-138 168h99zM460 0l-58 173h-230l-59 -173h-90l211 596h107l210 -596h-91zM197 247h180l-88 264h-2z" />
    <glyph glyph-name="Amacron.sc" horiz-adv-x="574" 
d="M454 787v-68h-333v68h333zM460 0l-58 173h-230l-59 -173h-90l211 596h107l210 -596h-91zM197 247h180l-88 264h-2z" />
    <glyph glyph-name="Aogonek.sc" horiz-adv-x="574" 
d="M452 -103c0 -36 29 -56 64 -56c12 0 30 3 35 6v-61c-5 -3 -26 -8 -48 -8c-68 0 -125 37 -125 104c0 44 23 86 79 127l-55 164h-230l-59 -173h-90l211 596h107l210 -596c-61 -32 -99 -68 -99 -103zM197 247h180l-88 264h-2z" />
    <glyph glyph-name="Aring.sc" horiz-adv-x="574" 
d="M288 677c-59 0 -106 44 -106 100s47 99 106 99s106 -43 106 -99s-47 -100 -106 -100zM288 828c-31 0 -53 -22 -53 -51s22 -52 53 -52s53 23 53 52s-22 51 -53 51zM460 0l-58 173h-230l-59 -173h-90l211 596h107l210 -596h-91zM197 247h180l-88 264h-2z" />
    <glyph glyph-name="Atilde.sc" horiz-adv-x="574" 
d="M166 693h-64c-5 88 51 123 108 123c72 0 96 -61 150 -61c37 0 51 31 50 58h64c5 -88 -51 -123 -108 -123c-72 0 -96 60 -150 60c-37 0 -51 -31 -50 -57zM460 0l-58 173h-230l-59 -173h-90l211 596h107l210 -596h-91zM197 247h180l-88 264h-2z" />
    <glyph glyph-name="AE.sc" horiz-adv-x="817" 
d="M751 515h-244v-176h226v-75h-226v-183h244v-81h-333v172h-217l-109 -172h-102l382 596h379v-81zM248 247h170v266h-1z" />
    <glyph glyph-name="B.sc" horiz-adv-x="554" 
d="M394 307c70 -24 106 -71 106 -143c0 -99 -79 -164 -217 -164h-189v596h178c132 0 205 -59 205 -158c0 -61 -29 -107 -83 -131zM182 518v-181h94c70 -1 115 35 115 93c0 57 -42 88 -116 88h-93zM283 78c80 0 128 35 128 96c0 60 -46 93 -128 93h-101v-189h101z" />
    <glyph glyph-name="C.sc" horiz-adv-x="527" 
d="M479 15c-39 -18 -87 -25 -133 -25c-154 0 -291 117 -291 307s137 309 292 309c48 0 96 -10 132 -27v-87c-41 20 -78 29 -121 29c-125 0 -212 -92 -212 -224c0 -131 87 -222 212 -222c43 0 80 9 121 27v-87z" />
    <glyph glyph-name="Cacute.sc" horiz-adv-x="527" 
d="M370 846h99l-139 -168h-76zM479 15c-39 -18 -87 -25 -133 -25c-154 0 -291 117 -291 307s137 309 292 309c48 0 96 -10 132 -27v-87c-41 20 -78 29 -121 29c-125 0 -212 -92 -212 -224c0 -131 87 -222 212 -222c43 0 80 9 121 27v-87z" />
    <glyph glyph-name="Ccaron.sc" horiz-adv-x="527" 
d="M499 846l-135 -168h-67l-135 168h88l81 -107l81 107h87zM479 15c-39 -18 -87 -25 -133 -25c-154 0 -291 117 -291 307s137 309 292 309c48 0 96 -10 132 -27v-87c-41 20 -78 29 -121 29c-125 0 -212 -92 -212 -224c0 -131 87 -222 212 -222c43 0 80 9 121 27v-87z" />
    <glyph glyph-name="Ccedilla.sc" horiz-adv-x="527" 
d="M358 521c-125 0 -212 -92 -212 -224c0 -131 87 -222 212 -222c43 0 80 9 121 27v-87c-32 -15 -71 -22 -109 -24c-5 -68 -30 -118 -66 -162h-96c42 50 78 99 85 166c-131 23 -238 134 -238 302c0 190 137 309 292 309c48 0 96 -10 132 -27v-87c-41 20 -78 29 -121 29z" />
    <glyph glyph-name="Cdotaccent.sc" horiz-adv-x="527" 
d="M330 700c-29 0 -54 24 -54 53s25 52 54 52c30 0 54 -23 54 -52s-24 -53 -54 -53zM479 15c-39 -18 -87 -25 -133 -25c-154 0 -291 117 -291 307s137 309 292 309c48 0 96 -10 132 -27v-87c-41 20 -78 29 -121 29c-125 0 -212 -92 -212 -224c0 -131 87 -222 212 -222
c43 0 80 9 121 27v-87z" />
    <glyph glyph-name="D.sc" horiz-adv-x="614" 
d="M226 596c205 0 334 -120 334 -298s-129 -298 -334 -298h-132v596h132zM183 511v-426h47c142 0 238 76 238 213c0 136 -95 213 -238 213h-47z" />
    <glyph glyph-name="Eth.sc" horiz-adv-x="624" 
d="M236 596c205 0 334 -120 334 -298s-129 -298 -334 -298h-133v266h-77v66h77v264h133zM240 83c143 0 238 78 238 215s-95 215 -238 215h-48v-182h145v-64h-145v-184h48z" />
    <glyph glyph-name="Dcaron.sc" horiz-adv-x="614" 
d="M473 846l-135 -168h-67l-135 168h88l81 -107l81 107h87zM226 596c205 0 334 -120 334 -298s-129 -298 -334 -298h-132v596h132zM183 511v-426h47c142 0 238 76 238 213c0 136 -95 213 -238 213h-47z" />
    <glyph glyph-name="Dcroat.sc" horiz-adv-x="624" 
d="M236 596c205 0 334 -120 334 -298s-129 -298 -334 -298h-133v266h-77v66h77v264h133zM240 83c143 0 238 78 238 215s-95 215 -238 215h-48v-182h145v-64h-145v-184h48z" />
    <glyph glyph-name="E.sc" horiz-adv-x="495" 
d="M94 0v596h335v-81h-246v-175h227v-74h-227v-185h246v-81h-335z" />
    <glyph glyph-name="Eacute.sc" horiz-adv-x="495" 
d="M299 846h99l-139 -168h-76zM94 0v596h335v-81h-246v-175h227v-74h-227v-185h246v-81h-335z" />
    <glyph glyph-name="Ecaron.sc" horiz-adv-x="495" 
d="M428 846l-135 -168h-67l-135 168h88l81 -107l81 107h87zM94 0v596h335v-81h-246v-175h227v-74h-227v-185h246v-81h-335z" />
    <glyph glyph-name="Ecircumflex.sc" horiz-adv-x="495" 
d="M294 846l135 -168h-88l-81 107l-82 -107h-86l133 168h69zM94 0v596h335v-81h-246v-175h227v-74h-227v-185h246v-81h-335z" />
    <glyph glyph-name="Edieresis.sc" horiz-adv-x="495" 
d="M157 700c-29 0 -53 24 -53 53s24 52 53 52c30 0 55 -23 55 -52s-25 -53 -55 -53zM363 700c-30 0 -54 24 -54 53s24 52 54 52s53 -23 53 -52s-23 -53 -53 -53zM94 0v596h335v-81h-246v-175h227v-74h-227v-185h246v-81h-335z" />
    <glyph glyph-name="Edotaccent.sc" horiz-adv-x="495" 
d="M259 700c-29 0 -54 24 -54 53s25 52 54 52c30 0 54 -23 54 -52s-24 -53 -54 -53zM94 0v596h335v-81h-246v-175h227v-74h-227v-185h246v-81h-335z" />
    <glyph glyph-name="Egrave.sc" horiz-adv-x="495" 
d="M224 846l116 -168h-77l-138 168h99zM94 0v596h335v-81h-246v-175h227v-74h-227v-185h246v-81h-335z" />
    <glyph glyph-name="Emacron.sc" horiz-adv-x="495" 
d="M93 719v68h333v-68h-333zM94 0v596h335v-81h-246v-175h227v-74h-227v-185h246v-81h-335z" />
    <glyph glyph-name="Eogonek.sc" horiz-adv-x="495" 
d="M429 515h-246v-175h227v-74h-227v-185h246v-81c-61 -32 -99 -68 -99 -103c0 -36 29 -56 64 -56c12 0 30 3 35 6v-61c-5 -3 -26 -8 -48 -8c-68 0 -125 37 -125 104c0 40 20 80 67 118h-229v596h335v-81z" />
    <glyph glyph-name="F.sc" horiz-adv-x="476" 
d="M94 0v596h334v-85h-245v-187h225v-79h-225v-245h-89z" />
    <glyph glyph-name="G.sc" horiz-adv-x="588" 
d="M519 311v-291c-47 -19 -97 -30 -153 -30c-155 0 -312 102 -312 306c0 190 138 310 309 310c60 0 109 -13 148 -29v-86c-43 20 -92 30 -140 30c-131 0 -226 -92 -226 -225c0 -148 116 -221 220 -221c23 0 49 2 69 11v225h85z" />
    <glyph glyph-name="Gbreve.sc" horiz-adv-x="588" 
d="M504 843c3 -99 -81 -152 -164 -152s-168 53 -165 152h71c2 -47 35 -85 94 -85c58 0 92 38 93 85h71zM519 311v-291c-47 -19 -97 -30 -153 -30c-155 0 -312 102 -312 306c0 190 138 310 309 310c60 0 109 -13 148 -29v-86c-43 20 -92 30 -140 30
c-131 0 -226 -92 -226 -225c0 -148 116 -221 220 -221c23 0 49 2 69 11v225h85z" />
    <glyph glyph-name="Gcommaaccent.sc" horiz-adv-x="588" 
d="M519 311v-291c-47 -19 -97 -30 -153 -30c-155 0 -312 102 -312 306c0 190 138 310 309 310c60 0 109 -13 148 -29v-86c-43 20 -92 30 -140 30c-131 0 -226 -92 -226 -225c0 -148 116 -221 220 -221c23 0 49 2 69 11v225h85zM381 -79c12 -65 -4 -136 -41 -202h-66
c29 69 37 141 21 202h86z" />
    <glyph glyph-name="Gdotaccent.sc" horiz-adv-x="588" 
d="M339 700c-29 0 -54 24 -54 53s25 52 54 52c30 0 54 -23 54 -52s-24 -53 -54 -53zM519 311v-291c-47 -19 -97 -30 -153 -30c-155 0 -312 102 -312 306c0 190 138 310 309 310c60 0 109 -13 148 -29v-86c-43 20 -92 30 -140 30c-131 0 -226 -92 -226 -225
c0 -148 116 -221 220 -221c23 0 49 2 69 11v225h85z" />
    <glyph glyph-name="H.sc" horiz-adv-x="660" 
d="M477 0v258h-294v-258h-89v596h89v-253h294v253h89v-596h-89z" />
    <glyph glyph-name="Hbar.sc" horiz-adv-x="672" 
d="M642 497v-63h-71v-434h-89v258h-294v-258h-89v434h-69v63h69v99h89v-99h294v99h89v-99h71zM482 343v91h-294v-91h294z" />
    <glyph glyph-name="I.sc" horiz-adv-x="276" 
d="M94 0v596h89v-596h-89z" />
    <glyph glyph-name="IJ.sc" horiz-adv-x="660" 
d="M94 0v596h89v-596h-89zM312 93c22 -12 43 -18 69 -18c63 0 102 43 102 124v397h90v-403c0 -123 -71 -203 -183 -203c-29 0 -54 6 -78 17v86z" />
    <glyph glyph-name="Iacute.sc" horiz-adv-x="276" 
d="M177 846h99l-139 -168h-76zM94 0v596h89v-596h-89z" />
    <glyph glyph-name="Icircumflex.sc" horiz-adv-x="276" 
d="M172 846l135 -168h-88l-81 107l-82 -107h-86l133 168h69zM94 0v596h89v-596h-89z" />
    <glyph glyph-name="Idieresis.sc" horiz-adv-x="276" 
d="M35 700c-29 0 -53 24 -53 53s24 52 53 52c30 0 55 -23 55 -52s-25 -53 -55 -53zM241 700c-30 0 -54 24 -54 53s24 52 54 52s53 -23 53 -52s-23 -53 -53 -53zM94 0v596h89v-596h-89z" />
    <glyph glyph-name="Idotaccent.sc" horiz-adv-x="276" 
d="M137 700c-29 0 -54 24 -54 53s25 52 54 52c30 0 54 -23 54 -52s-24 -53 -54 -53zM94 0v596h89v-596h-89z" />
    <glyph glyph-name="Igrave.sc" horiz-adv-x="276" 
d="M102 846l116 -168h-77l-138 168h99zM94 0v596h89v-596h-89z" />
    <glyph glyph-name="Imacron.sc" horiz-adv-x="276" 
d="M-29 719v68h333v-68h-333zM94 0v596h89v-596h-89z" />
    <glyph glyph-name="Iogonek.sc" horiz-adv-x="277" 
d="M184 0c-61 -32 -99 -68 -99 -103c0 -36 29 -56 64 -56c12 0 30 3 35 6v-61c-5 -3 -26 -8 -48 -8c-68 0 -125 37 -125 104c0 45 25 89 84 131v583h89v-596z" />
    <glyph glyph-name="J.sc" horiz-adv-x="379" 
d="M31 93c22 -12 43 -18 69 -18c63 0 102 43 102 124v397h90v-403c0 -123 -71 -203 -183 -203c-29 0 -54 6 -78 17v86z" />
    <glyph glyph-name="K.sc" horiz-adv-x="545" 
d="M524 0h-106l-235 303v-303h-89v596h89v-278l236 278h104l-245 -285z" />
    <glyph glyph-name="Kcommaaccent.sc" horiz-adv-x="545" 
d="M278 311l246 -311h-106l-235 303v-303h-89v596h89v-278l236 278h104zM245 -79h86c12 -65 -4 -136 -41 -202h-66c29 69 37 141 21 202z" />
    <glyph glyph-name="L.sc" horiz-adv-x="472" 
d="M94 0v596h89v-511h259v-85h-348z" />
    <glyph glyph-name="Lacute.sc" horiz-adv-x="472" 
d="M177 846h99l-139 -168h-76zM94 0v596h89v-511h259v-85h-348z" />
    <glyph glyph-name="Lcaron.sc" horiz-adv-x="478" 
d="M94 0v596h89v-511h259v-85h-348zM260 401c4 26 12 57 12 108c0 34 -5 60 -13 87h85c3 -17 6 -37 6 -57c0 -34 -3 -73 -28 -138h-62z" />
    <glyph glyph-name="Lcommaaccent.sc" horiz-adv-x="472" 
d="M94 0v596h89v-511h259v-85h-348zM309 -79c12 -65 -4 -136 -41 -202h-66c29 69 37 141 21 202h86z" />
    <glyph glyph-name="Ldot.sc" horiz-adv-x="500" 
d="M94 0v596h89v-511h259v-85h-348zM375 255c-36 0 -62 27 -62 62c0 36 26 63 62 63c35 0 62 -27 62 -63c0 -35 -27 -62 -62 -62z" />
    <glyph glyph-name="Lslash.sc" horiz-adv-x="500" 
d="M211 85h259v-85h-348v223l-101 -61v79l101 62v293h89v-238l116 72v-82l-116 -71v-192z" />
    <glyph glyph-name="M.sc" horiz-adv-x="800" 
d="M205 478l-64 -478h-87l89 596h106l151 -475h2l150 475h107l87 -596h-86l-65 478h-2l-154 -478h-82l-150 478h-2z" />
    <glyph glyph-name="N.sc" horiz-adv-x="665" 
d="M572 596v-596h-89l-304 465v-465h-85v596h91l301 -463v463h86z" />
    <glyph glyph-name="Nacute.sc" horiz-adv-x="665" 
d="M384 846h99l-139 -168h-76zM572 596v-596h-89l-304 465v-465h-85v596h91l301 -463v463h86z" />
    <glyph glyph-name="Ncaron.sc" horiz-adv-x="665" 
d="M513 846l-135 -168h-67l-135 168h88l81 -107l81 107h87zM572 596v-596h-89l-304 465v-465h-85v596h91l301 -463v463h86z" />
    <glyph glyph-name="Ncommaaccent.sc" horiz-adv-x="665" 
d="M572 596v-596h-89l-304 465v-465h-85v596h91l301 -463v463h86zM375 -79c12 -65 -4 -136 -41 -202h-66c29 69 37 141 21 202h86z" />
    <glyph glyph-name="Eng.sc" horiz-adv-x="665" 
d="M572 596v-615c0 -123 -71 -203 -183 -203c-29 0 -54 6 -78 16v87c23 -13 46 -18 71 -18c63 0 104 43 104 124v8l-307 470v-465h-85v596h91l301 -463v463h86z" />
    <glyph glyph-name="Ntilde.sc" horiz-adv-x="665" 
d="M531 813c5 -88 -51 -123 -108 -123c-72 0 -96 60 -150 60c-37 0 -51 -31 -50 -57h-64c-5 88 51 123 108 123c72 0 96 -61 150 -61c37 0 51 31 50 58h64zM572 596v-596h-89l-304 465v-465h-85v596h91l301 -463v463h86z" />
    <glyph glyph-name="O.sc" horiz-adv-x="705" 
d="M352 606c159 0 299 -123 299 -309c0 -185 -140 -307 -299 -307s-298 122 -298 307c0 186 139 309 298 309zM352 521c-105 0 -207 -83 -207 -224c0 -140 102 -222 207 -222s207 82 207 222c0 141 -102 224 -207 224z" />
    <glyph glyph-name="Oacute.sc" horiz-adv-x="705" 
d="M391 846h99l-139 -168h-76zM352 606c159 0 299 -123 299 -309c0 -185 -140 -307 -299 -307s-298 122 -298 307c0 186 139 309 298 309zM352 521c-105 0 -207 -83 -207 -224c0 -140 102 -222 207 -222s207 82 207 222c0 141 -102 224 -207 224z" />
    <glyph glyph-name="Ocircumflex.sc" horiz-adv-x="705" 
d="M386 846l135 -168h-88l-81 107l-82 -107h-86l133 168h69zM352 606c159 0 299 -123 299 -309c0 -185 -140 -307 -299 -307s-298 122 -298 307c0 186 139 309 298 309zM352 521c-105 0 -207 -83 -207 -224c0 -140 102 -222 207 -222s207 82 207 222
c0 141 -102 224 -207 224z" />
    <glyph glyph-name="Odieresis.sc" horiz-adv-x="705" 
d="M249 700c-29 0 -53 24 -53 53s24 52 53 52c30 0 55 -23 55 -52s-25 -53 -55 -53zM455 700c-30 0 -54 24 -54 53s24 52 54 52s53 -23 53 -52s-23 -53 -53 -53zM352 606c159 0 299 -123 299 -309c0 -185 -140 -307 -299 -307s-298 122 -298 307c0 186 139 309 298 309z
M352 521c-105 0 -207 -83 -207 -224c0 -140 102 -222 207 -222s207 82 207 222c0 141 -102 224 -207 224z" />
    <glyph glyph-name="Ograve.sc" horiz-adv-x="705" 
d="M316 846l116 -168h-77l-138 168h99zM352 606c159 0 299 -123 299 -309c0 -185 -140 -307 -299 -307s-298 122 -298 307c0 186 139 309 298 309zM352 521c-105 0 -207 -83 -207 -224c0 -140 102 -222 207 -222s207 82 207 222c0 141 -102 224 -207 224z" />
    <glyph glyph-name="Ohungarumlaut.sc" horiz-adv-x="705" 
d="M443 846l-172 -168h-80l149 168h103zM616 846l-172 -168h-79l148 168h103zM352 606c159 0 299 -123 299 -309c0 -185 -140 -307 -299 -307s-298 122 -298 307c0 186 139 309 298 309zM352 521c-105 0 -207 -83 -207 -224c0 -140 102 -222 207 -222s207 82 207 222
c0 141 -102 224 -207 224z" />
    <glyph glyph-name="Omacron.sc" horiz-adv-x="705" 
d="M185 719v68h333v-68h-333zM352 606c159 0 299 -123 299 -309c0 -185 -140 -307 -299 -307s-298 122 -298 307c0 186 139 309 298 309zM352 521c-105 0 -207 -83 -207 -224c0 -140 102 -222 207 -222s207 82 207 222c0 141 -102 224 -207 224z" />
    <glyph glyph-name="Oslash.sc" horiz-adv-x="710" 
d="M658 557l-67 -68c39 -51 62 -116 62 -192c0 -185 -140 -307 -299 -307c-69 0 -135 23 -187 65l-61 -62l-44 42l61 63c-42 51 -68 119 -68 199c0 186 140 309 299 309c73 0 143 -26 196 -73l65 67zM145 297c0 -54 15 -100 41 -136l302 310c-37 32 -86 50 -134 50
c-106 0 -209 -83 -209 -224zM563 297c0 50 -13 93 -35 127l-300 -307c36 -28 81 -43 126 -43c105 0 209 83 209 223z" />
    <glyph glyph-name="Otilde.sc" horiz-adv-x="705" 
d="M538 813c5 -88 -51 -123 -108 -123c-72 0 -96 60 -150 60c-37 0 -51 -31 -50 -57h-64c-5 88 51 123 108 123c72 0 96 -61 150 -61c37 0 51 31 50 58h64zM352 606c159 0 299 -123 299 -309c0 -185 -140 -307 -299 -307s-298 122 -298 307c0 186 139 309 298 309zM352 521
c-105 0 -207 -83 -207 -224c0 -140 102 -222 207 -222s207 82 207 222c0 141 -102 224 -207 224z" />
    <glyph glyph-name="OE.sc" horiz-adv-x="837" 
d="M54 297c0 186 139 309 298 309c34 0 67 -4 98 -10h321v-81h-246v-175h228v-74h-228v-185h246v-81h-321c-31 -7 -64 -10 -98 -10c-159 0 -298 122 -298 307zM145 297c0 -140 102 -222 207 -222c29 0 58 1 84 8v430c-26 7 -55 8 -84 8c-105 0 -207 -83 -207 -224z" />
    <glyph glyph-name="P.sc" horiz-adv-x="520" 
d="M94 596h144c151 0 242 -77 242 -198s-90 -209 -240 -209h-57v-189h-89v596zM243 269c99 0 147 54 147 127c0 70 -49 116 -147 116h-60v-243h60z" />
    <glyph glyph-name="Thorn.sc" horiz-adv-x="545" 
d="M183 596v-88h83c150 0 239 -76 239 -198c0 -121 -88 -210 -240 -210h-82v-100h-89v596h89zM267 184c100 0 147 52 147 125c0 70 -48 115 -147 115h-84v-240h84z" />
    <glyph glyph-name="Q.sc" horiz-adv-x="705" 
d="M667 14l-54 -55l-87 86c-50 -36 -110 -55 -174 -55c-159 0 -298 122 -298 307c0 186 139 309 298 309s299 -123 299 -309c0 -80 -26 -148 -69 -200zM352 71c40 0 79 12 112 34l-115 113l53 55l117 -115c26 37 42 84 42 139c0 141 -103 225 -209 225s-208 -84 -208 -225
s102 -226 208 -226z" />
    <glyph glyph-name="R.sc" horiz-adv-x="537" 
d="M292 229l212 -229h-113l-203 227h-5v-227h-89v596h156c152 0 225 -80 225 -184c0 -97 -71 -170 -183 -183zM183 301h73c80 0 129 42 129 110c0 60 -46 101 -129 101h-73v-211z" />
    <glyph glyph-name="Racute.sc" horiz-adv-x="537" 
d="M415 846l-139 -168h-76l116 168h99zM292 229l212 -229h-113l-203 227h-5v-227h-89v596h156c152 0 225 -80 225 -184c0 -97 -71 -170 -183 -183zM183 301h73c80 0 129 42 129 110c0 60 -46 101 -129 101h-73v-211z" />
    <glyph glyph-name="Rcaron.sc" horiz-adv-x="537" 
d="M310 678h-67l-135 168h88l81 -107l81 107h87zM292 229l212 -229h-113l-203 227h-5v-227h-89v596h156c152 0 225 -80 225 -184c0 -97 -71 -170 -183 -183zM183 301h73c80 0 129 42 129 110c0 60 -46 101 -129 101h-73v-211z" />
    <glyph glyph-name="Rcommaaccent.sc" horiz-adv-x="537" 
d="M292 229l212 -229h-113l-203 227h-5v-227h-89v596h156c152 0 225 -80 225 -184c0 -97 -71 -170 -183 -183zM183 301h73c80 0 129 42 129 110c0 60 -46 101 -129 101h-73v-211zM232 -79h86c12 -65 -4 -136 -41 -202h-66c29 69 37 141 21 202z" />
    <glyph glyph-name="S.sc" horiz-adv-x="485" 
d="M402 568v-90c-41 31 -86 46 -138 46c-64 0 -110 -28 -110 -78c0 -45 39 -69 89 -92c83 -37 193 -75 193 -191c0 -100 -83 -174 -202 -174c-72 0 -134 26 -173 58v101c42 -45 103 -77 167 -77c72 0 118 40 118 88c0 44 -38 69 -91 93c-76 34 -191 77 -191 192
c0 89 71 162 191 162c61 0 109 -15 147 -38z" />
    <glyph glyph-name="Sacute.sc" horiz-adv-x="485" 
d="M294 846h99l-139 -168h-76zM402 568v-90c-41 31 -86 46 -138 46c-64 0 -110 -28 -110 -78c0 -45 39 -69 89 -92c83 -37 193 -75 193 -191c0 -100 -83 -174 -202 -174c-72 0 -134 26 -173 58v101c42 -45 103 -77 167 -77c72 0 118 40 118 88c0 44 -38 69 -91 93
c-76 34 -191 77 -191 192c0 89 71 162 191 162c61 0 109 -15 147 -38z" />
    <glyph glyph-name="Scaron.sc" horiz-adv-x="485" 
d="M423 846l-135 -168h-67l-135 168h88l81 -107l81 107h87zM402 568v-90c-41 31 -86 46 -138 46c-64 0 -110 -28 -110 -78c0 -45 39 -69 89 -92c83 -37 193 -75 193 -191c0 -100 -83 -174 -202 -174c-72 0 -134 26 -173 58v101c42 -45 103 -77 167 -77c72 0 118 40 118 88
c0 44 -38 69 -91 93c-76 34 -191 77 -191 192c0 89 71 162 191 162c61 0 109 -15 147 -38z" />
    <glyph glyph-name="Scedilla.sc" horiz-adv-x="485" 
d="M436 163c0 -85 -60 -152 -152 -169c-5 -69 -29 -120 -66 -165h-96c41 49 76 97 84 161c-60 6 -111 29 -145 57v101c42 -45 103 -77 167 -77c72 0 118 40 118 88c0 44 -38 69 -91 93c-76 34 -191 77 -191 192c0 89 71 162 191 162c61 0 109 -15 147 -38v-90
c-41 31 -86 46 -138 46c-64 0 -110 -28 -110 -78c0 -45 39 -69 89 -92c83 -37 193 -75 193 -191z" />
    <glyph glyph-name="Scommaaccent.sc" horiz-adv-x="485" 
d="M402 568v-90c-41 31 -86 46 -138 46c-64 0 -110 -28 -110 -78c0 -45 39 -69 89 -92c83 -37 193 -75 193 -191c0 -100 -83 -174 -202 -174c-72 0 -134 26 -173 58v101c42 -45 103 -77 167 -77c72 0 118 40 118 88c0 44 -38 69 -91 93c-76 34 -191 77 -191 192
c0 89 71 162 191 162c61 0 109 -15 147 -38zM286 -79c12 -65 -4 -136 -41 -202h-66c29 69 37 141 21 202h86z" />
    <glyph glyph-name="uni1E9E.sc" horiz-adv-x="632" 
d="M412 337c97 -5 168 -73 168 -166c0 -89 -62 -182 -198 -182c-61 0 -113 19 -148 48v88c34 -33 84 -59 141 -59c76 0 120 49 120 109s-48 105 -128 105h-81l160 214c-25 19 -66 31 -109 31c-91 0 -166 -56 -166 -160v-365h-85v374c0 141 108 233 254 233
c89 0 160 -36 212 -85z" />
    <glyph glyph-name="T.sc" horiz-adv-x="524" 
d="M217 0v510h-188v86h466v-86h-188v-510h-90z" />
    <glyph glyph-name="Tbar.sc" horiz-adv-x="543" 
d="M505 510h-188v-198h125v-75h-125v-237h-90v237h-127v75h127v198h-188v86h466v-86z" />
    <glyph glyph-name="Tcaron.sc" horiz-adv-x="524" 
d="M429 846l-135 -168h-67l-135 168h88l81 -107l81 107h87zM217 0v510h-188v86h466v-86h-188v-510h-90z" />
    <glyph glyph-name="uni0162.sc" horiz-adv-x="524" 
d="M29 596h466v-86h-188v-510h-6c-4 -72 -29 -125 -67 -171h-96c43 51 80 101 85 171h-6v510h-188v86z" />
    <glyph glyph-name="uni021A.sc" horiz-adv-x="524" 
d="M217 0v510h-188v86h466v-86h-188v-510h-90zM302 -79c12 -65 -4 -136 -41 -202h-66c29 69 37 141 21 202h86z" />
    <glyph glyph-name="U.sc" horiz-adv-x="641" 
d="M555 596v-365c0 -153 -103 -241 -235 -241c-134 -1 -234 88 -234 241v365h89v-369c0 -97 62 -152 145 -152c84 0 146 55 146 152v369h89z" />
    <glyph glyph-name="Uacute.sc" horiz-adv-x="641" 
d="M359 846h99l-139 -168h-76zM555 596v-365c0 -153 -103 -241 -235 -241c-134 -1 -234 88 -234 241v365h89v-369c0 -97 62 -152 145 -152c84 0 146 55 146 152v369h89z" />
    <glyph glyph-name="Ucircumflex.sc" horiz-adv-x="641" 
d="M354 846l135 -168h-88l-81 107l-82 -107h-86l133 168h69zM555 596v-365c0 -153 -103 -241 -235 -241c-134 -1 -234 88 -234 241v365h89v-369c0 -97 62 -152 145 -152c84 0 146 55 146 152v369h89z" />
    <glyph glyph-name="Udieresis.sc" horiz-adv-x="641" 
d="M217 700c-29 0 -53 24 -53 53s24 52 53 52c30 0 55 -23 55 -52s-25 -53 -55 -53zM423 700c-30 0 -54 24 -54 53s24 52 54 52s53 -23 53 -52s-23 -53 -53 -53zM555 596v-365c0 -153 -103 -241 -235 -241c-134 -1 -234 88 -234 241v365h89v-369c0 -97 62 -152 145 -152
c84 0 146 55 146 152v369h89z" />
    <glyph glyph-name="Ugrave.sc" horiz-adv-x="641" 
d="M284 846l116 -168h-77l-138 168h99zM555 596v-365c0 -153 -103 -241 -235 -241c-134 -1 -234 88 -234 241v365h89v-369c0 -97 62 -152 145 -152c84 0 146 55 146 152v369h89z" />
    <glyph glyph-name="Uhungarumlaut.sc" horiz-adv-x="641" 
d="M411 846l-172 -168h-80l149 168h103zM584 846l-172 -168h-79l148 168h103zM555 596v-365c0 -153 -103 -241 -235 -241c-134 -1 -234 88 -234 241v365h89v-369c0 -97 62 -152 145 -152c84 0 146 55 146 152v369h89z" />
    <glyph glyph-name="Umacron.sc" horiz-adv-x="641" 
d="M153 719v68h333v-68h-333zM555 596v-365c0 -153 -103 -241 -235 -241c-134 -1 -234 88 -234 241v365h89v-369c0 -97 62 -152 145 -152c84 0 146 55 146 152v369h89z" />
    <glyph glyph-name="Uogonek.sc" horiz-adv-x="641" 
d="M466 596h89v-365c0 -90 -37 -160 -97 -201c-76 -55 -116 -95 -116 -135c0 -37 30 -54 65 -54c12 0 30 2 35 5v-60c-6 -4 -32 -9 -50 -9c-67 0 -123 37 -123 105c0 36 17 73 57 108h-6c-134 0 -234 88 -234 241v365h89v-369c0 -96 61 -152 145 -152s146 55 146 152v369z
" />
    <glyph glyph-name="Uring.sc" horiz-adv-x="641" 
d="M320 876c59 0 106 -43 106 -99s-47 -100 -106 -100s-106 44 -106 100s47 99 106 99zM320 828c-31 0 -53 -22 -53 -51s22 -52 53 -52s53 23 53 52s-22 51 -53 51zM555 596v-365c0 -153 -103 -241 -235 -241c-134 -1 -234 88 -234 241v365h89v-369c0 -97 62 -152 145 -152
c84 0 146 55 146 152v369h89z" />
    <glyph glyph-name="V.sc" horiz-adv-x="565" 
d="M540 596l-202 -596h-110l-204 596h96l162 -508h1l164 508h93z" />
    <glyph glyph-name="W.sc" horiz-adv-x="889" 
d="M597 0l-152 483h-3l-149 -483h-98l-166 596h94l123 -488h3l146 488h97l152 -488h2l124 488h90l-167 -596h-96z" />
    <glyph glyph-name="Wacute.sc" horiz-adv-x="889" 
d="M483 846h99l-139 -168h-76zM597 0l-152 483h-3l-149 -483h-98l-166 596h94l123 -488h3l146 488h97l152 -488h2l124 488h90l-167 -596h-96z" />
    <glyph glyph-name="Wcircumflex.sc" horiz-adv-x="889" 
d="M478 846l135 -168h-88l-81 107l-82 -107h-86l133 168h69zM597 0l-152 483h-3l-149 -483h-98l-166 596h94l123 -488h3l146 488h97l152 -488h2l124 488h90l-167 -596h-96z" />
    <glyph glyph-name="Wdieresis.sc" horiz-adv-x="889" 
d="M341 700c-29 0 -53 24 -53 53s24 52 53 52c30 0 55 -23 55 -52s-25 -53 -55 -53zM547 700c-30 0 -54 24 -54 53s24 52 54 52s53 -23 53 -52s-23 -53 -53 -53zM597 0l-152 483h-3l-149 -483h-98l-166 596h94l123 -488h3l146 488h97l152 -488h2l124 488h90l-167 -596h-96z
" />
    <glyph glyph-name="Wgrave.sc" horiz-adv-x="889" 
d="M408 846l116 -168h-77l-138 168h99zM597 0l-152 483h-3l-149 -483h-98l-166 596h94l123 -488h3l146 488h97l152 -488h2l124 488h90l-167 -596h-96z" />
    <glyph glyph-name="X.sc" horiz-adv-x="548" 
d="M517 596l-190 -296l194 -300h-100l-148 237l-147 -237h-99l192 299l-189 297h100l143 -233l144 233h100z" />
    <glyph glyph-name="Y.sc" horiz-adv-x="561" 
d="M544 596l-218 -347v-249h-90v248l-219 348h102l164 -268h1l162 268h98z" />
    <glyph glyph-name="Yacute.sc" horiz-adv-x="561" 
d="M319 846h99l-139 -168h-76zM544 596l-218 -347v-249h-90v248l-219 348h102l164 -268h1l162 268h98z" />
    <glyph glyph-name="Ycircumflex.sc" horiz-adv-x="561" 
d="M314 846l135 -168h-88l-81 107l-82 -107h-86l133 168h69zM544 596l-218 -347v-249h-90v248l-219 348h102l164 -268h1l162 268h98z" />
    <glyph glyph-name="Ydieresis.sc" horiz-adv-x="561" 
d="M177 700c-29 0 -53 24 -53 53s24 52 53 52c30 0 55 -23 55 -52s-25 -53 -55 -53zM383 700c-30 0 -54 24 -54 53s24 52 54 52s53 -23 53 -52s-23 -53 -53 -53zM544 596l-218 -347v-249h-90v248l-219 348h102l164 -268h1l162 268h98z" />
    <glyph glyph-name="Ygrave.sc" horiz-adv-x="561" 
d="M244 846l116 -168h-77l-138 168h99zM544 596l-218 -347v-249h-90v248l-219 348h102l164 -268h1l162 268h98z" />
    <glyph glyph-name="Z.sc" horiz-adv-x="516" 
d="M483 596l-313 -513h297v-83h-439l313 513h-285v83h427z" />
    <glyph glyph-name="Zacute.sc" horiz-adv-x="516" 
d="M307 846h99l-139 -168h-76zM483 596l-313 -513h297v-83h-439l313 513h-285v83h427z" />
    <glyph glyph-name="Zcaron.sc" horiz-adv-x="516" 
d="M436 846l-135 -168h-67l-135 168h88l81 -107l81 107h87zM483 596l-313 -513h297v-83h-439l313 513h-285v83h427z" />
    <glyph glyph-name="Zdotaccent.sc" horiz-adv-x="516" 
d="M267 700c-29 0 -54 24 -54 53s25 52 54 52c30 0 54 -23 54 -52s-24 -53 -54 -53zM483 596l-313 -513h297v-83h-439l313 513h-285v83h427z" />
    <glyph glyph-name="I.sc.ss01" horiz-adv-x="403" 
d="M156 81v434h-96v81h283v-81h-98v-434h98v-81h-283v81h96z" />
    <glyph glyph-name="IJ.sc.ss01" horiz-adv-x="874" 
d="M156 81v434h-96v81h283v-81h-98v-434h98v-81h-283v81h96zM786 596v-417c0 -124 -67 -191 -179 -191c-53 0 -102 16 -143 48v98c31 -36 83 -61 130 -61c66 0 103 33 103 114v324h-175v85h264z" />
    <glyph glyph-name="Iacute.sc.ss01" horiz-adv-x="403" 
d="M239 844h99l-139 -168h-76zM156 81v434h-96v81h283v-81h-98v-434h98v-81h-283v81h96z" />
    <glyph glyph-name="Icircumflex.sc.ss01" horiz-adv-x="429" 
d="M247 844l135 -168h-88l-81 107l-82 -107h-86l133 168h69zM169 81v434h-96v81h283v-81h-98v-434h98v-81h-283v81h96z" />
    <glyph glyph-name="Idieresis.sc.ss01" horiz-adv-x="407" 
d="M99 698c-29 0 -53 24 -53 53s24 52 53 52c30 0 55 -23 55 -52s-25 -53 -55 -53zM305 698c-30 0 -54 24 -54 53s24 52 54 52s53 -23 53 -52s-23 -53 -53 -53zM158 81v434h-96v81h283v-81h-98v-434h98v-81h-283v81h96z" />
    <glyph glyph-name="Idotaccent.sc.ss01" horiz-adv-x="403" 
d="M199 698c-29 0 -54 24 -54 53s25 52 54 52c30 0 54 -23 54 -52s-24 -53 -54 -53zM156 81v434h-96v81h283v-81h-98v-434h98v-81h-283v81h96z" />
    <glyph glyph-name="Igrave.sc.ss01" horiz-adv-x="403" 
d="M164 844l116 -168h-77l-138 168h99zM156 81v434h-96v81h283v-81h-98v-434h98v-81h-283v81h96z" />
    <glyph glyph-name="Imacron.sc.ss01" horiz-adv-x="403" 
d="M33 717v68h333v-68h-333zM156 81v434h-96v81h283v-81h-98v-434h98v-81h-283v81h96z" />
    <glyph glyph-name="Iogonek.sc.ss01" horiz-adv-x="403" 
d="M343 515h-98v-434h98v-81h-40c-61 -32 -99 -68 -99 -103c0 -36 29 -56 64 -56c12 0 30 3 35 6v-61c-5 -3 -26 -8 -48 -8c-68 0 -125 37 -125 104c0 40 20 80 67 118h-137v81h96v434h-96v81h283v-81z" />
    <glyph glyph-name="J.sc.ss01" horiz-adv-x="453" 
d="M365 596v-417c0 -124 -67 -191 -179 -191c-53 0 -102 16 -143 48v98c31 -36 83 -61 130 -61c66 0 103 33 103 114v324h-175v85h264z" />
    <glyph glyph-name="uni0410" unicode="&#x410;" horiz-adv-x="714" 
d="M703 0h-100l-87 226h-319l-87 -226h-98l292 744h105zM356 640l-129 -331h258z" />
    <glyph glyph-name="uni0411" unicode="&#x411;" horiz-adv-x="623" 
d="M300 454c186 0 276 -84 276 -222c0 -143 -104 -232 -273 -232h-201v744h429v-84h-335l-1 1v-207h105zM299 83c115 0 182 53 182 146c0 89 -57 142 -183 142h-103v-288h104z" />
    <glyph glyph-name="uni0412" unicode="&#x412;" horiz-adv-x="649" 
d="M457 384c91 -28 137 -93 137 -179c0 -112 -84 -205 -254 -205h-238v744h226c159 0 242 -83 242 -193c0 -89 -49 -142 -113 -167zM194 660v-242h134c97 0 150 53 150 124c0 74 -54 118 -143 118h-141zM338 84c106 0 163 54 163 129c0 82 -67 128 -158 128h-149v-257h144z
" />
    <glyph glyph-name="uni0413" unicode="&#x413;" horiz-adv-x="514" 
d="M102 0v744h390v-87h-297v-657h-93z" />
    <glyph glyph-name="uni0414" unicode="&#x414;" horiz-adv-x="749" 
d="M615 87h94v-257h-88v170h-520v-170h-88v257h76c35 47 76 124 76 319v338h450v-657zM256 401c0 -149 -25 -246 -67 -314h333v570h-266v-256z" />
    <glyph glyph-name="uni0415" unicode="&#x415;" horiz-adv-x="578" 
d="M102 0v744h408v-87h-315v-237h292v-82h-292v-252h315v-86h-408z" />
    <glyph glyph-name="uni0401" unicode="&#x401;" horiz-adv-x="578" 
d="M205 849c-29 0 -53 24 -53 53s24 52 53 52c30 0 55 -23 55 -52s-25 -53 -55 -53zM411 849c-30 0 -54 24 -54 53s24 52 54 52s53 -23 53 -52s-23 -53 -53 -53zM102 0v744h408v-87h-315v-237h292v-82h-292v-252h315v-86h-408z" />
    <glyph glyph-name="uni0416" unicode="&#x416;" horiz-adv-x="991" 
d="M983 0h-119l-322 364v-364h-93v364l-322 -364h-119l338 375l-334 369h116l321 -362v362h93v-362l321 362h116l-334 -369z" />
    <glyph glyph-name="uni0417" unicode="&#x417;" horiz-adv-x="576" 
d="M379 383c78 -19 134 -87 134 -181c0 -127 -97 -218 -252 -218c-73 0 -145 19 -211 67v105c41 -43 122 -85 202 -85c99 0 166 54 166 138c0 86 -63 129 -174 129h-86v82h95c91 0 151 48 151 128c0 79 -61 127 -155 127c-65 0 -133 -22 -187 -60v96c52 29 115 49 198 49
c158 0 238 -82 238 -202c0 -86 -57 -152 -119 -175z" />
    <glyph glyph-name="uni0418" unicode="&#x418;" horiz-adv-x="797" 
d="M102 0v744h89v-602h1l412 602h91v-744h-89v606h-1l-412 -606h-91z" />
    <glyph glyph-name="uni0419" unicode="&#x419;" horiz-adv-x="797" 
d="M566 987c1 -99 -74 -153 -162 -153c-89 0 -163 54 -162 153h78c1 -52 26 -93 84 -93c57 0 83 41 84 93h78zM102 0v744h89v-602h1l412 602h91v-744h-89v606h-1l-412 -606h-91z" />
    <glyph glyph-name="uni041A" unicode="&#x41a;" horiz-adv-x="661" 
d="M654 0h-119l-340 364v-364h-93v744h93v-362l338 362h116l-348 -370z" />
    <glyph glyph-name="uni041B" unicode="&#x41b;" horiz-adv-x="697" 
d="M4 -4v82c98 0 141 77 141 253v413h450v-744h-93v657h-266v-324c0 -231 -72 -337 -232 -337z" />
    <glyph glyph-name="uni041C" unicode="&#x41c;" horiz-adv-x="968" 
d="M233 606l-89 -606h-92l114 744h113l207 -604h1l201 604h115l113 -744h-92l-90 611h-2l-206 -611h-83l-208 606h-2z" />
    <glyph glyph-name="uni041D" unicode="&#x41d;" horiz-adv-x="783" 
d="M588 0v334h-393v-334h-93v744h93v-323h393v323h93v-744h-93z" />
    <glyph glyph-name="uni041E" unicode="&#x41e;" horiz-adv-x="847" 
d="M424 -15c-213 0 -370 165 -370 387c0 219 157 387 370 387c212 0 369 -168 369 -387c0 -221 -157 -387 -369 -387zM424 73c141 0 274 110 274 299s-133 299 -274 299c-143 0 -275 -110 -275 -299c0 -190 134 -299 275 -299z" />
    <glyph glyph-name="uni041F" unicode="&#x41f;" horiz-adv-x="757" 
d="M562 0v657h-367v-657h-93v744h553v-744h-93z" />
    <glyph glyph-name="uni0420" unicode="&#x420;" horiz-adv-x="612" 
d="M102 0v744h182c176 0 291 -90 291 -242c0 -151 -112 -250 -288 -250h-92v-252h-93zM292 338c116 0 189 60 189 162c0 101 -73 157 -189 157h-97v-319h97z" />
    <glyph glyph-name="uni0421" unicode="&#x421;" horiz-adv-x="667" 
d="M620 36c-48 -28 -112 -51 -197 -51c-194 0 -369 150 -369 388c0 237 175 386 369 386c85 0 150 -23 197 -51v-98c-59 37 -114 60 -193 60c-139 0 -278 -110 -278 -298c0 -186 139 -298 278 -298c79 0 134 24 193 61v-99z" />
    <glyph glyph-name="uni0422" unicode="&#x422;" horiz-adv-x="606" 
d="M257 0v657h-235v87h562v-87h-234v-657h-93z" />
    <glyph glyph-name="uni0423" unicode="&#x423;" horiz-adv-x="662" 
d="M561 744h97l-244 -555c-62 -144 -137 -194 -272 -194v82c85 0 133 27 175 111l-303 556h102l248 -466z" />
    <glyph glyph-name="uni0424" unicode="&#x424;" horiz-adv-x="874" 
d="M482 708c196 0 344 -138 344 -326s-148 -326 -344 -326v-70h-90v70c-196 0 -344 138 -344 326s148 326 344 326v70h90v-70zM392 140v484c-144 0 -253 -102 -253 -242s109 -242 253 -242zM482 140c144 0 253 102 253 242s-109 242 -253 242v-484z" />
    <glyph glyph-name="uni0425" unicode="&#x425;" horiz-adv-x="658" 
d="M18 0l253 374l-249 370h108l201 -300l199 300h106l-249 -368l255 -376h-107l-207 304l-204 -304h-106z" />
    <glyph glyph-name="uni0427" unicode="&#x427;" horiz-adv-x="645" 
d="M449 744h94v-744h-94v311c-49 -18 -104 -30 -173 -30c-145 0 -225 74 -225 227v236h93v-219c0 -110 50 -157 156 -157c52 0 110 14 149 30v346z" />
    <glyph glyph-name="uni0426" unicode="&#x426;" horiz-adv-x="770" 
d="M635 87h95v-257h-87v170h-541v744h93v-657h347v657h93v-657z" />
    <glyph glyph-name="uni0428" unicode="&#x428;" horiz-adv-x="1004" 
d="M809 744h93v-744h-800v744h93v-657h260v657h93v-657h261v657z" />
    <glyph glyph-name="uni0429" unicode="&#x429;" horiz-adv-x="1032" 
d="M897 87h95v-257h-87v170h-803v744h93v-657h258v657h93v-657h258v657h93v-657z" />
    <glyph glyph-name="uni040F" unicode="&#x40f;" horiz-adv-x="736" 
d="M634 744v-744h-223v-170h-86v170h-223v744h93v-657h347v657h92z" />
    <glyph glyph-name="uni042C" unicode="&#x42c;" horiz-adv-x="610" 
d="M289 478c173 0 283 -82 283 -234c0 -154 -115 -244 -284 -244h-186v744h93v-266h94zM293 84c114 0 185 57 185 158c0 100 -70 152 -186 152h-97v-310h98z" />
    <glyph glyph-name="uni042A" unicode="&#x42a;" horiz-adv-x="740" 
d="M419 478c173 0 284 -82 284 -234c0 -154 -115 -244 -284 -244h-184v657h-213v87h306v-266h91zM423 84c115 0 186 57 186 158c0 100 -71 152 -186 152h-95v-310h95z" />
    <glyph glyph-name="uni042B" unicode="&#x42b;" horiz-adv-x="865" 
d="M282 478c173 0 284 -82 284 -234c0 -154 -116 -244 -285 -244h-179v744h93v-266h87zM669 744h94v-744h-94v744zM286 84c115 0 186 57 186 158c0 100 -71 152 -186 152h-91v-310h91z" />
    <glyph glyph-name="uni0409" unicode="&#x409;" horiz-adv-x="1002" 
d="M680 478c173 0 284 -79 284 -231c0 -154 -115 -244 -284 -244h-178v654h-266v-320c0 -231 -73 -337 -232 -337v82c98 0 141 78 141 254v408h448v-266h87zM684 87c115 0 186 58 186 158s-71 149 -186 149h-91v-307h91z" />
    <glyph glyph-name="uni040A" unicode="&#x40a;" horiz-adv-x="1054" 
d="M737 446c172 0 281 -70 281 -217c0 -148 -111 -229 -280 -229h-185v360h-358v-360h-93v744h93v-298h358v298h91v-298h93zM741 83c114 0 184 48 184 144s-69 136 -185 136h-96v-280h97z" />
    <glyph glyph-name="uni042D" unicode="&#x42d;" horiz-adv-x="690" 
d="M265 756c199 0 370 -138 370 -384s-171 -384 -375 -384c-76 0 -143 16 -206 48v93c63 -36 126 -53 200 -53c148 0 269 87 284 258h-370v82h369c-16 166 -135 252 -279 252c-80 0 -146 -17 -204 -52v92c63 31 129 48 211 48z" />
    <glyph glyph-name="uni0408" unicode="&#x408;" horiz-adv-x="466" 
d="M29 140c31 -34 73 -64 129 -64c73 0 120 47 120 141v527h93v-540c0 -126 -77 -216 -203 -216c-51 0 -104 19 -139 51v101z" />
    <glyph glyph-name="uni040B" unicode="&#x40b;" horiz-adv-x="752" 
d="M476 455c143 0 225 -67 225 -220v-235h-93v213c0 109 -46 155 -150 155c-61 0 -117 -12 -160 -31v-337h-93v657h-182v87h547v-86h-272v-231c52 18 110 28 178 28z" />
    <glyph glyph-name="uni042E" unicode="&#x42e;" horiz-adv-x="1079" 
d="M671 755c202 0 354 -159 354 -383s-153 -384 -354 -384c-188 0 -333 141 -351 342h-125v-330h-93v744h93v-328h125c19 201 163 339 351 339zM671 76c151 0 259 123 259 296s-109 296 -259 296c-149 0 -258 -123 -258 -296c0 -172 109 -296 258 -296z" />
    <glyph glyph-name="uni042F" unicode="&#x42f;" horiz-adv-x="636" 
d="M328 744h206v-744h-93v334l-293 -334h-119l280 301c-185 8 -247 111 -247 222c0 138 100 221 266 221zM333 380h108v277h-113c-117 0 -171 -50 -171 -137c0 -93 63 -140 176 -140z" />
    <glyph glyph-name="uni0402" unicode="&#x402;" horiz-adv-x="742" 
d="M472 453c137 0 233 -77 233 -222c0 -139 -90 -231 -232 -231h-19v82h10c89 0 145 51 145 141c0 99 -59 145 -157 145c-57 0 -112 -12 -155 -30v-338h-92v657h-182v87h546v-86h-272v-233c53 19 111 28 175 28z" />
    <glyph glyph-name="uni0414.BUL" horiz-adv-x="795" 
d="M695 87h80v-257h-87v170h-581v-170h-88v257h82l244 657h106zM397 643l-200 -556h401z" />
    <glyph glyph-name="uni041B.BUL" horiz-adv-x="689" 
d="M14 0l278 744h105l279 -744h-99l-233 640l-232 -640h-98z" />
    <glyph glyph-name="uni0409.BUL" horiz-adv-x="953" 
d="M631 478c173 0 284 -82 284 -234c0 -154 -115 -244 -284 -244h-178v663h-5l-357 -663h-100l398 744h155v-266h87zM636 84c114 0 185 57 185 158c0 100 -70 152 -186 152h-91v-310h92z" />
    <glyph glyph-name="uni0430" unicode="&#x430;" horiz-adv-x="659" 
d="M295 -12c-127 0 -246 111 -246 282c0 173 119 283 246 283c78 0 152 -39 193 -112l11 100h75v-541h-75l-11 99c-41 -73 -115 -111 -193 -111zM314 74c95 0 171 80 171 197c0 116 -76 196 -171 196c-97 0 -172 -80 -172 -197c0 -116 75 -196 172 -196z" />
    <glyph glyph-name="uni0431" unicode="&#x431;" horiz-adv-x="650" 
d="M352 530c149 0 247 -116 247 -270c0 -158 -108 -272 -262 -272c-169 0 -271 122 -271 336c1 288 92 388 263 437c73 21 166 35 234 45v-87c-57 -8 -152 -25 -216 -42c-118 -31 -179 -101 -192 -256c43 69 118 109 197 109zM335 72c103 0 174 77 174 188
c0 109 -70 187 -171 187c-104 0 -180 -77 -180 -180c0 -112 74 -195 177 -195z" />
    <glyph glyph-name="uni0432" unicode="&#x432;" horiz-adv-x="553" 
d="M398 279c63 -19 103 -68 103 -131c0 -91 -74 -148 -193 -148h-223v541h216c113 0 181 -53 181 -140c0 -56 -33 -104 -84 -122zM174 469v-160h117c63 0 103 28 103 82c0 55 -39 78 -108 78h-112zM292 72c75 0 118 26 118 86c0 55 -46 83 -118 83h-118v-169h118z" />
    <glyph glyph-name="uni0433" unicode="&#x433;" horiz-adv-x="424" 
d="M85 0v541h318v-79h-226v-462h-92z" />
    <glyph glyph-name="uni0434" unicode="&#x434;" horiz-adv-x="624" 
d="M507 79h78v-208h-85v129h-394v-129h-85v208h59c33 47 55 117 55 214v248h372v-462zM225 292c0 -100 -28 -175 -50 -213h241v383h-191v-170z" />
    <glyph glyph-name="uni0435" unicode="&#x435;" horiz-adv-x="590" 
d="M544 281c0 -16 -1 -29 -3 -41h-401c13 -107 89 -172 191 -172c62 0 126 23 182 71v-91c-55 -40 -119 -60 -189 -60c-168 0 -274 113 -274 280c0 175 121 285 261 285c128 0 233 -94 233 -272zM140 309h315c-2 112 -71 164 -145 164c-83 0 -156 -63 -170 -164z" />
    <glyph glyph-name="uni0451" unicode="&#x451;" horiz-adv-x="590" 
d="M207 645c-29 0 -53 24 -53 53s24 52 53 52c30 0 55 -23 55 -52s-25 -53 -55 -53zM413 645c-30 0 -54 24 -54 53s24 52 54 52s53 -23 53 -52s-23 -53 -53 -53zM544 281c0 -16 -1 -29 -3 -41h-401c13 -107 89 -172 191 -172c62 0 126 23 182 71v-91
c-55 -40 -119 -60 -189 -60c-168 0 -274 113 -274 280c0 175 121 285 261 285c128 0 233 -94 233 -272zM140 309h315c-2 112 -71 164 -145 164c-83 0 -156 -63 -170 -164z" />
    <glyph glyph-name="uni0436" unicode="&#x436;" horiz-adv-x="767" 
d="M756 0h-112l-212 269v-269h-91v269l-212 -269h-112l230 280l-223 261h111l206 -252v252h91v-252l206 252h111l-223 -261z" />
    <glyph glyph-name="uni0437" unicode="&#x437;" horiz-adv-x="493" 
d="M334 279c64 -16 107 -66 107 -133c0 -90 -80 -158 -207 -158c-72 0 -131 19 -184 55v97c44 -39 108 -71 183 -71c71 0 117 33 117 86c0 52 -46 83 -127 83h-82v74h85c70 0 108 35 108 87c0 48 -40 73 -109 73c-56 0 -119 -20 -164 -56v91c45 30 110 46 171 46
c123 0 193 -57 193 -145c0 -63 -41 -113 -91 -129z" />
    <glyph glyph-name="uni0438" unicode="&#x438;" horiz-adv-x="617" 
d="M85 0v540h87v-403h2l271 403h87v-540h-87v400h-1l-267 -400h-92z" />
    <glyph glyph-name="uni0439" unicode="&#x439;" horiz-adv-x="617" 
d="M471 783c1 -99 -74 -153 -162 -153c-89 0 -163 54 -162 153h78c1 -52 26 -93 84 -93c57 0 83 41 84 93h78zM85 0v540h87v-403h2l271 403h87v-540h-87v400h-1l-267 -400h-92z" />
    <glyph glyph-name="uni043A" unicode="&#x43a;" horiz-adv-x="531" 
d="M521 0h-114l-230 271v-271h-92v541h92v-254l224 254h113l-238 -261z" />
    <glyph glyph-name="uni043B" unicode="&#x43b;" horiz-adv-x="570" 
d="M18 -4v81c68 0 99 46 99 166v298h368v-541h-92v461h-185v-224c0 -166 -62 -241 -190 -241z" />
    <glyph glyph-name="uni043C" unicode="&#x43c;" horiz-adv-x="726" 
d="M58 0l59 540h103l142 -398h2l145 398h99l61 -540h-89l-38 397h-3l-141 -389h-72l-140 391h-2l-38 -399h-88z" />
    <glyph glyph-name="uni043D" unicode="&#x43d;" horiz-adv-x="608" 
d="M85 0v541h92v-229h254v229h92v-541h-92v232h-254v-232h-92z" />
    <glyph glyph-name="uni043E" unicode="&#x43e;" horiz-adv-x="637" 
d="M319 -12c-154 0 -270 119 -270 282s116 283 270 283c153 0 268 -120 268 -283c0 -162 -115 -282 -268 -282zM319 74c90 0 176 72 176 196c0 125 -86 197 -176 197c-91 0 -177 -72 -177 -197s86 -196 177 -196z" />
    <glyph glyph-name="uni043F" unicode="&#x43f;" horiz-adv-x="600" 
d="M85 0v541h430v-541h-92v461h-246v-461h-92z" />
    <glyph glyph-name="uni0440" unicode="&#x440;" horiz-adv-x="660" 
d="M86 -210v751h75l11 -100c41 73 115 112 192 112c128 0 246 -110 246 -282c0 -174 -117 -283 -245 -283c-75 0 -151 40 -187 106v-304h-92zM346 74c97 0 172 79 172 197c0 116 -75 196 -172 196c-95 0 -170 -80 -170 -197c0 -116 75 -196 170 -196z" />
    <glyph glyph-name="uni0441" unicode="&#x441;" horiz-adv-x="525" 
d="M142 271c0 -124 90 -197 186 -197c45 0 99 9 144 44v-93c-40 -23 -91 -37 -150 -37c-156 0 -273 121 -273 283c0 160 117 282 273 282c56 0 107 -11 150 -38v-94c-45 33 -89 46 -145 46c-95 0 -185 -74 -185 -196z" />
    <glyph glyph-name="uni0442" unicode="&#x442;" horiz-adv-x="465" 
d="M187 0v461h-166v80h423v-80h-165v-461h-92z" />
    <glyph glyph-name="uni0443" unicode="&#x443;" horiz-adv-x="541" 
d="M520 541l-293 -751h-94l93 229l-202 522h100l149 -412h2l149 412h96z" />
    <glyph glyph-name="uni0444" unicode="&#x444;" horiz-adv-x="760" 
d="M711 270c0 -170 -131 -280 -287 -280v-200h-88v200c-156 0 -287 110 -287 280s130 280 287 280v250h88v-250c157 0 287 -110 287 -280zM140 270c0 -117 81 -202 196 -202v404c-115 0 -196 -85 -196 -202zM424 69c114 0 196 84 196 201s-82 202 -196 202v-403z" />
    <glyph glyph-name="uni0445" unicode="&#x445;" horiz-adv-x="530" 
d="M502 541l-184 -266l191 -275h-105l-139 207h-1l-139 -207h-102l188 271l-186 270h103l136 -204h2l136 204h100z" />
    <glyph glyph-name="uni0447" unicode="&#x447;" horiz-adv-x="536" 
d="M359 541h92v-541h-92v213c-39 -13 -86 -23 -135 -23c-118 0 -179 60 -179 176v175h92v-155c0 -79 36 -114 114 -114c40 0 79 8 108 20v249z" />
    <glyph glyph-name="uni0446" unicode="&#x446;" horiz-adv-x="623" 
d="M508 79h78v-208h-86v129h-415v541h92v-462h239v462h92v-462z" />
    <glyph glyph-name="uni0448" unicode="&#x448;" horiz-adv-x="831" 
d="M653 540h92v-540h-660v540h92v-461h193v461h91v-461h192v461z" />
    <glyph glyph-name="uni0449" unicode="&#x449;" horiz-adv-x="858" 
d="M742 79h78v-208h-85v129h-650v540h92v-461h191v461h91v-461h191v461h92v-461z" />
    <glyph glyph-name="uni045F" unicode="&#x45f;" horiz-adv-x="593" 
d="M508 540v-540h-170v-129h-85v129h-168v540h92v-461h239v461h92z" />
    <glyph glyph-name="uni044C" unicode="&#x44c;" horiz-adv-x="511" 
d="M284 355c118 0 194 -73 194 -175c0 -103 -88 -180 -206 -180h-187v541h92v-186h107zM270 74c69 0 117 44 117 106s-41 101 -108 101h-102v-207h93z" />
    <glyph glyph-name="uni044A" unicode="&#x44a;" horiz-adv-x="594" 
d="M366 355c118 0 195 -73 195 -175c0 -103 -88 -180 -206 -180h-184v461h-149v80h241v-186h103zM353 74c69 0 116 44 116 106s-40 101 -108 101h-98v-207h90z" />
    <glyph glyph-name="uni044B" unicode="&#x44b;" horiz-adv-x="727" 
d="M279 355c117 0 193 -73 193 -175c0 -103 -87 -180 -206 -180h-181v541h92v-186h102zM550 541h92v-541h-92v541zM264 74c70 0 117 44 117 106s-40 101 -108 101h-96v-207h87z" />
    <glyph glyph-name="uni0459" unicode="&#x459;" horiz-adv-x="811" 
d="M584 355c118 0 193 -73 193 -175c0 -103 -87 -180 -206 -180h-179v461h-185l1 -219c1 -167 -62 -242 -189 -242v81c68 0 100 46 99 167l-2 293h366v-186h102zM570 74c69 0 116 44 116 106s-40 101 -108 101h-96v-207h88z" />
    <glyph glyph-name="uni045A" unicode="&#x45a;" horiz-adv-x="839" 
d="M613 333c118 0 193 -61 193 -162s-87 -171 -206 -171h-180v255h-243v-255h-92v541h92v-208h243v208h91v-208h102zM599 73c69 0 116 36 116 98s-40 89 -107 89h-97v-187h88z" />
    <glyph glyph-name="uni044D" unicode="&#x44d;" horiz-adv-x="536" 
d="M212 553c158 0 275 -112 275 -282c0 -173 -118 -283 -276 -283c-52 0 -114 10 -160 35v86c48 -32 110 -40 153 -40c104 0 179 61 191 168h-259v73h259c-14 102 -87 162 -189 162c-44 0 -104 -8 -155 -40v85c48 27 111 36 161 36z" />
    <glyph glyph-name="uni0458" unicode="&#x458;" horiz-adv-x="262" 
d="M131 665c-33 0 -57 24 -57 56s24 56 57 56s57 -24 57 -56s-24 -56 -57 -56zM-16 -210c67 70 101 150 101 280v471h92v-469c0 -119 -23 -205 -84 -282h-109z" />
    <glyph glyph-name="uni045B" unicode="&#x45b;" horiz-adv-x="607" 
d="M333 549c119 0 195 -68 195 -195v-354h-92v322c0 95 -41 141 -124 141c-72 0 -136 -42 -136 -132v-331h-92v634h-78v72h78v94h92v-94h157v-72h-157v-162h2c31 46 89 77 155 77z" />
    <glyph glyph-name="uni044E" unicode="&#x44e;" horiz-adv-x="849" 
d="M536 550c143 0 263 -107 263 -280c0 -172 -121 -280 -263 -280c-129 0 -244 92 -261 242h-98v-232h-92v541h92v-231h98c18 149 131 240 261 240zM536 75c99 0 171 80 171 195c0 116 -72 195 -171 195s-171 -80 -171 -195c0 -114 73 -195 171 -195z" />
    <glyph glyph-name="uni044F" unicode="&#x44f;" horiz-adv-x="536" 
d="M258 541h193v-541h-92v236l-210 -236h-113l196 205c-121 5 -178 78 -178 167c0 97 70 169 204 169zM255 273h104v190h-103c-76 0 -112 -38 -112 -95c0 -64 38 -95 111 -95z" />
    <glyph glyph-name="uni0452" unicode="&#x452;" horiz-adv-x="607" 
d="M333 549c119 0 195 -68 195 -195v-282c0 -119 -23 -205 -84 -282h-109c67 70 101 150 101 280v252c0 95 -41 141 -124 141c-72 0 -136 -42 -136 -132v-331h-92v634h-78v72h78v94h92v-94h157v-72h-157v-162h2c31 46 89 77 155 77z" />
    <glyph glyph-name="uni0432.BUL" horiz-adv-x="641" 
d="M414 437c109 -27 180 -109 180 -213c0 -136 -105 -236 -257 -236c-164 0 -261 102 -261 278v290c0 154 90 249 236 249c131 0 223 -81 225 -190c2 -81 -43 -148 -123 -178zM311 723c-94 0 -143 -56 -143 -163v-95h120c95 0 161 57 160 141c-1 68 -56 117 -137 117z
M337 72c98 0 165 65 165 160c0 91 -87 160 -204 159h-130v-131c0 -119 61 -188 169 -188z" />
    <glyph glyph-name="uni0433.BUL" horiz-adv-x="490" 
d="M433 394c0 -95 -79 -124 -168 -151c-78 -24 -129 -41 -129 -93c0 -48 42 -80 115 -80c78 0 142 34 184 77v-99c-50 -40 -117 -60 -187 -60c-125 0 -202 64 -202 163c0 109 94 136 177 160c73 21 120 39 120 87c0 44 -38 73 -106 73c-64 0 -123 -23 -162 -56v91
c38 29 101 47 163 47c120 0 195 -68 195 -159z" />
    <glyph glyph-name="uni0434.BUL" horiz-adv-x="658" 
d="M295 552c77 0 151 -37 192 -105l11 94h75v-497c0 -175 -125 -266 -266 -266c-73 0 -146 25 -202 67v99c56 -51 126 -80 198 -80c97 0 178 65 178 165v82c-40 -63 -110 -102 -186 -102c-128 0 -246 109 -246 271c0 161 119 272 246 272zM313 467c-96 0 -171 -80 -171 -188
c0 -106 75 -186 171 -186s171 81 171 190c0 107 -75 184 -171 184z" />
    <glyph glyph-name="uni0436.BUL" horiz-adv-x="767" 
d="M756 0h-112l-212 269v-269h-91v269l-212 -269h-112l230 280l-223 261h111l206 -252v511h91v-511l206 252h111l-223 -261z" />
    <glyph glyph-name="uni0437.BUL" horiz-adv-x="511" 
d="M336 197c71 -20 124 -92 124 -193c0 -139 -99 -226 -236 -226c-78 0 -142 20 -185 52v93c39 -36 108 -61 177 -61c96 0 152 54 152 151c0 90 -60 143 -154 143h-129v77h134c80 0 137 47 137 120c0 75 -52 115 -141 115c-60 0 -131 -20 -172 -49v88c45 27 117 46 186 46
c130 0 218 -78 218 -190c0 -90 -53 -149 -111 -166z" />
    <glyph glyph-name="uni0438.BUL" horiz-adv-x="603" 
d="M262 -10c-112 0 -183 69 -183 186v364h93v-342c0 -82 45 -127 120 -127c74 0 134 46 134 127v342h92v-540h-72l-9 94h-2c-29 -66 -93 -104 -173 -104z" />
    <glyph glyph-name="uni0439.BUL" horiz-adv-x="603" 
d="M464 783c1 -99 -74 -153 -162 -153c-89 0 -163 54 -162 153h78c1 -52 26 -93 84 -93c57 0 83 41 84 93h78zM262 -10c-112 0 -183 69 -183 186v364h93v-342c0 -82 45 -127 120 -127c74 0 134 46 134 127v342h92v-540h-72l-9 94h-2c-29 -66 -93 -104 -173 -104z" />
    <glyph glyph-name="uni043A.BUL" horiz-adv-x="524" 
d="M515 0h-104l-234 276v-276h-92v744h92v-464l226 260h100l-231 -260z" />
    <glyph glyph-name="uni043B.BUL" horiz-adv-x="563" 
d="M331 541l209 -541h-98l-161 439h-2l-161 -439h-95l209 541h99z" />
    <glyph glyph-name="uni043F.BUL" horiz-adv-x="608" 
d="M336 553c117 0 193 -76 193 -195v-358h-92v325c0 95 -43 140 -124 140c-77 0 -135 -56 -135 -135v-330h-92v541h71l10 -82h3c31 50 89 94 166 94z" />
    <glyph glyph-name="uni0442.BUL" horiz-adv-x="871" 
d="M621 553c118 0 171 -79 171 -192v-361h-92v346c0 78 -30 119 -102 119s-113 -57 -113 -119v-346h-92v346c0 78 -31 119 -103 119c-73 0 -112 -60 -112 -124v-341h-92v541h71l10 -80h3c27 52 77 92 145 92c77 0 124 -35 150 -95c32 57 84 95 156 95z" />
    <glyph glyph-name="uni0446.BUL" horiz-adv-x="634" 
d="M518 79h79v-208h-85v129h-65l-11 82h-2c-31 -51 -88 -94 -164 -94c-117 0 -191 76 -191 194v359h92v-325c0 -95 41 -141 122 -141c76 0 133 57 133 136v330h92v-462z" />
    <glyph glyph-name="uni0448.BUL" horiz-adv-x="863" 
d="M248 -12c-118 0 -169 79 -169 192v361h93v-347c0 -77 28 -119 99 -119s112 58 112 119v347h92v-347c0 -77 29 -119 99 -119c74 0 112 61 112 125v341h92v-541h-71l-11 80h-2c-27 -52 -76 -92 -143 -92c-77 0 -123 35 -149 95c-32 -57 -82 -95 -154 -95z" />
    <glyph glyph-name="uni0449.BUL" horiz-adv-x="894" 
d="M779 79h79v-208h-86v129h-65l-10 80h-3c-26 -52 -76 -92 -143 -92c-77 0 -123 35 -149 95c-31 -57 -82 -95 -154 -95c-118 0 -169 79 -169 192v361h93v-347c0 -77 28 -119 99 -119c72 0 112 58 112 119v347h92v-347c0 -77 29 -119 100 -119c73 0 112 61 112 125v341h92
v-462z" />
    <glyph glyph-name="uni044C.BUL" horiz-adv-x="532" 
d="M283 369c140 0 212 -67 212 -188c0 -110 -80 -195 -208 -195c-140 0 -208 68 -208 192v363h92v-172h112zM286 62c72 0 120 47 120 119c0 77 -42 114 -128 114h-107v-121c0 -80 38 -112 115 -112z" />
    <glyph glyph-name="uni044A.BUL" horiz-adv-x="621" 
d="M373 369c140 0 212 -67 212 -188c0 -110 -80 -195 -208 -195c-140 0 -207 68 -207 192v283h-149v80h241v-172h111zM376 62c72 0 119 47 119 119c0 77 -41 114 -128 114h-105v-121c0 -80 38 -112 114 -112z" />
    <glyph glyph-name="uni044E.BUL" horiz-adv-x="857" 
d="M544 550c143 0 263 -106 263 -280c0 -173 -121 -280 -263 -280c-129 0 -244 91 -261 242h-106v-232h-92v800h92v-489h106c18 150 131 239 261 239zM544 75c99 0 171 79 171 195c0 117 -72 195 -171 195s-171 -79 -171 -195c0 -115 73 -195 171 -195z" />
    <glyph glyph-name="uni0431.SRB" horiz-adv-x="625" 
d="M363 520c137 -77 214 -154 214 -282c0 -143 -106 -251 -269 -251c-151 0 -260 95 -260 241c0 115 79 219 201 261c-83 49 -127 94 -127 163c0 94 80 153 214 153c62 0 134 -17 193 -39l-1 -86c-67 30 -136 44 -187 44c-71 0 -124 -22 -124 -75c0 -44 31 -65 146 -129z
M310 72c104 0 175 68 175 167c0 85 -45 142 -163 207c-108 -35 -183 -125 -183 -214c0 -98 68 -160 171 -160z" />
    <glyph glyph-name="uni0434.ss01" horiz-adv-x="651" 
d="M556 79h69v-208h-85v129h-428v-129h-86v208h69l181 462h99zM323 444l-136 -365h274l-136 365h-2z" />
    <glyph glyph-name="uni0459.ss01" horiz-adv-x="770" 
d="M544 355c118 0 193 -73 193 -175c0 -103 -88 -180 -206 -180h-179v460h-6l-247 -460h-97l293 541h147v-186h102zM529 74c69 0 117 44 117 106s-41 101 -108 101h-96v-207h87z" />
    <glyph glyph-name="uni0434.BUL.sc" horiz-adv-x="661" 
d="M559 85h76v-221h-81v136h-447v-136h-81v221h76l177 511h106zM332 514l-143 -429h284z" />
    <glyph glyph-name="uni043B.BUL.sc" horiz-adv-x="567" 
d="M25 0l206 596h106l204 -596h-91l-166 509l-169 -509h-90z" />
    <glyph glyph-name="uni0459.BUL.sc" horiz-adv-x="805" 
d="M534 391c150 0 231 -70 231 -188c0 -121 -91 -204 -233 -204h-157v526h-6l-276 -525h-93l318 596h145v-205h71zM534 80c88 0 141 45 141 121c0 71 -50 110 -141 110h-71v-231h71z" />
    <glyph glyph-name="uni0430.sc" horiz-adv-x="574" 
d="M460 0l-58 173h-230l-59 -173h-90l211 596h107l210 -596h-91zM197 247h180l-88 264h-2z" />
    <glyph glyph-name="uni0431.sc" horiz-adv-x="540" 
d="M263 371c147 0 228 -60 228 -177c0 -118 -87 -195 -228 -195h-169v597h357v-81h-269v-144h81zM261 76c88 0 140 42 140 115c0 71 -50 103 -140 103h-79v-218h79z" />
    <glyph glyph-name="uni0432.sc" horiz-adv-x="554" 
d="M394 307c70 -24 106 -71 106 -143c0 -99 -79 -164 -217 -164h-189v596h178c132 0 205 -59 205 -158c0 -61 -29 -107 -83 -131zM182 518v-181h94c70 -1 115 35 115 93c0 57 -42 88 -116 88h-93zM283 78c80 0 128 35 128 96c0 60 -46 93 -128 93h-101v-189h101z" />
    <glyph glyph-name="uni0433.sc" horiz-adv-x="446" 
d="M94 0v596h323v-86h-234v-510h-89z" />
    <glyph glyph-name="uni0434.sc" horiz-adv-x="645" 
d="M523 82h78v-218h-82v136h-414v-136h-81v218h64c28 40 57 94 57 232v282h378v-514zM232 312c0 -109 -19 -177 -50 -230h253v433h-203v-203z" />
    <glyph glyph-name="uni0435.sc" horiz-adv-x="495" 
d="M94 0v596h335v-81h-246v-175h227v-74h-227v-185h246v-81h-335z" />
    <glyph glyph-name="uni0451.sc" horiz-adv-x="495" 
d="M157 701c-29 0 -53 24 -53 53s24 52 53 52c30 0 55 -23 55 -52s-25 -53 -55 -53zM363 701c-30 0 -54 24 -54 53s24 52 54 52s53 -23 53 -52s-23 -53 -53 -53zM94 0v596h335v-81h-246v-175h227v-74h-227v-185h246v-81h-335z" />
    <glyph glyph-name="uni0436.sc" horiz-adv-x="792" 
d="M770 0h-104l-225 303v-303h-89v303l-226 -303h-104l237 311l-235 285h102l226 -278v278h89v-278l226 278h102l-236 -285z" />
    <glyph glyph-name="uni0437.sc" horiz-adv-x="493" 
d="M329 306c64 -16 104 -70 104 -140c0 -102 -84 -177 -206 -177c-62 0 -127 18 -172 52v97c47 -44 106 -67 162 -67c75 0 124 42 124 103c0 58 -44 93 -126 93h-83v74h89c72 0 114 38 114 95c0 53 -46 87 -118 87c-58 0 -106 -12 -153 -42v90c44 24 99 35 163 35
c120 0 198 -66 198 -160c0 -65 -40 -121 -96 -140z" />
    <glyph glyph-name="uni0438.sc" horiz-adv-x="665" 
d="M93 596h86v-463l301 463h91v-596h-85v465l-304 -465h-89v596z" />
    <glyph glyph-name="uni0439.sc" horiz-adv-x="665" 
d="M492 839c1 -99 -74 -153 -162 -153c-89 0 -163 54 -162 153h78c1 -52 26 -93 84 -93c57 0 83 41 84 93h78zM93 596h86v-463l301 463h91v-596h-85v465l-304 -465h-89v596z" />
    <glyph glyph-name="uni043A.sc" horiz-adv-x="545" 
d="M524 0h-106l-235 303v-303h-89v596h89v-278l236 278h104l-245 -285z" />
    <glyph glyph-name="uni043B.sc" horiz-adv-x="603" 
d="M17 -4v79c79 0 113 51 113 188v333h380v-596h-90v514h-201v-250c0 -188 -62 -268 -202 -268z" />
    <glyph glyph-name="uni043C.sc" horiz-adv-x="800" 
d="M205 478l-64 -478h-87l89 596h106l151 -475h2l150 475h107l87 -596h-86l-65 478h-2l-154 -478h-82l-150 478h-2z" />
    <glyph glyph-name="uni043D.sc" horiz-adv-x="660" 
d="M477 0v258h-294v-258h-89v596h89v-253h294v253h89v-596h-89z" />
    <glyph glyph-name="uni043E.sc" horiz-adv-x="705" 
d="M352 606c159 0 299 -123 299 -309c0 -185 -140 -307 -299 -307s-298 122 -298 307c0 186 139 309 298 309zM352 521c-105 0 -207 -83 -207 -224c0 -140 102 -222 207 -222s207 82 207 222c0 141 -102 224 -207 224z" />
    <glyph glyph-name="uni043F.sc" horiz-adv-x="646" 
d="M463 0v514h-280v-514h-89v596h459v-596h-90z" />
    <glyph glyph-name="uni0440.sc" horiz-adv-x="520" 
d="M94 596h144c151 0 242 -77 242 -198s-90 -209 -240 -209h-57v-189h-89v596zM243 269c99 0 147 54 147 127c0 70 -49 116 -147 116h-60v-243h60z" />
    <glyph glyph-name="uni0441.sc" horiz-adv-x="527" 
d="M479 15c-39 -18 -87 -25 -133 -25c-154 0 -291 117 -291 307s137 309 292 309c48 0 96 -10 132 -27v-87c-41 20 -78 29 -121 29c-125 0 -212 -92 -212 -224c0 -131 87 -222 212 -222c43 0 80 9 121 27v-87z" />
    <glyph glyph-name="uni0442.sc" horiz-adv-x="524" 
d="M217 0v510h-188v86h466v-86h-188v-510h-90z" />
    <glyph glyph-name="uni0443.sc" horiz-adv-x="546" 
d="M450 596h88l-193 -438c-51 -116 -122 -163 -233 -163v78c64 0 108 23 140 81l-245 442h98l193 -366z" />
    <glyph glyph-name="uni0444.sc" horiz-adv-x="746" 
d="M416 565c162 0 281 -103 281 -259s-119 -260 -281 -260v-60h-85v60c-163 0 -282 104 -282 260s119 259 282 259v60h85v-60zM331 123v365c-118 0 -194 -75 -194 -182s76 -183 194 -183zM416 123c117 0 194 76 194 183s-77 182 -194 182v-365z" />
    <glyph glyph-name="uni0445.sc" horiz-adv-x="548" 
d="M517 596l-190 -296l194 -300h-100l-148 237l-147 -237h-99l192 299l-189 297h100l143 -233l144 233h100z" />
    <glyph glyph-name="uni0447.sc" horiz-adv-x="559" 
d="M376 596h90v-596h-90v246c-41 -14 -90 -25 -144 -25c-116 0 -180 60 -180 177v198h89v-180c0 -79 39 -111 117 -111c45 0 87 9 118 22v269z" />
    <glyph glyph-name="uni0446.sc" horiz-adv-x="658" 
d="M537 82h77v-218h-82v136h-438v596h89v-514h264v514h90v-514z" />
    <glyph glyph-name="uni0448.sc" horiz-adv-x="849" 
d="M667 596h88v-596h-661v596h88v-514h198v514h89v-514h198v514z" />
    <glyph glyph-name="uni0449.sc" horiz-adv-x="874" 
d="M752 82h78v-218h-82v136h-654v596h88v-514h197v514h88v-514h197v514h88v-514z" />
    <glyph glyph-name="uni045F.sc" horiz-adv-x="630" 
d="M537 596v-596h-181v-136h-82v136h-180v596h89v-514h264v514h90z" />
    <glyph glyph-name="uni044C.sc" horiz-adv-x="532" 
d="M261 391c150 0 231 -70 231 -188c0 -121 -91 -204 -232 -204h-166v597h89v-205h78zM260 80c89 0 142 45 142 121c0 71 -50 110 -141 110h-78v-231h77z" />
    <glyph glyph-name="uni044A.sc" horiz-adv-x="634" 
d="M363 391c150 0 230 -70 230 -188c0 -121 -90 -204 -232 -204h-164v511h-168v86h258v-205h76zM362 80c89 0 141 45 141 121c0 71 -50 110 -141 110h-75v-231h75z" />
    <glyph glyph-name="uni044B.sc" horiz-adv-x="743" 
d="M254 391c150 0 231 -70 231 -188c0 -121 -91 -204 -232 -204h-159v597h89v-205h71zM561 596h89v-596h-89v596zM254 80c89 0 141 45 141 121c0 71 -50 110 -141 110h-71v-231h71z" />
    <glyph glyph-name="uni0459.sc" horiz-adv-x="849" 
d="M578 391c150 0 231 -70 231 -188c0 -121 -91 -204 -232 -204h-158v515h-201v-251c0 -188 -62 -268 -201 -268v79c79 0 113 51 113 188v334h377v-205h71zM578 80c88 0 141 45 141 121c0 71 -50 110 -141 110h-71v-231h71z" />
    <glyph glyph-name="uni045A.sc" horiz-adv-x="892" 
d="M622 367c150 0 231 -62 231 -175c0 -116 -91 -193 -232 -193h-164v284h-274v-283h-89v596h89v-229h274v229h88v-229h77zM623 78c88 0 141 40 141 111c0 67 -50 98 -141 98h-78v-209h78z" />
    <glyph glyph-name="uni044D.sc" horiz-adv-x="580" 
d="M225 606c164 0 301 -115 301 -308c0 -194 -136 -308 -302 -308c-59 0 -114 11 -169 35v89c57 -30 106 -41 163 -41c124 0 205 74 217 190h-286v75h286c-14 112 -94 185 -215 185c-58 0 -113 -12 -165 -39v88c53 23 108 34 170 34z" />
    <glyph glyph-name="uni0458.sc" horiz-adv-x="379" 
d="M31 93c22 -12 43 -18 69 -18c63 0 102 43 102 124v397h90v-403c0 -123 -71 -203 -183 -203c-29 0 -54 6 -78 17v86z" />
    <glyph glyph-name="uni045B.sc" horiz-adv-x="642" 
d="M409 369c117 0 181 -58 181 -175v-194h-90v178c0 79 -37 109 -115 109c-44 0 -91 -10 -121 -23v-264h-90v510h-144v86h457v-84h-223v-169c40 15 91 26 145 26z" />
    <glyph glyph-name="uni044E.sc" horiz-adv-x="914" 
d="M570 606c159 0 289 -123 289 -308c0 -186 -130 -309 -289 -309c-145 0 -265 103 -284 263h-103v-252h-89v596h89v-261h102c16 164 138 271 285 271zM570 74c107 0 200 82 200 224c0 141 -93 224 -200 224c-106 0 -198 -83 -198 -224c0 -142 92 -224 198 -224z" />
    <glyph glyph-name="uni044F.sc" horiz-adv-x="543" 
d="M283 596h166v-596h-89v256l-214 -256h-108l205 231c-136 13 -182 95 -182 176c0 126 88 189 222 189zM285 302h75v211h-77c-89 0 -131 -37 -131 -108c0 -70 47 -103 133 -103z" />
    <glyph glyph-name="uni0452.sc" horiz-adv-x="637" 
d="M405 367c113 0 192 -62 192 -178c0 -112 -81 -189 -194 -189h-20v75h14c62 0 110 42 110 110c0 69 -43 102 -115 102c-49 0 -97 -10 -129 -23v-264h-89v510h-144v86h458v-84h-225v-169c40 13 88 24 142 24z" />
    <glyph glyph-name="Alpha" unicode="&#x391;" horiz-adv-x="714" 
d="M703 0h-100l-87 226h-319l-87 -226h-98l292 744h105zM356 640l-129 -331h258z" />
    <glyph glyph-name="Beta" unicode="&#x392;" horiz-adv-x="649" 
d="M457 384c91 -28 137 -93 137 -179c0 -112 -84 -205 -254 -205h-238v744h226c159 0 242 -83 242 -193c0 -89 -49 -142 -113 -167zM194 660v-242h134c97 0 150 53 150 124c0 74 -54 118 -143 118h-141zM338 84c106 0 163 54 163 129c0 82 -67 128 -158 128h-149v-257h144z
" />
    <glyph glyph-name="Gamma" unicode="&#x393;" horiz-adv-x="517" 
d="M102 0v744h393v-87h-300v-657h-93z" />
    <glyph glyph-name="uni0394" unicode="&#x394;" horiz-adv-x="710" 
d="M12 0l290 744h106l290 -744h-686zM140 83h429l-214 559z" />
    <glyph glyph-name="Epsilon" unicode="&#x395;" horiz-adv-x="578" 
d="M102 0v744h408v-87h-315v-237h292v-82h-292v-252h315v-86h-408z" />
    <glyph glyph-name="Zeta" unicode="&#x396;" horiz-adv-x="591" 
d="M567 744l-394 -657h369v-87h-520l394 657h-363v87h514z" />
    <glyph glyph-name="Eta" unicode="&#x397;" horiz-adv-x="783" 
d="M588 0v334h-393v-334h-93v744h93v-323h393v323h93v-744h-93z" />
    <glyph glyph-name="Theta" unicode="&#x398;" horiz-adv-x="849" 
d="M425 -15c-214 0 -371 165 -371 387c0 219 158 387 371 387s370 -168 370 -387c0 -221 -157 -387 -370 -387zM425 72c143 0 276 110 276 300c0 189 -133 300 -276 300c-144 0 -277 -111 -277 -300c0 -191 134 -300 277 -300zM252 334v80h345v-80h-345z" />
    <glyph glyph-name="Iota" unicode="&#x399;" horiz-adv-x="297" 
d="M102 0v744h93v-744h-93z" />
    <glyph glyph-name="Kappa" unicode="&#x39a;" horiz-adv-x="661" 
d="M654 0h-119l-340 364v-364h-93v744h93v-362l338 362h116l-348 -370z" />
    <glyph glyph-name="Lambda" unicode="&#x39b;" horiz-adv-x="689" 
d="M13 0l279 744h105l279 -744h-100l-232 641l-231 -641h-100z" />
    <glyph glyph-name="Mu" unicode="&#x39c;" horiz-adv-x="968" 
d="M233 606l-89 -606h-92l114 744h113l207 -604h1l201 604h115l113 -744h-92l-90 611h-2l-206 -611h-83l-208 606h-2z" />
    <glyph glyph-name="Nu" unicode="&#x39d;" horiz-adv-x="793" 
d="M691 744v-744h-86l-411 594h-1v-594h-91v744h94l404 -584h1v584h90z" />
    <glyph glyph-name="Xi" unicode="&#x39e;" horiz-adv-x="638" 
d="M55 744h528v-88h-528v88zM109 419h420v-86h-420v86zM55 88h528v-88h-528v88z" />
    <glyph glyph-name="Omicron" unicode="&#x39f;" horiz-adv-x="847" 
d="M424 -15c-213 0 -370 165 -370 387c0 219 157 387 370 387c212 0 369 -168 369 -387c0 -221 -157 -387 -369 -387zM424 73c141 0 274 110 274 299s-133 299 -274 299c-143 0 -275 -110 -275 -299c0 -190 134 -299 275 -299z" />
    <glyph glyph-name="Pi" unicode="&#x3a0;" horiz-adv-x="757" 
d="M562 0v657h-367v-657h-93v744h553v-744h-93z" />
    <glyph glyph-name="Rho" unicode="&#x3a1;" horiz-adv-x="612" 
d="M102 0v744h182c176 0 291 -90 291 -242c0 -151 -112 -250 -288 -250h-92v-252h-93zM292 338c116 0 189 60 189 162c0 101 -73 157 -189 157h-97v-319h97z" />
    <glyph glyph-name="Sigma" unicode="&#x3a3;" horiz-adv-x="588" 
d="M170 87h373v-87h-517l207 374l-200 370h500v-87h-354v-1l154 -280l-163 -288v-1z" />
    <glyph glyph-name="Tau" unicode="&#x3a4;" horiz-adv-x="606" 
d="M257 0v657h-235v87h562v-87h-234v-657h-93z" />
    <glyph glyph-name="Upsilon" unicode="&#x3a5;" horiz-adv-x="655" 
d="M283 0v314l-274 430h105l215 -344h1l213 344h103l-272 -429v-315h-91z" />
    <glyph glyph-name="Phi" unicode="&#x3a6;" horiz-adv-x="864" 
d="M477 718c188 0 337 -139 337 -336s-149 -336 -337 -336v-72h-90v72c-188 0 -338 139 -338 336s150 336 338 336v71h90v-71zM387 130v504c-143 0 -246 -107 -246 -252s103 -252 246 -252zM477 130c143 0 246 107 246 252s-103 252 -246 252v-504z" />
    <glyph glyph-name="Chi" unicode="&#x3a7;" horiz-adv-x="658" 
d="M18 0l253 374l-249 370h108l201 -300l199 300h106l-249 -368l255 -376h-107l-207 304l-204 -304h-106z" />
    <glyph glyph-name="Psi" unicode="&#x3a8;" horiz-adv-x="831" 
d="M677 744h93v-283c0 -180 -121 -294 -308 -294v-167h-93v167c-187 0 -307 114 -307 294v283h92v-283c0 -131 79 -208 215 -208v491h93v-491c136 0 215 77 215 208v283z" />
    <glyph glyph-name="uni03A9" unicode="&#x3a9;" horiz-adv-x="861" 
d="M633 80h175v-80h-305v68c97 55 189 171 189 318c1 168 -109 285 -262 285c-154 0 -262 -117 -261 -285c0 -147 92 -263 189 -318v-68h-305v80h176c-84 60 -156 169 -157 317c-1 212 149 362 358 362s358 -150 358 -362c0 -148 -72 -257 -155 -317z" />
    <glyph glyph-name="Alphatonos" unicode="&#x386;" horiz-adv-x="741" 
d="M124 747h90l-69 -225h-67zM730 0h-100l-87 226h-319l-87 -226h-98l292 744h105zM383 640l-129 -331h258z" />
    <glyph glyph-name="Epsilontonos" unicode="&#x388;" horiz-adv-x="696" 
d="M63 747h90l-69 -225h-67zM220 0v744h408v-87h-315v-237h292v-82h-292v-252h315v-86h-408z" />
    <glyph glyph-name="Etatonos" unicode="&#x389;" horiz-adv-x="902" 
d="M63 747h90l-69 -225h-67zM706 0v334h-393v-334h-93v744h93v-323h393v323h93v-744h-93z" />
    <glyph glyph-name="Iotatonos" unicode="&#x38a;" horiz-adv-x="415" 
d="M63 747h90l-69 -225h-67zM220 0v744h93v-744h-93z" />
    <glyph glyph-name="Omicrontonos" unicode="&#x38c;" horiz-adv-x="935" 
d="M512 -15c-213 0 -370 165 -370 387c0 219 157 387 370 387c212 0 369 -168 369 -387c0 -221 -157 -387 -369 -387zM80 747h90l-69 -225h-67zM512 73c141 0 274 110 274 299s-133 299 -274 299c-143 0 -275 -110 -275 -299c0 -190 134 -299 275 -299z" />
    <glyph glyph-name="Upsilontonos" unicode="&#x38e;" horiz-adv-x="848" 
d="M84 747h90l-69 -225h-67zM476 0v314l-274 430h105l215 -344h1l213 344h103l-272 -429v-315h-91z" />
    <glyph glyph-name="Omegatonos" unicode="&#x38f;" horiz-adv-x="940" 
d="M712 80h175v-80h-305v68c97 55 189 171 189 318c1 168 -109 285 -262 285c-154 0 -262 -117 -261 -285c0 -147 92 -263 189 -318v-68h-305v80h176c-84 60 -156 169 -157 317c-1 212 149 362 358 362s358 -150 358 -362c0 -148 -72 -257 -155 -317zM73 747h90l-69 -225
h-67z" />
    <glyph glyph-name="Iotadieresis" unicode="&#x3aa;" horiz-adv-x="297" 
d="M46 849c-29 0 -53 24 -53 53s24 52 53 52c30 0 55 -23 55 -52s-25 -53 -55 -53zM252 849c-30 0 -54 24 -54 53s24 52 54 52s53 -23 53 -52s-23 -53 -53 -53zM102 0v744h93v-744h-93z" />
    <glyph glyph-name="Upsilondieresis" unicode="&#x3ab;" horiz-adv-x="655" 
d="M227 849c-29 0 -53 24 -53 53s24 52 53 52c30 0 55 -23 55 -52s-25 -53 -55 -53zM433 849c-30 0 -54 24 -54 53s24 52 54 52s53 -23 53 -52s-23 -53 -53 -53zM283 0v314l-274 430h105l215 -344h1l213 344h103l-272 -429v-315h-91z" />
    <glyph glyph-name="alpha" unicode="&#x3b1;" horiz-adv-x="677" 
d="M615 73c9 0 17 1 23 2v-78c-10 -2 -26 -4 -40 -4c-66 0 -108 34 -120 97c-46 -69 -115 -102 -186 -102c-128 0 -242 110 -242 282c0 171 114 283 241 283c72 0 145 -35 187 -110l11 98h75v-409c0 -44 16 -59 51 -59zM309 74c93 0 165 80 165 197c0 116 -72 196 -165 196
c-94 0 -166 -80 -166 -197c0 -116 72 -196 166 -196z" />
    <glyph glyph-name="beta" unicode="&#x3b2;" horiz-adv-x="657" 
d="M436 433c107 -30 174 -112 174 -218c0 -128 -99 -226 -238 -226c-90 0 -166 38 -198 79v-278h-91v767c0 149 97 248 243 248c134 0 223 -78 223 -197c0 -77 -44 -143 -113 -175zM353 72c100 0 165 61 165 155c0 96 -74 159 -186 159h-52v75h37c88 0 143 56 143 139
c0 79 -49 123 -134 123c-93 0 -152 -62 -152 -159v-417c38 -46 108 -75 179 -75z" />
    <glyph glyph-name="gamma" unicode="&#x3b3;" horiz-adv-x="570" 
d="M522 541c0 -176 -86 -387 -201 -523v-228h-92v217l-214 534h97l167 -440h2c73 87 151 273 151 440h90z" />
    <glyph glyph-name="delta" unicode="&#x3b4;" horiz-adv-x="625" 
d="M363 520c137 -77 214 -154 214 -282c0 -143 -106 -251 -269 -251c-151 0 -260 95 -260 241c0 115 79 219 201 261c-83 49 -127 94 -127 163c0 94 80 153 214 153c62 0 134 -17 193 -39l-1 -86c-67 30 -136 44 -187 44c-71 0 -124 -22 -124 -75c0 -44 31 -65 146 -129z
M310 72c104 0 175 68 175 167c0 85 -45 142 -163 207c-108 -35 -183 -125 -183 -214c0 -98 68 -160 171 -160z" />
    <glyph glyph-name="epsilon" unicode="&#x3b5;" horiz-adv-x="512" 
d="M285 68c68 0 126 14 179 39v-82c-50 -22 -119 -37 -189 -37c-142 0 -223 57 -223 157c0 61 46 113 106 133c-55 17 -91 68 -91 125c0 94 77 150 207 150c65 0 141 -16 184 -38v-81c-44 22 -116 39 -175 39c-81 0 -124 -27 -124 -77c0 -51 45 -84 111 -84h119v-74h-116
c-73 0 -128 -32 -128 -87s48 -83 140 -83z" />
    <glyph glyph-name="zeta" unicode="&#x3b6;" horiz-adv-x="481" 
d="M471 745c-207 -200 -329 -381 -329 -487c0 -65 25 -95 110 -132l118 -50c64 -27 97 -70 97 -128c0 -50 -18 -97 -60 -158h-105c48 58 71 105 71 145c0 32 -19 53 -69 74l-104 42c-107 45 -153 104 -153 198c0 115 88 258 288 468h-251v83h387v-55z" />
    <glyph glyph-name="eta" unicode="&#x3b7;" horiz-adv-x="627" 
d="M356 553c117 0 193 -76 193 -195v-568h-92v535c0 95 -43 140 -125 140c-76 0 -135 -56 -135 -135v-330h-92v410c0 45 -15 59 -50 59c-8 0 -17 -1 -23 -2v78c10 3 26 4 41 4c63 0 104 -30 117 -89c32 50 90 93 166 93z" />
    <glyph glyph-name="theta" unicode="&#x3b8;" horiz-adv-x="655" 
d="M328 802c161 0 268 -148 268 -405c0 -260 -106 -410 -268 -410s-269 150 -269 410c0 257 108 405 269 405zM328 718c-104 0 -171 -98 -180 -279h360c-9 181 -77 279 -180 279zM328 71c106 0 173 102 180 292h-360c7 -189 74 -292 180 -292z" />
    <glyph glyph-name="iota" unicode="&#x3b9;" horiz-adv-x="338" 
d="M268 -7c-115 0 -187 57 -187 186v362h92v-355c0 -77 33 -112 112 -112c16 0 32 2 48 5v-79c-21 -5 -42 -7 -65 -7z" />
    <glyph glyph-name="kappa" unicode="&#x3ba;" horiz-adv-x="584" 
d="M460 0l-169 252l-116 -134v-118h-92v541h92v-312l273 312h107l-200 -229l213 -312h-108z" />
    <glyph glyph-name="lambda" unicode="&#x3bb;" horiz-adv-x="570" 
d="M543 0h-95l-159 429h-2l-172 -429h-98l228 533l-48 123c-18 46 -45 66 -90 66c-14 0 -28 -2 -40 -5v78c18 5 39 7 58 7c74 0 121 -33 149 -106z" />
    <glyph glyph-name="uni03BC" unicode="&#x3bc;" horiz-adv-x="633" 
d="M580 73c8 0 16 1 22 2v-78c-9 -2 -25 -4 -39 -4c-59 0 -99 29 -114 83c-26 -48 -82 -86 -148 -86c-59 0 -110 26 -137 69l12 -269h-93v751h92v-330c0 -84 50 -134 130 -134c79 0 130 45 130 138v326h92v-409c0 -44 17 -59 53 -59z" />
    <glyph glyph-name="nu" unicode="&#x3bd;" horiz-adv-x="566" 
d="M222 0l-206 541h98l163 -453h2c78 96 149 294 149 453h91c0 -182 -89 -405 -210 -541h-87z" />
    <glyph glyph-name="xi" unicode="&#x3be;" horiz-adv-x="519" 
d="M325 718c-104 0 -162 -42 -162 -118c0 -79 57 -126 154 -126h100v-80h-96c-108 0 -180 -55 -180 -137c0 -60 28 -93 105 -125l132 -56c64 -27 97 -70 97 -128c0 -50 -18 -98 -60 -158h-105c48 59 71 105 71 145c0 32 -20 53 -70 74l-110 45c-108 45 -154 101 -154 187
c0 88 55 162 139 195c-70 32 -113 96 -113 171c0 121 93 196 245 196c61 0 135 -15 175 -36v-87c-43 22 -113 38 -168 38z" />
    <glyph glyph-name="omicron" unicode="&#x3bf;" horiz-adv-x="637" 
d="M319 -12c-154 0 -270 119 -270 282s116 283 270 283c153 0 268 -120 268 -283c0 -162 -115 -282 -268 -282zM319 74c90 0 176 72 176 196c0 125 -86 197 -176 197c-91 0 -177 -72 -177 -197s86 -196 177 -196z" />
    <glyph glyph-name="rho" unicode="&#x3c1;" horiz-adv-x="645" 
d="M71 -210v450c0 194 99 313 261 313c151 0 263 -120 263 -283c0 -160 -107 -282 -245 -282c-78 0 -151 41 -186 104h-1v-302h-92zM333 74c99 0 170 83 170 197c0 113 -73 196 -172 196c-98 0 -168 -84 -168 -202c0 -109 74 -191 170 -191z" />
    <glyph glyph-name="uni03C2" unicode="&#x3c2;" horiz-adv-x="510" 
d="M296 -210c49 60 71 106 71 145c0 32 -18 52 -69 74l-94 40c-106 45 -155 120 -155 225c0 162 115 279 272 279c60 0 110 -13 150 -38v-94c-43 32 -86 46 -144 46c-107 0 -186 -81 -186 -191c0 -72 32 -120 109 -152l114 -48c64 -28 97 -71 97 -128
c0 -51 -19 -99 -60 -158h-105z" />
    <glyph glyph-name="sigma" unicode="&#x3c3;" horiz-adv-x="659" 
d="M646 541v-81h-169c66 -47 102 -118 102 -203c0 -154 -113 -269 -263 -269c-154 0 -267 118 -267 276c0 159 114 276 266 277h331zM316 74c98 0 172 81 172 193c0 109 -73 190 -172 190c-101 0 -174 -81 -174 -192c0 -110 74 -191 174 -191z" />
    <glyph glyph-name="tau" unicode="&#x3c4;" horiz-adv-x="532" 
d="M501 460h-215v-267c0 -88 42 -119 119 -119c17 0 36 2 51 5v-79c-18 -5 -44 -7 -69 -7c-122 0 -193 58 -193 188v279h-174v81h481v-81z" />
    <glyph glyph-name="upsilon" unicode="&#x3c5;" horiz-adv-x="595" 
d="M298 -12c-140 0 -221 81 -221 219v334h92v-330c0 -92 44 -138 131 -138c97 0 147 68 147 199c0 95 -23 190 -65 269h97c39 -76 60 -170 60 -272c0 -177 -89 -281 -241 -281z" />
    <glyph glyph-name="phi" unicode="&#x3c6;" horiz-adv-x="770" 
d="M720 270c0 -171 -122 -279 -290 -280v-200h-90v200c-168 1 -291 109 -291 280s122 279 291 280v154h90v-154c168 -1 290 -109 290 -280zM140 270c0 -122 79 -200 200 -201v402c-121 -1 -200 -79 -200 -201zM430 69c120 1 199 79 199 201s-79 200 -199 201v-402z" />
    <glyph glyph-name="chi" unicode="&#x3c7;" horiz-adv-x="511" 
d="M503 -210h-98l-154 290l-136 -290h-93l186 372l-201 379h98l158 -299l141 299h92l-189 -381z" />
    <glyph glyph-name="psi" unicode="&#x3c8;" horiz-adv-x="759" 
d="M702 279c0 -179 -105 -288 -275 -291v-204h-90v204c-169 1 -260 85 -260 239v314h91v-314c0 -105 53 -153 169 -154v631h90v-631c118 2 184 76 184 207c0 95 -18 184 -55 261h95c34 -79 51 -168 51 -262z" />
    <glyph glyph-name="omega" unicode="&#x3c9;" horiz-adv-x="845" 
d="M714 541c48 -81 76 -189 76 -291c0 -163 -74 -260 -199 -260c-80 0 -138 43 -168 123c-30 -81 -88 -123 -169 -123c-125 0 -199 97 -199 260c0 104 29 212 77 291h96c-51 -82 -81 -190 -81 -292c0 -114 38 -174 113 -174c73 0 117 62 117 170v167h92v-167
c0 -108 43 -170 117 -170s112 59 112 174c0 102 -30 211 -79 292h95z" />
    <glyph glyph-name="iotatonos" unicode="&#x3af;" horiz-adv-x="338" 
d="M158 858h88l-89 -225h-65zM268 -7c-115 0 -187 57 -187 186v362h92v-355c0 -77 33 -112 112 -112c16 0 32 2 48 5v-79c-21 -5 -42 -7 -65 -7z" />
    <glyph glyph-name="iotadieresis" unicode="&#x3ca;" horiz-adv-x="338" 
d="M33 645c-29 0 -53 24 -53 53s24 52 53 52c30 0 55 -23 55 -52s-25 -53 -55 -53zM239 645c-30 0 -54 24 -54 53s24 52 54 52s53 -23 53 -52s-23 -53 -53 -53zM268 -7c-115 0 -187 57 -187 186v362h92v-355c0 -77 33 -112 112 -112c16 0 32 2 48 5v-79
c-21 -5 -42 -7 -65 -7z" />
    <glyph glyph-name="iotadieresistonos" unicode="&#x390;" horiz-adv-x="338" 
d="M78 633l66 225h88l-89 -225h-65zM6 647c-27 0 -49 22 -49 49s22 48 49 48c28 0 50 -21 50 -48s-22 -49 -50 -49zM261 647c-27 0 -49 22 -49 49s22 48 49 48c28 0 50 -21 50 -48s-22 -49 -50 -49zM268 -7c-115 0 -187 57 -187 186v362h92v-355c0 -77 33 -112 112 -112
c16 0 32 2 48 5v-79c-21 -5 -42 -7 -65 -7z" />
    <glyph glyph-name="upsilontonos" unicode="&#x3cd;" horiz-adv-x="595" 
d="M312 858h88l-89 -225h-65zM298 -12c-140 0 -221 81 -221 219v334h92v-330c0 -92 44 -138 131 -138c97 0 147 68 147 199c0 95 -23 190 -65 269h97c39 -76 60 -170 60 -272c0 -177 -89 -281 -241 -281z" />
    <glyph glyph-name="upsilondieresis" unicode="&#x3cb;" horiz-adv-x="595" 
d="M183 645c-29 0 -53 24 -53 53s24 52 53 52c30 0 55 -23 55 -52s-25 -53 -55 -53zM389 645c-30 0 -54 24 -54 53s24 52 54 52s53 -23 53 -52s-23 -53 -53 -53zM298 -12c-140 0 -221 81 -221 219v334h92v-330c0 -92 44 -138 131 -138c97 0 147 68 147 199
c0 95 -23 190 -65 269h97c39 -76 60 -170 60 -272c0 -177 -89 -281 -241 -281z" />
    <glyph glyph-name="upsilondieresistonos" unicode="&#x3b0;" horiz-adv-x="595" 
d="M232 633l66 225h88l-89 -225h-65zM160 647c-27 0 -49 22 -49 49s22 48 49 48c28 0 50 -21 50 -48s-22 -49 -50 -49zM415 647c-27 0 -49 22 -49 49s22 48 49 48c28 0 50 -21 50 -48s-22 -49 -50 -49zM298 -12c-140 0 -221 81 -221 219v334h92v-330c0 -92 44 -138 131 -138
c97 0 147 68 147 199c0 95 -23 190 -65 269h97c39 -76 60 -170 60 -272c0 -177 -89 -281 -241 -281z" />
    <glyph glyph-name="omicrontonos" unicode="&#x3cc;" horiz-adv-x="637" 
d="M340 858h88l-89 -225h-65zM319 -12c-154 0 -270 119 -270 282s116 283 270 283c153 0 268 -120 268 -283c0 -162 -115 -282 -268 -282zM319 74c90 0 176 72 176 196c0 125 -86 197 -176 197c-91 0 -177 -72 -177 -197s86 -196 177 -196z" />
    <glyph glyph-name="omegatonos" unicode="&#x3ce;" horiz-adv-x="845" 
d="M537 858l-89 -225h-65l66 225h88zM714 541c48 -81 76 -189 76 -291c0 -163 -74 -260 -199 -260c-80 0 -138 43 -168 123c-30 -81 -88 -123 -169 -123c-125 0 -199 97 -199 260c0 104 29 212 77 291h96c-51 -82 -81 -190 -81 -292c0 -114 38 -174 113 -174
c73 0 117 62 117 170v167h92v-167c0 -108 43 -170 117 -170s112 59 112 174c0 102 -30 211 -79 292h95z" />
    <glyph glyph-name="alphatonos" unicode="&#x3ac;" horiz-adv-x="677" 
d="M456 858l-89 -225h-65l66 225h88zM615 73c9 0 17 1 23 2v-78c-10 -2 -26 -4 -40 -4c-66 0 -108 34 -120 97c-46 -69 -115 -102 -186 -102c-128 0 -242 110 -242 282c0 171 114 283 241 283c72 0 145 -35 187 -110l11 98h75v-409c0 -44 16 -59 51 -59zM309 74
c93 0 165 80 165 197c0 116 -72 196 -165 196c-94 0 -166 -80 -166 -197c0 -116 72 -196 166 -196z" />
    <glyph glyph-name="epsilontonos" unicode="&#x3ad;" horiz-adv-x="512" 
d="M385 858l-89 -225h-65l66 225h88zM285 68c68 0 126 14 179 39v-82c-50 -22 -119 -37 -189 -37c-142 0 -223 57 -223 157c0 61 46 113 106 133c-55 17 -91 68 -91 125c0 94 77 150 207 150c65 0 141 -16 184 -38v-81c-44 22 -116 39 -175 39c-81 0 -124 -27 -124 -77
c0 -51 45 -84 111 -84h119v-74h-116c-73 0 -128 -32 -128 -87s48 -83 140 -83z" />
    <glyph glyph-name="etatonos" unicode="&#x3ae;" horiz-adv-x="627" 
d="M420 858l-89 -225h-65l66 225h88zM356 553c117 0 193 -76 193 -195v-568h-92v535c0 95 -43 140 -125 140c-76 0 -135 -56 -135 -135v-330h-92v410c0 45 -15 59 -50 59c-8 0 -17 -1 -23 -2v78c10 3 26 4 41 4c63 0 104 -30 117 -89c32 50 90 93 166 93z" />
    <glyph glyph-name="iotadieresistonos.001" horiz-adv-x="338" 
d="M104 633l66 225h88l-89 -225h-65zM32 647c-27 0 -49 22 -49 49s22 48 49 48c28 0 50 -21 50 -48s-22 -49 -50 -49zM287 647c-27 0 -49 22 -49 49s22 48 49 48c28 0 50 -21 50 -48s-22 -49 -50 -49zM268 -7c-115 0 -187 57 -187 186v362h92v-355c0 -77 33 -112 112 -112
c16 0 32 2 48 5v-79c-21 -5 -42 -7 -65 -7z" />
    <glyph glyph-name="alpha.sc" horiz-adv-x="574" 
d="M460 0l-58 173h-230l-59 -173h-90l211 596h107l210 -596h-91zM197 247h180l-88 264h-2z" />
    <glyph glyph-name="beta.sc" horiz-adv-x="554" 
d="M394 307c70 -24 106 -71 106 -143c0 -99 -79 -164 -217 -164h-189v596h178c132 0 205 -59 205 -158c0 -61 -29 -107 -83 -131zM182 518v-181h94c70 -1 115 35 115 93c0 57 -42 88 -116 88h-93zM283 78c80 0 128 35 128 96c0 60 -46 93 -128 93h-101v-189h101z" />
    <glyph glyph-name="gamma.sc" horiz-adv-x="449" 
d="M94 0v596h326v-86h-237v-510h-89z" />
    <glyph glyph-name="delta.sc" horiz-adv-x="578" 
d="M342 596l212 -596h-531l213 596h106zM139 77h299l-147 435h-2z" />
    <glyph glyph-name="epsilon.sc" horiz-adv-x="495" 
d="M94 0v596h335v-81h-246v-175h227v-74h-227v-185h246v-81h-335z" />
    <glyph glyph-name="zeta.sc" horiz-adv-x="516" 
d="M483 596l-313 -513h297v-83h-439l313 513h-285v83h427z" />
    <glyph glyph-name="eta.sc" horiz-adv-x="660" 
d="M477 0v258h-294v-258h-89v596h89v-253h294v253h89v-596h-89z" />
    <glyph glyph-name="theta.sc" horiz-adv-x="706" 
d="M353 -10c-160 0 -299 122 -299 307c0 186 139 309 299 309c159 0 300 -123 300 -309c0 -185 -141 -307 -300 -307zM353 74c107 0 210 81 210 223s-103 225 -210 225s-210 -83 -210 -225s103 -223 210 -223zM224 262v74h258v-74h-258z" />
    <glyph glyph-name="iota.sc" horiz-adv-x="276" 
d="M94 0v596h89v-596h-89z" />
    <glyph glyph-name="kappa.sc" horiz-adv-x="545" 
d="M524 0h-106l-235 303v-303h-89v596h89v-278l236 278h104l-245 -285z" />
    <glyph glyph-name="lambda.sc" horiz-adv-x="566" 
d="M24 0l206 596h106l205 -596h-90l-166 511h-2l-169 -511h-90z" />
    <glyph glyph-name="uni03BC.sc" horiz-adv-x="800" 
d="M205 478l-64 -478h-87l89 596h106l151 -475h2l150 475h107l87 -596h-86l-65 478h-2l-154 -478h-82l-150 478h-2z" />
    <glyph glyph-name="nu.sc" horiz-adv-x="665" 
d="M572 596v-596h-89l-304 465v-465h-85v596h91l301 -463v463h86z" />
    <glyph glyph-name="xi.sc" horiz-adv-x="547" 
d="M56 512v84h436v-84h-436zM102 263v77h343v-77h-343zM56 0v83h436v-83h-436z" />
    <glyph glyph-name="omicron.sc" horiz-adv-x="705" 
d="M352 606c159 0 299 -123 299 -309c0 -185 -140 -307 -299 -307s-298 122 -298 307c0 186 139 309 298 309zM352 521c-105 0 -207 -83 -207 -224c0 -140 102 -222 207 -222s207 82 207 222c0 141 -102 224 -207 224z" />
    <glyph glyph-name="pi.sc" horiz-adv-x="646" 
d="M463 0v514h-280v-514h-89v596h459v-596h-90z" />
    <glyph glyph-name="rho.sc" horiz-adv-x="520" 
d="M94 596h144c151 0 242 -77 242 -198s-90 -209 -240 -209h-57v-189h-89v596zM243 269c99 0 147 54 147 127c0 70 -49 116 -147 116h-60v-243h60z" />
    <glyph glyph-name="sigma.sc" horiz-adv-x="508" 
d="M168 81h292v-81h-429l169 299l-164 297h416v-81h-277v-1l118 -212l-125 -219v-2z" />
    <glyph glyph-name="tau.sc" horiz-adv-x="524" 
d="M217 0v510h-188v86h466v-86h-188v-510h-90z" />
    <glyph glyph-name="upsilon.sc" horiz-adv-x="563" 
d="M545 596l-218 -347v-249h-90v248l-219 348h102l164 -268h1l162 268h98z" />
    <glyph glyph-name="phi.sc" horiz-adv-x="737" 
d="M411 573c161 0 277 -110 277 -267s-116 -268 -277 -268v-60h-85v60c-161 0 -277 111 -277 268c0 156 116 267 277 267v62h85v-62zM326 114v383c-112 0 -188 -79 -188 -191c0 -113 76 -192 188 -192zM411 114c113 0 189 79 189 192c0 112 -76 191 -189 191v-383z" />
    <glyph glyph-name="chi.sc" horiz-adv-x="548" 
d="M517 596l-190 -296l194 -300h-100l-148 237l-147 -237h-99l192 299l-189 297h100l143 -233l144 233h100z" />
    <glyph glyph-name="psi.sc" horiz-adv-x="716" 
d="M567 596h88v-225c0 -153 -109 -241 -253 -240v-131h-88v131c-144 -1 -254 87 -254 240v225h89v-230c0 -94 62 -153 165 -153v383h88v-383c103 0 165 59 165 153v230z" />
    <glyph glyph-name="omega.sc" horiz-adv-x="727" 
d="M550 76h122v-76h-250v55c73 46 142 133 143 253c0 127 -84 212 -201 212c-118 0 -202 -85 -202 -212c1 -119 70 -207 143 -253v-55h-250v76h122c-56 49 -107 134 -107 241c0 167 122 289 294 289s293 -122 293 -289c0 -107 -50 -192 -107 -241z" />
    <glyph glyph-name="iotatonos.sc" horiz-adv-x="276" 
d="M94 0v596h89v-596h-89z" />
    <glyph glyph-name="iotadieresis.sc" horiz-adv-x="276" 
d="M36 700c-29 0 -53 24 -53 53s24 52 53 52c30 0 55 -23 55 -52s-25 -53 -55 -53zM242 700c-30 0 -54 24 -54 53s24 52 54 52s53 -23 53 -52s-23 -53 -53 -53zM94 0v596h89v-596h-89z" />
    <glyph glyph-name="upsilontonos.sc" horiz-adv-x="563" 
d="M545 596l-218 -347v-249h-90v248l-219 348h102l164 -268h1l162 268h98z" />
    <glyph glyph-name="upsilondieresis.sc" horiz-adv-x="563" 
d="M179 700c-29 0 -53 24 -53 53s24 52 53 52c30 0 55 -23 55 -52s-25 -53 -55 -53zM385 700c-30 0 -54 24 -54 53s24 52 54 52s53 -23 53 -52s-23 -53 -53 -53zM545 596l-218 -347v-249h-90v248l-219 348h102l164 -268h1l162 268h98z" />
    <glyph glyph-name="omicrontonos.sc" horiz-adv-x="705" 
d="M352 606c159 0 299 -123 299 -309c0 -185 -140 -307 -299 -307s-298 122 -298 307c0 186 139 309 298 309zM352 521c-105 0 -207 -83 -207 -224c0 -140 102 -222 207 -222s207 82 207 222c0 141 -102 224 -207 224z" />
    <glyph glyph-name="omegatonos.sc" horiz-adv-x="727" 
d="M550 76h122v-76h-250v55c73 46 142 133 143 253c0 127 -84 212 -201 212c-118 0 -202 -85 -202 -212c1 -119 70 -207 143 -253v-55h-250v76h122c-56 49 -107 134 -107 241c0 167 122 289 294 289s293 -122 293 -289c0 -107 -50 -192 -107 -241z" />
    <glyph glyph-name="alphatonos.sc" horiz-adv-x="574" 
d="M460 0l-58 173h-230l-59 -173h-90l211 596h107l210 -596h-91zM197 247h180l-88 264h-2z" />
    <glyph glyph-name="epsilontonos.sc" horiz-adv-x="495" 
d="M94 0v596h335v-81h-246v-175h227v-74h-227v-185h246v-81h-335z" />
    <glyph glyph-name="etatonos.sc" horiz-adv-x="660" 
d="M477 0v258h-294v-258h-89v596h89v-253h294v253h89v-596h-89z" />
    <glyph glyph-name="one.ss01" horiz-adv-x="546" 
d="M516 86v-86h-449v86h182v532l-185 -79v97l268 111h9v-661h175z" />
    <glyph glyph-name="one.osf.ss01" horiz-adv-x="467" 
d="M429 83v-83h-356v83h136v346l-144 -53v88l228 86h8v-467h128z" />
    <glyph glyph-name="zero.sc" horiz-adv-x="584" 
d="M292 -10c-128 0 -232 117 -232 309c0 190 104 307 232 307c127 0 231 -117 231 -307c0 -192 -103 -309 -231 -309zM292 75c77 0 143 82 143 224c0 140 -66 221 -143 221s-144 -81 -144 -221c0 -142 67 -224 144 -224z" />
    <glyph glyph-name="one.sc" horiz-adv-x="351" 
d="M156 0v481l-116 -46v86l195 78h9v-599h-88z" />
    <glyph glyph-name="two.sc" horiz-adv-x="500" 
d="M447 82v-82h-410c260 288 294 335 294 408c0 61 -44 107 -120 107c-57 0 -109 -27 -143 -63v97c38 31 92 53 159 53c119 0 196 -81 196 -184c0 -97 -75 -181 -215 -336h239z" />
    <glyph glyph-name="three.sc" horiz-adv-x="494" 
d="M77 565c35 25 91 41 147 41c117 0 191 -72 191 -159c0 -61 -37 -114 -95 -138v-2c56 -14 115 -61 115 -142c0 -90 -73 -175 -208 -175c-69 0 -125 22 -169 53v92c41 -37 98 -62 162 -62c77 0 126 37 126 98c0 63 -52 98 -155 98h-57v74h57c94 0 135 38 135 92
c0 55 -44 88 -113 88c-51 0 -104 -19 -136 -40v82z" />
    <glyph glyph-name="four.sc" horiz-adv-x="545" 
d="M502 218v-74h-101v-144h-87v144h-278v58l279 394h86v-378h101zM134 218h180v260h-1l-178 -258z" />
    <glyph glyph-name="five.sc" horiz-adv-x="490" 
d="M408 596v-82h-207l-28 -150c16 4 38 7 60 7c116 0 203 -75 203 -185s-84 -196 -219 -196c-64 0 -121 20 -164 54v98c46 -50 107 -70 160 -70c78 0 134 43 134 111c0 65 -52 117 -147 117c-49 0 -79 -13 -106 -22l-10 7l56 311h268z" />
    <glyph glyph-name="six.sc" horiz-adv-x="530" 
d="M285 397c112 0 196 -84 196 -197c0 -119 -89 -210 -214 -210c-123 0 -212 89 -212 208c0 66 28 121 70 170l192 228h107l-174 -201c11 1 23 2 35 2zM269 73c72 0 124 54 124 127c0 72 -55 126 -130 126c-30 0 -55 -7 -79 -20c-33 -40 -41 -75 -41 -106
c0 -72 52 -127 126 -127z" />
    <glyph glyph-name="seven.sc" horiz-adv-x="472" 
d="M52 596h409l-313 -596h-94l273 511h-275v85z" />
    <glyph glyph-name="eight.sc" horiz-adv-x="543" 
d="M272 606c115 0 194 -72 194 -163c0 -66 -38 -111 -89 -135v-1c70 -27 107 -81 107 -146c0 -95 -86 -171 -212 -171c-127 0 -213 76 -213 171c0 65 38 119 108 146v1c-52 23 -90 69 -90 135c0 91 80 163 195 163zM163 435c0 -53 45 -95 109 -95c63 0 109 42 109 95
c0 51 -46 92 -109 92c-64 0 -109 -41 -109 -92zM272 271c-73 0 -124 -46 -124 -105c0 -54 51 -97 124 -97c72 0 124 43 124 97c0 59 -52 105 -124 105z" />
    <glyph glyph-name="nine.sc" horiz-adv-x="529" 
d="M264 606c122 0 211 -89 211 -208c0 -66 -28 -121 -70 -170l-192 -228h-108l175 202c-10 -2 -22 -3 -35 -3c-112 0 -196 83 -196 196c0 120 89 211 215 211zM346 289c33 41 42 76 42 106c0 73 -53 128 -127 128c-72 0 -123 -54 -123 -127c0 -72 54 -126 129 -126
c30 0 55 7 79 19z" />
    <glyph glyph-name="one.sc.ss01" horiz-adv-x="459" 
d="M427 81v-81h-363v81h142v397l-143 -57v84l222 94h9v-518h133z" />
    <glyph glyph-name="colon.tf" 
d="M340 334c-36 0 -62 27 -62 62c0 36 26 63 62 63c35 0 62 -27 62 -63c0 -35 -27 -62 -62 -62zM340 -5c-36 0 -62 27 -62 62c0 36 26 63 62 63c35 0 62 -27 62 -63c0 -35 -27 -62 -62 -62z" />
    <glyph glyph-name="comma.tf" 
d="M239 -133c21 68 42 147 42 229v45h87v-41c0 -75 -33 -170 -60 -233h-69z" />
    <glyph glyph-name="numbersign.tf" 
d="M643 452h-128l-25 -161h122v-74h-134l-35 -217h-83l35 217h-161l-35 -217h-84l35 217h-114v74h126l25 161h-120v74h132l35 218h84l-35 -218h161l35 218h83l-35 -218h116v-74zM407 291l25 161h-161l-25 -161h161z" />
    <glyph glyph-name="period.tf" 
d="M340 -5c-36 0 -62 27 -62 62c0 36 26 63 62 63c35 0 62 -27 62 -63c0 -35 -27 -62 -62 -62z" />
    <glyph glyph-name="semicolon.tf" 
d="M339 334c-36 0 -62 27 -62 62c0 36 26 63 62 63c35 0 62 -27 62 -63c0 -35 -27 -62 -62 -62zM263 -133c21 68 42 147 42 229v45h87v-41c0 -75 -33 -170 -60 -233h-69z" />
    <glyph glyph-name="parenleft.tf" 
d="M501 744c-109 -105 -190 -257 -190 -436c0 -180 82 -332 190 -437h-102c-105 113 -176 261 -176 437c0 174 71 323 176 436h102z" />
    <glyph glyph-name="parenright.tf" 
d="M179 744h102c105 -113 176 -262 176 -436c0 -176 -71 -324 -176 -437h-102c108 105 190 257 190 437c0 179 -81 331 -190 436z" />
    <glyph glyph-name="endash.tf" 
d="M155 279v80h369v-80h-369z" />
    <glyph glyph-name="asterisk.sc" horiz-adv-x="478" 
d="M277 638l-14 -140l132 56l26 -75l-141 -30l95 -106l-63 -44l-74 121l-73 -121l-62 44l94 106l-139 30l24 74l131 -55l-14 140h78z" />
    <glyph glyph-name="backslash.sc" horiz-adv-x="416" 
d="M380 -36h-84l-260 666h86z" />
    <glyph glyph-name="periodcentered.sc" horiz-adv-x="278" 
d="M139 235c-36 0 -62 27 -62 62c0 36 26 63 62 63c35 0 62 -27 62 -63c0 -35 -27 -62 -62 -62z" />
    <glyph glyph-name="braceleft.sc" horiz-adv-x="359" 
d="M305 708v-74c-64 6 -91 -22 -91 -68v-142c0 -52 -17 -105 -77 -123v-2c60 -18 77 -71 77 -124v-141c0 -45 28 -73 91 -67v-74c-106 -13 -167 42 -167 129v153c0 38 -15 83 -93 93v62c78 12 93 56 93 95v154c0 86 60 142 167 129z" />
    <glyph glyph-name="braceright.sc" horiz-adv-x="359" 
d="M221 579v-154c0 -39 15 -83 93 -95v-62c-78 -10 -93 -55 -93 -93v-153c0 -87 -61 -142 -167 -129v74c63 -6 91 22 91 67v141c0 53 17 106 77 124v2c-60 18 -77 71 -77 123v142c0 46 -27 74 -91 68v74c107 13 167 -43 167 -129z" />
    <glyph glyph-name="bracketleft.sc" horiz-adv-x="324" 
d="M85 -107v815h185v-75h-108v-665h108v-75h-185z" />
    </font>
</defs>
</svg>
