<?xml version="1.0" standalone="no"?>
<!DOCTYPE svg PUBLIC "-//W3C//DTD SVG 1.1//EN" "http://www.w3.org/Graphics/SVG/1.1/DTD/svg11.dtd" >
<svg xmlns="http://www.w3.org/2000/svg" xmlns:xlink="http://www.w3.org/1999/xlink" version="1.1">
<metadata>
Created by FontForge 20190801 at Wed Jul  5 12:52:21 2017
 By Jimmy Wärting
Copyright 2015 \(c\) Newlyn Works Limited
</metadata>
<defs>
<font id="HeroNew-Medium" horiz-adv-x="680" >
  <font-face 
    font-family="Hero New Medium"
    font-weight="500"
    font-stretch="normal"
    units-per-em="1000"
    panose-1="2 0 6 0 0 0 0 0 0 0"
    ascent="800"
    descent="-200"
    x-height="546"
    cap-height="744"
    bbox="-199.306 -295 1310 1049"
    underline-thickness="50"
    underline-position="-100"
    stemh="111"
    stemv="119"
    unicode-range="U+000D-FB02"
  />
<missing-glyph horiz-adv-x="732" 
d="M657 744v-744h-583v744h583zM507 659h-282l141 -216zM163 610v-476l155 238zM569 610l-156 -238l156 -238v476zM366 300l-141 -215h282z" />
    <glyph glyph-name="fi" unicode="fi" horiz-adv-x="686" 
d="M111 0v446h-77v100h77v72c0 105 75 190 197 190c34 0 66 -6 97 -16v-104c-20 7 -51 14 -79 14c-64 0 -98 -30 -98 -97v-59h152v-100h-151v-446h-118zM548 652c-39 0 -69 29 -69 67c0 39 30 68 69 68s69 -29 69 -68c0 -38 -30 -67 -69 -67zM489 0v546h118v-546h-118z" />
    <glyph glyph-name="fl" unicode="fl" horiz-adv-x="689" 
d="M111 0v446h-77v100h77v72c0 105 75 190 197 190c34 0 66 -6 97 -16v-104c-20 7 -51 14 -79 14c-64 0 -98 -30 -98 -97v-59h152v-100h-151v-446h-118zM492 0v801h118v-801h-118z" />
    <glyph glyph-name=".notdef" horiz-adv-x="732" 
d="M657 744v-744h-583v744h583zM507 659h-282l141 -216zM163 610v-476l155 238zM569 610l-156 -238l156 -238v476zM366 300l-141 -215h282z" />
    <glyph glyph-name="NULL" horiz-adv-x="0" 
 />
    <glyph glyph-name="CR" unicode="&#xd;" horiz-adv-x="286" 
 />
    <glyph glyph-name="space" unicode=" " horiz-adv-x="263" 
 />
    <glyph glyph-name="uni00A0" unicode="&#xa0;" horiz-adv-x="263" 
 />
    <glyph glyph-name="A" unicode="A" horiz-adv-x="730" 
d="M722 0h-127l-79 209h-303l-79 -209h-125l287 744h137zM364 616l-115 -304h231z" />
    <glyph glyph-name="B" unicode="B" horiz-adv-x="661" 
d="M476 384c89 -28 135 -92 135 -178c0 -111 -85 -206 -258 -206h-259v744h246c163 0 248 -85 248 -195c0 -86 -48 -141 -112 -165zM213 640v-215h125c87 0 135 47 135 110c0 64 -48 105 -130 105h-130zM346 105c96 0 147 48 147 115c0 71 -59 113 -142 113h-138v-228h133z
" />
    <glyph glyph-name="C" unicode="C" horiz-adv-x="669" 
d="M623 35c-50 -27 -115 -50 -200 -50c-199 0 -375 151 -375 388c0 236 176 387 375 387c85 0 150 -23 200 -50v-123c-59 38 -114 61 -191 61c-134 0 -262 -104 -262 -276c0 -170 128 -275 262 -275c77 0 132 24 191 62v-124z" />
    <glyph glyph-name="D" unicode="D" horiz-adv-x="738" 
d="M289 744c241 0 400 -148 400 -372c0 -225 -163 -372 -400 -372h-195v744h195zM214 634v-524h80c160 0 273 95 273 262c0 168 -113 262 -272 262h-81z" />
    <glyph glyph-name="E" unicode="E" horiz-adv-x="589" 
d="M94 0v744h431v-109h-311v-205h286v-103h-286v-218h311v-109h-431z" />
    <glyph glyph-name="F" unicode="F" horiz-adv-x="572" 
d="M94 0v744h427v-110h-307v-231h291v-105h-291v-298h-120z" />
    <glyph glyph-name="G" unicode="G" horiz-adv-x="730" 
d="M170 371c0 -163 111 -275 254 -275c55 0 92 10 131 29v277h112v-349c-70 -43 -147 -69 -245 -69c-200 0 -374 152 -374 388s173 388 376 388c83 0 160 -21 219 -55v-122c-65 43 -136 62 -209 62c-150 0 -264 -113 -264 -274z" />
    <glyph glyph-name="H" unicode="H" horiz-adv-x="787" 
d="M573 0v320h-359v-320h-120v744h120v-313h359v313h120v-744h-120z" />
    <glyph glyph-name="I" unicode="I" horiz-adv-x="308" 
d="M94 0v744h120v-744h-120z" />
    <glyph glyph-name="J" unicode="J" horiz-adv-x="476" 
d="M28 161c30 -34 71 -62 125 -62c71 0 116 46 116 136v509h120v-526c0 -134 -81 -230 -219 -230c-53 0 -106 18 -142 49v124z" />
    <glyph glyph-name="K" unicode="K" horiz-adv-x="682" 
d="M680 0h-149l-317 361v-361h-120v744h120v-358l316 358h144l-329 -368z" />
    <glyph glyph-name="L" unicode="L" horiz-adv-x="556" 
d="M94 0v744h120v-634h320v-110h-440z" />
    <glyph glyph-name="M" unicode="M" horiz-adv-x="974" 
d="M242 573l-80 -573h-116l112 744h143l188 -563h1l183 563h143l111 -744h-117l-79 577h-3l-189 -577h-105l-189 573h-3z" />
    <glyph glyph-name="N" unicode="N" horiz-adv-x="798" 
d="M704 744v-744h-112l-382 553h-1v-553h-115v744h118l375 -543h1v543h116z" />
    <glyph glyph-name="O" unicode="O" horiz-adv-x="847" 
d="M424 -16c-215 0 -376 165 -376 388c0 222 161 388 376 388s375 -166 375 -388c0 -223 -160 -388 -375 -388zM424 96c130 0 253 101 253 276s-123 277 -253 277c-132 0 -254 -102 -254 -277c0 -176 124 -276 254 -276z" />
    <glyph glyph-name="P" unicode="P" horiz-adv-x="628" 
d="M94 0v744h197c187 0 303 -94 303 -249c0 -151 -112 -259 -298 -259h-82v-236h-120zM302 345c104 0 171 54 171 146c0 93 -67 143 -171 143h-88v-289h88z" />
    <glyph glyph-name="Q" unicode="Q" horiz-adv-x="855" 
d="M823 21l-78 -79l-107 107c-60 -42 -133 -65 -214 -65c-215 0 -376 165 -376 388c0 222 161 388 376 388s375 -166 375 -388c0 -96 -30 -181 -80 -247zM424 96c46 0 91 13 130 37l-139 139l78 79l140 -140c27 43 44 97 44 161c0 175 -123 277 -253 277
c-132 0 -254 -102 -254 -277c0 -176 124 -276 254 -276z" />
    <glyph glyph-name="R" unicode="R" horiz-adv-x="638" 
d="M357 291l255 -291h-149l-241 287h-8v-287h-120v744h212c175 0 273 -89 273 -229c0 -107 -66 -203 -222 -224zM214 383h81c113 0 163 50 163 127c0 78 -57 124 -157 124h-87v-251z" />
    <glyph glyph-name="S" unicode="S" horiz-adv-x="578" 
d="M307 760c72 0 138 -21 184 -49v-117c-51 37 -120 58 -179 58c-73 0 -131 -33 -131 -96c0 -57 48 -84 141 -125c110 -47 210 -95 210 -224c0 -138 -110 -223 -257 -223c-89 0 -167 32 -215 68v125c52 -50 131 -85 207 -85c79 0 143 41 143 110c0 62 -54 91 -150 133
c-102 45 -198 91 -198 215c0 129 103 210 245 210z" />
    <glyph glyph-name="T" unicode="T" horiz-adv-x="619" 
d="M250 0v634h-229v110h577v-110h-229v-634h-119z" />
    <glyph glyph-name="U" unicode="U" horiz-adv-x="756" 
d="M375 -16c-180 0 -290 124 -290 302v458h120v-461c0 -117 65 -187 170 -187c107 0 176 70 176 188v460h120v-458c0 -178 -114 -302 -296 -302z" />
    <glyph glyph-name="V" unicode="V" horiz-adv-x="726" 
d="M718 744l-290 -744h-129l-293 744h127l231 -614l229 614h125z" />
    <glyph glyph-name="W" unicode="W" horiz-adv-x="1089" 
d="M729 0l-182 579h-1l-182 -579h-125l-222 744h123l165 -593h1l183 593h114l185 -594h1l161 594h120l-218 -744h-123z" />
    <glyph glyph-name="X" unicode="X" horiz-adv-x="675" 
d="M13 0l249 374l-246 370h138l186 -283l182 283h136l-245 -369l250 -375h-138l-189 286l-186 -286h-137z" />
    <glyph glyph-name="Y" unicode="Y" horiz-adv-x="675" 
d="M279 0v307l-275 437h134l201 -328h2l199 328h130l-273 -436v-308h-118z" />
    <glyph glyph-name="Z" unicode="Z" horiz-adv-x="601" 
d="M580 744l-373 -634h348v-110h-536l373 634h-342v110h530z" />
    <glyph glyph-name="Aacute" unicode="&#xc1;" horiz-adv-x="730" 
d="M395 993h121l-142 -171h-94zM722 0h-127l-79 209h-303l-79 -209h-125l287 744h137zM364 616l-115 -304h231z" />
    <glyph glyph-name="Abreve" unicode="&#x102;" horiz-adv-x="730" 
d="M540 990c5 -108 -90 -162 -176 -162s-181 54 -176 162h83c2 -46 35 -84 93 -84s91 38 93 84h83zM722 0h-127l-79 209h-303l-79 -209h-125l287 744h137zM364 616l-115 -304h231z" />
    <glyph glyph-name="Acircumflex" unicode="&#xc2;" horiz-adv-x="730" 
d="M408 993l138 -171h-107l-75 99l-75 -99h-105l137 171h87zM722 0h-127l-79 209h-303l-79 -209h-125l287 744h137zM364 616l-115 -304h231z" />
    <glyph glyph-name="Adieresis" unicode="&#xc4;" horiz-adv-x="730" 
d="M257 840c-34 0 -62 27 -62 61c0 33 28 61 62 61s62 -28 62 -61c0 -34 -28 -61 -62 -61zM472 840c-35 0 -62 27 -62 61c0 33 27 61 62 61s62 -28 62 -61c0 -34 -27 -61 -62 -61zM722 0h-127l-79 209h-303l-79 -209h-125l287 744h137zM364 616l-115 -304h231z" />
    <glyph glyph-name="Agrave" unicode="&#xc0;" horiz-adv-x="730" 
d="M337 993l115 -171h-94l-142 171h121zM722 0h-127l-79 209h-303l-79 -209h-125l287 744h137zM364 616l-115 -304h231z" />
    <glyph glyph-name="Amacron" unicode="&#x100;" horiz-adv-x="730" 
d="M191 861v80h345v-80h-345zM722 0h-127l-79 209h-303l-79 -209h-125l287 744h137zM364 616l-115 -304h231z" />
    <glyph glyph-name="Aogonek" unicode="&#x104;" horiz-adv-x="730" 
d="M629 -96c0 -34 28 -52 60 -52c12 0 29 2 33 5v-70c-6 -4 -29 -10 -55 -10c-74 0 -129 41 -129 108c0 38 17 77 62 115h-5l-79 209h-303l-79 -209h-125l287 744h137l289 -744c-56 -30 -93 -63 -93 -96zM249 312h231l-116 304z" />
    <glyph glyph-name="Aring" unicode="&#xc5;" horiz-adv-x="730" 
d="M365 1030c63 0 112 -45 112 -104c0 -60 -49 -105 -112 -105c-64 0 -113 45 -113 105c0 59 49 104 113 104zM365 976c-31 0 -54 -22 -54 -50c0 -29 23 -51 54 -51c30 0 52 22 52 51c0 28 -22 50 -52 50zM722 0h-127l-79 209h-303l-79 -209h-125l287 744h137zM364 616
l-115 -304h231z" />
    <glyph glyph-name="Atilde" unicode="&#xc3;" horiz-adv-x="730" 
d="M562 967c6 -95 -51 -135 -116 -135c-73 0 -100 59 -154 59c-37 0 -51 -30 -50 -56h-77c-5 95 52 135 116 135c74 0 101 -60 155 -60c37 0 51 30 50 57h76zM722 0h-127l-79 209h-303l-79 -209h-125l287 744h137zM364 616l-115 -304h231z" />
    <glyph glyph-name="AE" unicode="&#xc6;" horiz-adv-x="1028" 
d="M964 634h-304v-204h280v-103h-280v-217h304v-110h-424v213h-272l-137 -213h-142l479 744h496v-110zM333 315h207v321h-1z" />
    <glyph glyph-name="Cacute" unicode="&#x106;" horiz-adv-x="669" 
d="M448 993h121l-142 -171h-94zM623 35c-50 -27 -115 -50 -200 -50c-199 0 -375 151 -375 388c0 236 176 387 375 387c85 0 150 -23 200 -50v-123c-59 38 -114 61 -191 61c-134 0 -262 -104 -262 -276c0 -170 128 -275 262 -275c77 0 132 24 191 62v-124z" />
    <glyph glyph-name="Ccaron" unicode="&#x10c;" horiz-adv-x="669" 
d="M598 993l-139 -171h-84l-139 171h107l74 -99l75 99h106zM623 35c-50 -27 -115 -50 -200 -50c-199 0 -375 151 -375 388c0 236 176 387 375 387c85 0 150 -23 200 -50v-123c-59 38 -114 61 -191 61c-134 0 -262 -104 -262 -276c0 -170 128 -275 262 -275
c77 0 132 24 191 62v-124z" />
    <glyph glyph-name="Ccedilla" unicode="&#xc7;" horiz-adv-x="669" 
d="M432 648c-134 0 -262 -104 -262 -276c0 -170 128 -275 262 -275c77 0 132 24 191 62v-124c-46 -25 -105 -46 -181 -50c-6 -64 -29 -116 -66 -160h-117c44 51 80 103 87 168c-165 33 -298 174 -298 380c0 236 176 387 375 387c85 0 150 -23 200 -50v-123
c-59 38 -114 61 -191 61z" />
    <glyph glyph-name="Cdotaccent" unicode="&#x10a;" horiz-adv-x="669" 
d="M416 840c-33 0 -61 27 -61 61c0 33 28 61 61 61c35 0 63 -28 63 -61c0 -34 -28 -61 -63 -61zM623 35c-50 -27 -115 -50 -200 -50c-199 0 -375 151 -375 388c0 236 176 387 375 387c85 0 150 -23 200 -50v-123c-59 38 -114 61 -191 61c-134 0 -262 -104 -262 -276
c0 -170 128 -275 262 -275c77 0 132 24 191 62v-124z" />
    <glyph glyph-name="Eth" unicode="&#xd0;" horiz-adv-x="750" 
d="M302 744c241 0 400 -148 400 -372c0 -225 -163 -372 -400 -372h-195v328h-91v90h91v326h195zM307 110c160 0 273 95 273 262c0 168 -113 262 -272 262h-81v-216h177v-90h-177v-218h80z" />
    <glyph glyph-name="Dcaron" unicode="&#x10e;" horiz-adv-x="738" 
d="M539 993l-139 -171h-84l-139 171h107l74 -99l75 99h106zM289 744c241 0 400 -148 400 -372c0 -225 -163 -372 -400 -372h-195v744h195zM214 634v-524h80c160 0 273 95 273 262c0 168 -113 262 -272 262h-81z" />
    <glyph glyph-name="Dcroat" unicode="&#x110;" horiz-adv-x="750" 
d="M302 744c241 0 400 -148 400 -372c0 -225 -163 -372 -400 -372h-195v328h-91v90h91v326h195zM307 110c160 0 273 95 273 262c0 168 -113 262 -272 262h-81v-216h177v-90h-177v-218h80z" />
    <glyph glyph-name="Eacute" unicode="&#xc9;" horiz-adv-x="589" 
d="M338 993h121l-142 -171h-94zM94 0v744h431v-109h-311v-205h286v-103h-286v-218h311v-109h-431z" />
    <glyph glyph-name="Ecaron" unicode="&#x11a;" horiz-adv-x="589" 
d="M488 993l-139 -171h-84l-139 171h107l74 -99l75 99h106zM94 0v744h431v-109h-311v-205h286v-103h-286v-218h311v-109h-431z" />
    <glyph glyph-name="Ecircumflex" unicode="&#xca;" horiz-adv-x="589" 
d="M351 993l138 -171h-107l-75 99l-75 -99h-105l137 171h87zM94 0v744h431v-109h-311v-205h286v-103h-286v-218h311v-109h-431z" />
    <glyph glyph-name="Edieresis" unicode="&#xcb;" horiz-adv-x="589" 
d="M200 840c-34 0 -62 27 -62 61c0 33 28 61 62 61s62 -28 62 -61c0 -34 -28 -61 -62 -61zM415 840c-35 0 -62 27 -62 61c0 33 27 61 62 61s62 -28 62 -61c0 -34 -27 -61 -62 -61zM94 0v744h431v-109h-311v-205h286v-103h-286v-218h311v-109h-431z" />
    <glyph glyph-name="Edotaccent" unicode="&#x116;" horiz-adv-x="589" 
d="M306 840c-33 0 -61 27 -61 61c0 33 28 61 61 61c35 0 63 -28 63 -61c0 -34 -28 -61 -63 -61zM94 0v744h431v-109h-311v-205h286v-103h-286v-218h311v-109h-431z" />
    <glyph glyph-name="Egrave" unicode="&#xc8;" horiz-adv-x="589" 
d="M280 993l115 -171h-94l-142 171h121zM94 0v744h431v-109h-311v-205h286v-103h-286v-218h311v-109h-431z" />
    <glyph glyph-name="Emacron" unicode="&#x112;" horiz-adv-x="589" 
d="M134 861v80h345v-80h-345zM94 0v744h431v-109h-311v-205h286v-103h-286v-218h311v-109h-431z" />
    <glyph glyph-name="Eogonek" unicode="&#x118;" horiz-adv-x="589" 
d="M525 635h-311v-205h286v-103h-286v-218h311v-109h-8c-56 -30 -93 -63 -93 -96c0 -34 28 -52 60 -52c12 0 29 2 33 5v-70c-6 -4 -29 -10 -55 -10c-74 0 -129 41 -129 108c0 38 17 77 62 115h-301v744h431v-109z" />
    <glyph glyph-name="Gbreve" unicode="&#x11e;" horiz-adv-x="730" 
d="M591 990c5 -108 -90 -162 -176 -162s-181 54 -176 162h83c2 -46 35 -84 93 -84s91 38 93 84h83zM170 371c0 -163 111 -275 254 -275c55 0 92 10 131 29v277h112v-349c-70 -43 -147 -69 -245 -69c-200 0 -374 152 -374 388s173 388 376 388c83 0 160 -21 219 -55v-122
c-65 43 -136 62 -209 62c-150 0 -264 -113 -264 -274z" />
    <glyph glyph-name="uni0122" unicode="&#x122;" horiz-adv-x="730" 
d="M170 371c0 -163 111 -275 254 -275c55 0 92 10 131 29v277h112v-349c-70 -43 -147 -69 -245 -69c-200 0 -374 152 -374 388s173 388 376 388c83 0 160 -21 219 -55v-122c-65 43 -136 62 -209 62c-150 0 -264 -113 -264 -274zM448 -79c13 -70 -5 -146 -47 -216h-83
c32 74 40 151 23 216h107z" />
    <glyph glyph-name="Gdotaccent" unicode="&#x120;" horiz-adv-x="730" 
d="M414 840c-33 0 -61 27 -61 61c0 33 28 61 61 61c35 0 63 -28 63 -61c0 -34 -28 -61 -63 -61zM170 371c0 -163 111 -275 254 -275c55 0 92 10 131 29v277h112v-349c-70 -43 -147 -69 -245 -69c-200 0 -374 152 -374 388s173 388 376 388c83 0 160 -21 219 -55v-122
c-65 43 -136 62 -209 62c-150 0 -264 -113 -264 -274z" />
    <glyph glyph-name="Hbar" unicode="&#x126;" horiz-adv-x="802" 
d="M769 630v-91h-68v-539h-120v320h-359v-320h-120v539h-78v91h78v114h120v-114h359v114h120v-114h68zM581 431v108h-359v-108h359z" />
    <glyph glyph-name="IJ" unicode="&#x132;" horiz-adv-x="782" 
d="M94 0v744h120v-744h-120zM334 161c30 -34 71 -62 125 -62c71 0 116 46 116 136v509h120v-526c0 -134 -81 -230 -219 -230c-53 0 -106 18 -142 49v124z" />
    <glyph glyph-name="Iacute" unicode="&#xcd;" horiz-adv-x="308" 
d="M185 993h121l-142 -171h-94zM94 0v744h120v-744h-120z" />
    <glyph glyph-name="Icircumflex" unicode="&#xce;" horiz-adv-x="308" 
d="M198 993l138 -171h-107l-75 99l-75 -99h-105l137 171h87zM94 0v744h120v-744h-120z" />
    <glyph glyph-name="Idieresis" unicode="&#xcf;" horiz-adv-x="308" 
d="M47 840c-34 0 -62 27 -62 61c0 33 28 61 62 61s62 -28 62 -61c0 -34 -28 -61 -62 -61zM262 840c-35 0 -62 27 -62 61c0 33 27 61 62 61s62 -28 62 -61c0 -34 -27 -61 -62 -61zM94 0v744h120v-744h-120z" />
    <glyph glyph-name="Idotaccent" unicode="&#x130;" horiz-adv-x="308" 
d="M153 840c-33 0 -61 27 -61 61c0 33 28 61 61 61c35 0 63 -28 63 -61c0 -34 -28 -61 -63 -61zM94 0v744h120v-744h-120z" />
    <glyph glyph-name="Igrave" unicode="&#xcc;" horiz-adv-x="308" 
d="M127 993l115 -171h-94l-142 171h121zM94 0v744h120v-744h-120z" />
    <glyph glyph-name="Imacron" unicode="&#x12a;" horiz-adv-x="308" 
d="M-19 861v80h345v-80h-345zM94 0v744h120v-744h-120z" />
    <glyph glyph-name="Iogonek" unicode="&#x12e;" horiz-adv-x="308" 
d="M214 0c-56 -30 -93 -63 -93 -96c0 -34 28 -52 60 -52c12 0 29 2 33 5v-70c-6 -4 -29 -10 -55 -10c-74 0 -129 41 -129 108c0 38 18 78 64 117v742h120v-744z" />
    <glyph glyph-name="uni0136" unicode="&#x136;" horiz-adv-x="682" 
d="M345 376l335 -376h-149l-317 361v-361h-120v744h120v-358l316 358h144zM305 -79h107c13 -70 -5 -146 -47 -216h-83c32 74 40 151 23 216z" />
    <glyph glyph-name="Lacute" unicode="&#x139;" horiz-adv-x="556" 
d="M185 993h121l-142 -171h-94zM94 0v744h120v-634h320v-110h-440z" />
    <glyph glyph-name="Lcaron" unicode="&#x13d;" horiz-adv-x="558" 
d="M291 590c4 31 12 62 12 113c0 37 -6 67 -16 98h106c4 -19 7 -40 7 -62c0 -38 -5 -82 -33 -149h-76zM94 0v744h120v-634h320v-110h-440z" />
    <glyph glyph-name="uni013B" unicode="&#x13b;" horiz-adv-x="556" 
d="M94 0v744h120v-634h320v-110h-440zM365 -79c13 -70 -5 -146 -47 -216h-83c32 74 40 151 23 216h107z" />
    <glyph glyph-name="Ldot" unicode="&#x13f;" horiz-adv-x="582" 
d="M94 0v744h120v-634h320v-110h-440zM433 326c-41 0 -73 31 -73 72c0 42 32 73 73 73s73 -31 73 -73c0 -41 -32 -72 -73 -72z" />
    <glyph glyph-name="Lslash" unicode="&#x141;" horiz-adv-x="584" 
d="M242 110h320v-110h-440v240l-98 -56v110l98 56v394h120v-324l181 104v-110l-181 -104v-200z" />
    <glyph glyph-name="Nacute" unicode="&#x143;" horiz-adv-x="798" 
d="M438 993h121l-142 -171h-94zM704 744v-744h-112l-382 553h-1v-553h-115v744h118l375 -543h1v543h116z" />
    <glyph glyph-name="Ncaron" unicode="&#x147;" horiz-adv-x="798" 
d="M588 993l-139 -171h-84l-139 171h107l74 -99l75 99h106zM704 744v-744h-112l-382 553h-1v-553h-115v744h118l375 -543h1v543h116z" />
    <glyph glyph-name="uni0145" unicode="&#x145;" horiz-adv-x="798" 
d="M704 744v-744h-112l-382 553h-1v-553h-115v744h118l375 -543h1v543h116zM455 -79c13 -70 -5 -146 -47 -216h-83c32 74 40 151 23 216h107z" />
    <glyph glyph-name="Eng" unicode="&#x14a;" horiz-adv-x="808" 
d="M599 744h115v-736c0 -135 -80 -231 -218 -231c-53 0 -107 19 -142 50v123c30 -34 71 -62 124 -62c66 0 114 40 120 119l-388 556h-1v-563h-115v744h118l386 -553h1v553z" />
    <glyph glyph-name="Ntilde" unicode="&#xd1;" horiz-adv-x="798" 
d="M605 967c6 -95 -51 -135 -116 -135c-73 0 -100 59 -154 59c-37 0 -51 -30 -50 -56h-77c-5 95 52 135 116 135c74 0 101 -60 155 -60c37 0 51 30 50 57h76zM704 744v-744h-112l-382 553h-1v-553h-115v744h118l375 -543h1v543h116z" />
    <glyph glyph-name="Oacute" unicode="&#xd3;" horiz-adv-x="847" 
d="M455 993h121l-142 -171h-94zM424 -16c-215 0 -376 165 -376 388c0 222 161 388 376 388s375 -166 375 -388c0 -223 -160 -388 -375 -388zM424 96c130 0 253 101 253 276s-123 277 -253 277c-132 0 -254 -102 -254 -277c0 -176 124 -276 254 -276z" />
    <glyph glyph-name="Ocircumflex" unicode="&#xd4;" horiz-adv-x="847" 
d="M468 993l138 -171h-107l-75 99l-75 -99h-105l137 171h87zM424 -16c-215 0 -376 165 -376 388c0 222 161 388 376 388s375 -166 375 -388c0 -223 -160 -388 -375 -388zM424 96c130 0 253 101 253 276s-123 277 -253 277c-132 0 -254 -102 -254 -277
c0 -176 124 -276 254 -276z" />
    <glyph glyph-name="Odieresis" unicode="&#xd6;" horiz-adv-x="847" 
d="M317 840c-34 0 -62 27 -62 61c0 33 28 61 62 61s62 -28 62 -61c0 -34 -28 -61 -62 -61zM532 840c-35 0 -62 27 -62 61c0 33 27 61 62 61s62 -28 62 -61c0 -34 -27 -61 -62 -61zM424 -16c-215 0 -376 165 -376 388c0 222 161 388 376 388s375 -166 375 -388
c0 -223 -160 -388 -375 -388zM424 96c130 0 253 101 253 276s-123 277 -253 277c-132 0 -254 -102 -254 -277c0 -176 124 -276 254 -276z" />
    <glyph glyph-name="Ograve" unicode="&#xd2;" horiz-adv-x="847" 
d="M397 993l115 -171h-94l-142 171h121zM424 -16c-215 0 -376 165 -376 388c0 222 161 388 376 388s375 -166 375 -388c0 -223 -160 -388 -375 -388zM424 96c130 0 253 101 253 276s-123 277 -253 277c-132 0 -254 -102 -254 -277c0 -176 124 -276 254 -276z" />
    <glyph glyph-name="Ohungarumlaut" unicode="&#x150;" horiz-adv-x="847" 
d="M522 993l-177 -171h-97l149 171h125zM709 993l-177 -171h-96l148 171h125zM424 -16c-215 0 -376 165 -376 388c0 222 161 388 376 388s375 -166 375 -388c0 -223 -160 -388 -375 -388zM424 96c130 0 253 101 253 276s-123 277 -253 277c-132 0 -254 -102 -254 -277
c0 -176 124 -276 254 -276z" />
    <glyph glyph-name="Omacron" unicode="&#x14c;" horiz-adv-x="847" 
d="M251 861v80h345v-80h-345zM424 -16c-215 0 -376 165 -376 388c0 222 161 388 376 388s375 -166 375 -388c0 -223 -160 -388 -375 -388zM424 96c130 0 253 101 253 276s-123 277 -253 277c-132 0 -254 -102 -254 -277c0 -176 124 -276 254 -276z" />
    <glyph glyph-name="Oslash" unicode="&#xd8;" horiz-adv-x="852" 
d="M717 625c54 -67 85 -155 85 -253c0 -223 -160 -388 -375 -388c-93 0 -177 31 -241 85l-78 -82l-58 54l81 85c-50 66 -80 151 -80 246c0 222 161 388 376 388c90 0 171 -29 234 -80l73 77l56 -56zM171 372c0 -64 16 -117 42 -160l369 386c-44 35 -99 53 -155 53
c-134 0 -256 -102 -256 -279zM427 93c132 0 255 102 255 279c0 67 -18 123 -47 167l-370 -388c46 -38 103 -58 162 -58z" />
    <glyph glyph-name="Otilde" unicode="&#xd5;" horiz-adv-x="847" 
d="M622 967c6 -95 -51 -135 -116 -135c-73 0 -100 59 -154 59c-37 0 -51 -30 -50 -56h-77c-5 95 52 135 116 135c74 0 101 -60 155 -60c37 0 51 30 50 57h76zM424 -16c-215 0 -376 165 -376 388c0 222 161 388 376 388s375 -166 375 -388c0 -223 -160 -388 -375 -388z
M424 96c130 0 253 101 253 276s-123 277 -253 277c-132 0 -254 -102 -254 -277c0 -176 124 -276 254 -276z" />
    <glyph glyph-name="OE" unicode="&#x152;" horiz-adv-x="994" 
d="M930 744v-109h-304v-205h280v-103h-280v-218h304v-109l-393 1c-35 -11 -73 -17 -113 -17c-215 0 -376 165 -376 388c0 222 161 388 376 388c40 0 78 -5 114 -16h392zM507 635c-27 9 -54 14 -83 14c-132 0 -254 -102 -254 -277c0 -176 124 -276 254 -276c29 0 56 5 83 14
v525z" />
    <glyph glyph-name="Thorn" unicode="&#xde;" horiz-adv-x="642" 
d="M94 0v744h120v-111h100c177 0 294 -90 294 -249c0 -154 -113 -259 -289 -259h-105v-125h-120zM325 234c96 0 161 58 161 146c0 90 -64 142 -161 142h-111v-288h111z" />
    <glyph glyph-name="Racute" unicode="&#x154;" horiz-adv-x="638" 
d="M477 993l-142 -171h-94l115 171h121zM357 291l255 -291h-149l-241 287h-8v-287h-120v744h212c175 0 273 -89 273 -229c0 -107 -66 -203 -222 -224zM214 383h81c113 0 163 50 163 127c0 78 -57 124 -157 124h-87v-251z" />
    <glyph glyph-name="Rcaron" unicode="&#x158;" horiz-adv-x="638" 
d="M367 822h-84l-139 171h107l74 -99l75 99h106zM357 291l255 -291h-149l-241 287h-8v-287h-120v744h212c175 0 273 -89 273 -229c0 -107 -66 -203 -222 -224zM214 383h81c113 0 163 50 163 127c0 78 -57 124 -157 124h-87v-251z" />
    <glyph glyph-name="uni0156" unicode="&#x156;" horiz-adv-x="638" 
d="M357 291l255 -291h-149l-241 287h-8v-287h-120v744h212c175 0 273 -89 273 -229c0 -107 -66 -203 -222 -224zM214 383h81c113 0 163 50 163 127c0 78 -57 124 -157 124h-87v-251zM275 -79h107c13 -70 -5 -146 -47 -216h-83c32 74 40 151 23 216z" />
    <glyph glyph-name="Sacute" unicode="&#x15a;" horiz-adv-x="578" 
d="M333 993h121l-142 -171h-94zM307 760c72 0 138 -21 184 -49v-117c-51 37 -120 58 -179 58c-73 0 -131 -33 -131 -96c0 -57 48 -84 141 -125c110 -47 210 -95 210 -224c0 -138 -110 -223 -257 -223c-89 0 -167 32 -215 68v125c52 -50 131 -85 207 -85c79 0 143 41 143 110
c0 62 -54 91 -150 133c-102 45 -198 91 -198 215c0 129 103 210 245 210z" />
    <glyph glyph-name="Scaron" unicode="&#x160;" horiz-adv-x="578" 
d="M483 993l-139 -171h-84l-139 171h107l74 -99l75 99h106zM307 760c72 0 138 -21 184 -49v-117c-51 37 -120 58 -179 58c-73 0 -131 -33 -131 -96c0 -57 48 -84 141 -125c110 -47 210 -95 210 -224c0 -138 -110 -223 -257 -223c-89 0 -167 32 -215 68v125
c52 -50 131 -85 207 -85c79 0 143 41 143 110c0 62 -54 91 -150 133c-102 45 -198 91 -198 215c0 129 103 210 245 210z" />
    <glyph glyph-name="uni015E" unicode="&#x15e;" horiz-adv-x="578" 
d="M532 207c0 -120 -83 -200 -201 -219c-6 -65 -30 -118 -67 -163h-117c43 50 77 99 87 161c-72 8 -134 36 -174 66v125c52 -50 131 -85 207 -85c79 0 143 41 143 110c0 62 -54 91 -150 133c-102 45 -198 91 -198 215c0 129 103 210 245 210c72 0 138 -21 184 -49v-117
c-51 37 -120 58 -179 58c-73 0 -131 -33 -131 -96c0 -57 48 -84 141 -125c110 -47 210 -95 210 -224z" />
    <glyph glyph-name="uni0218" unicode="&#x218;" horiz-adv-x="578" 
d="M307 760c72 0 138 -21 184 -49v-117c-51 37 -120 58 -179 58c-73 0 -131 -33 -131 -96c0 -57 48 -84 141 -125c110 -47 210 -95 210 -224c0 -138 -110 -223 -257 -223c-89 0 -167 32 -215 68v125c52 -50 131 -85 207 -85c79 0 143 41 143 110c0 62 -54 91 -150 133
c-102 45 -198 91 -198 215c0 129 103 210 245 210zM334 -79c13 -70 -5 -146 -47 -216h-83c32 74 40 151 23 216h107z" />
    <glyph glyph-name="uni1E9E" unicode="&#x1e9e;" horiz-adv-x="758" 
d="M501 416c122 -5 211 -87 211 -204s-89 -227 -258 -227c-69 0 -128 21 -170 53v115c39 -37 93 -63 152 -63c98 0 155 62 155 133c0 72 -56 127 -157 127h-100l197 257c-29 20 -70 42 -132 42c-110 0 -194 -71 -194 -194v-455h-120v466c0 174 132 294 325 294
c108 0 203 -39 276 -104z" />
    <glyph glyph-name="Tbar" unicode="&#x166;" horiz-adv-x="640" 
d="M608 634h-229v-233h151v-104h-151v-297h-119v297h-150v104h150v233h-229v110h577v-110z" />
    <glyph glyph-name="Tcaron" unicode="&#x164;" horiz-adv-x="619" 
d="M491 993l-139 -171h-84l-139 171h107l74 -99l75 99h106zM250 0v634h-229v110h577v-110h-229v-634h-119z" />
    <glyph glyph-name="uni0162" unicode="&#x162;" horiz-adv-x="619" 
d="M21 744h577v-110h-229v-634h-10c-4 -71 -28 -127 -68 -175h-117c46 53 82 106 88 175h-12v634h-229v110z" />
    <glyph glyph-name="uni021A" unicode="&#x21a;" horiz-adv-x="619" 
d="M250 0v634h-229v110h577v-110h-229v-634h-119zM361 -79c13 -70 -5 -146 -47 -216h-83c32 74 40 151 23 216h107z" />
    <glyph glyph-name="Uacute" unicode="&#xda;" horiz-adv-x="756" 
d="M409 993h121l-142 -171h-94zM375 -16c-180 0 -290 124 -290 302v458h120v-461c0 -117 65 -187 170 -187c107 0 176 70 176 188v460h120v-458c0 -178 -114 -302 -296 -302z" />
    <glyph glyph-name="Ucircumflex" unicode="&#xdb;" horiz-adv-x="756" 
d="M422 993l138 -171h-107l-75 99l-75 -99h-105l137 171h87zM375 -16c-180 0 -290 124 -290 302v458h120v-461c0 -117 65 -187 170 -187c107 0 176 70 176 188v460h120v-458c0 -178 -114 -302 -296 -302z" />
    <glyph glyph-name="Udieresis" unicode="&#xdc;" horiz-adv-x="756" 
d="M271 840c-34 0 -62 27 -62 61c0 33 28 61 62 61s62 -28 62 -61c0 -34 -28 -61 -62 -61zM486 840c-35 0 -62 27 -62 61c0 33 27 61 62 61s62 -28 62 -61c0 -34 -27 -61 -62 -61zM375 -16c-180 0 -290 124 -290 302v458h120v-461c0 -117 65 -187 170 -187
c107 0 176 70 176 188v460h120v-458c0 -178 -114 -302 -296 -302z" />
    <glyph glyph-name="Ugrave" unicode="&#xd9;" horiz-adv-x="756" 
d="M351 993l115 -171h-94l-142 171h121zM375 -16c-180 0 -290 124 -290 302v458h120v-461c0 -117 65 -187 170 -187c107 0 176 70 176 188v460h120v-458c0 -178 -114 -302 -296 -302z" />
    <glyph glyph-name="Uhungarumlaut" unicode="&#x170;" horiz-adv-x="756" 
d="M476 993l-177 -171h-97l149 171h125zM663 993l-177 -171h-96l148 171h125zM375 -16c-180 0 -290 124 -290 302v458h120v-461c0 -117 65 -187 170 -187c107 0 176 70 176 188v460h120v-458c0 -178 -114 -302 -296 -302z" />
    <glyph glyph-name="Umacron" unicode="&#x16a;" horiz-adv-x="756" 
d="M205 861v80h345v-80h-345zM375 -16c-180 0 -290 124 -290 302v458h120v-461c0 -117 65 -187 170 -187c107 0 176 70 176 188v460h120v-458c0 -178 -114 -302 -296 -302z" />
    <glyph glyph-name="Uogonek" unicode="&#x172;" horiz-adv-x="756" 
d="M551 744h120v-458c0 -99 -37 -194 -125 -253c-73 -53 -114 -90 -114 -129c0 -35 28 -51 61 -51c12 0 28 3 33 5v-70c-7 -5 -40 -10 -57 -10c-78 0 -127 44 -127 107c0 32 13 66 45 99h-12c-180 0 -290 124 -290 302v458h120v-461c0 -117 65 -187 170 -187
c107 0 176 70 176 188v460z" />
    <glyph glyph-name="Uring" unicode="&#x16e;" horiz-adv-x="756" 
d="M379 1030c63 0 112 -45 112 -104c0 -60 -49 -105 -112 -105c-64 0 -113 45 -113 105c0 59 49 104 113 104zM379 976c-31 0 -54 -22 -54 -50c0 -29 23 -51 54 -51c30 0 52 22 52 51c0 28 -22 50 -52 50zM375 -16c-180 0 -290 124 -290 302v458h120v-461
c0 -117 65 -187 170 -187c107 0 176 70 176 188v460h120v-458c0 -178 -114 -302 -296 -302z" />
    <glyph glyph-name="Wacute" unicode="&#x1e82;" horiz-adv-x="1089" 
d="M577 993h121l-142 -171h-94zM729 0l-182 579h-1l-182 -579h-125l-222 744h123l165 -593h1l183 593h114l185 -594h1l161 594h120l-218 -744h-123z" />
    <glyph glyph-name="Wcircumflex" unicode="&#x174;" horiz-adv-x="1089" 
d="M590 993l138 -171h-107l-75 99l-75 -99h-105l137 171h87zM729 0l-182 579h-1l-182 -579h-125l-222 744h123l165 -593h1l183 593h114l185 -594h1l161 594h120l-218 -744h-123z" />
    <glyph glyph-name="Wdieresis" unicode="&#x1e84;" horiz-adv-x="1089" 
d="M439 840c-34 0 -62 27 -62 61c0 33 28 61 62 61s62 -28 62 -61c0 -34 -28 -61 -62 -61zM654 840c-35 0 -62 27 -62 61c0 33 27 61 62 61s62 -28 62 -61c0 -34 -27 -61 -62 -61zM729 0l-182 579h-1l-182 -579h-125l-222 744h123l165 -593h1l183 593h114l185 -594h1
l161 594h120l-218 -744h-123z" />
    <glyph glyph-name="Wgrave" unicode="&#x1e80;" horiz-adv-x="1089" 
d="M519 993l115 -171h-94l-142 171h121zM729 0l-182 579h-1l-182 -579h-125l-222 744h123l165 -593h1l183 593h114l185 -594h1l161 594h120l-218 -744h-123z" />
    <glyph glyph-name="Yacute" unicode="&#xdd;" horiz-adv-x="675" 
d="M370 993h121l-142 -171h-94zM279 0v307l-275 437h134l201 -328h2l199 328h130l-273 -436v-308h-118z" />
    <glyph glyph-name="Ycircumflex" unicode="&#x176;" horiz-adv-x="675" 
d="M383 993l138 -171h-107l-75 99l-75 -99h-105l137 171h87zM279 0v307l-275 437h134l201 -328h2l199 328h130l-273 -436v-308h-118z" />
    <glyph glyph-name="Ydieresis" unicode="&#x178;" horiz-adv-x="675" 
d="M232 840c-34 0 -62 27 -62 61c0 33 28 61 62 61s62 -28 62 -61c0 -34 -28 -61 -62 -61zM447 840c-35 0 -62 27 -62 61c0 33 27 61 62 61s62 -28 62 -61c0 -34 -27 -61 -62 -61zM279 0v307l-275 437h134l201 -328h2l199 328h130l-273 -436v-308h-118z" />
    <glyph glyph-name="Ygrave" unicode="&#x1ef2;" horiz-adv-x="675" 
d="M312 993l115 -171h-94l-142 171h121zM279 0v307l-275 437h134l201 -328h2l199 328h130l-273 -436v-308h-118z" />
    <glyph glyph-name="Zacute" unicode="&#x179;" horiz-adv-x="601" 
d="M341 993h121l-142 -171h-94zM580 744l-373 -634h348v-110h-536l373 634h-342v110h530z" />
    <glyph glyph-name="Zcaron" unicode="&#x17d;" horiz-adv-x="601" 
d="M491 993l-139 -171h-84l-139 171h107l74 -99l75 99h106zM580 744l-373 -634h348v-110h-536l373 634h-342v110h530z" />
    <glyph glyph-name="Zdotaccent" unicode="&#x17b;" horiz-adv-x="601" 
d="M309 840c-33 0 -61 27 -61 61c0 33 28 61 61 61c35 0 63 -28 63 -61c0 -34 -28 -61 -63 -61zM580 744l-373 -634h348v-110h-536l373 634h-342v110h530z" />
    <glyph glyph-name="a" unicode="a" horiz-adv-x="667" 
d="M290 -13c-125 0 -245 113 -245 285c0 174 120 287 245 287c80 0 150 -40 189 -107l13 94h98v-546h-98l-13 94c-39 -67 -109 -107 -189 -107zM320 95c87 0 155 73 155 178c0 104 -68 178 -155 178c-89 0 -157 -74 -157 -178c0 -105 68 -178 157 -178z" />
    <glyph glyph-name="b" unicode="b" horiz-adv-x="668" 
d="M195 801v-345c36 65 110 103 184 103c128 0 244 -111 244 -286s-120 -286 -248 -286c-78 0 -148 40 -187 107l-13 -94h-98v801h118zM347 451c-87 0 -154 -74 -154 -178c0 -105 67 -178 155 -178s156 73 156 177c0 105 -68 179 -157 179z" />
    <glyph glyph-name="c" unicode="c" horiz-adv-x="529" 
d="M163 273c0 -111 82 -178 174 -178c44 0 96 9 142 43v-113c-42 -24 -96 -38 -155 -38c-159 0 -280 122 -280 287c0 163 121 285 280 285c56 0 110 -11 155 -39v-114c-46 32 -90 45 -143 45c-91 0 -173 -68 -173 -178z" />
    <glyph glyph-name="d" unicode="d" horiz-adv-x="668" 
d="M292 -13c-128 0 -247 111 -247 286s118 286 246 286c76 0 146 -38 182 -102v344h118v-801h-98l-14 94c-38 -67 -109 -107 -187 -107zM320 95c87 0 155 73 155 178c0 104 -68 178 -155 178c-89 0 -156 -74 -156 -178c0 -105 67 -178 156 -178z" />
    <glyph glyph-name="e" unicode="e" horiz-adv-x="598" 
d="M554 283c0 -17 -1 -32 -3 -46h-393c17 -96 90 -152 186 -152c62 0 123 22 178 65v-106c-56 -38 -120 -57 -190 -57c-179 0 -287 116 -287 284c0 175 122 288 268 288c132 0 241 -95 241 -276zM158 316h284c-3 97 -62 145 -130 145c-74 0 -140 -55 -154 -145z" />
    <glyph glyph-name="f" unicode="f" horiz-adv-x="396" 
d="M111 0v446h-77v100h77v72c0 105 75 190 197 190c34 0 66 -6 97 -16v-104c-20 7 -51 14 -79 14c-64 0 -98 -30 -98 -97v-59h152v-100h-151v-446h-118z" />
    <glyph glyph-name="g" unicode="g" horiz-adv-x="665" 
d="M292 558c77 0 147 -40 185 -102l13 90h98v-492c0 -180 -127 -277 -283 -277c-74 0 -148 25 -205 66v119c56 -49 128 -79 197 -79c97 0 173 62 173 155v70c-37 -59 -103 -98 -180 -98c-128 0 -245 110 -245 274c0 161 119 274 247 274zM318 451c-88 0 -155 -73 -155 -168
s67 -167 155 -167s155 73 155 170c0 95 -67 165 -155 165z" />
    <glyph glyph-name="h" unicode="h" horiz-adv-x="616" 
d="M195 801v-316h2c31 43 87 74 152 74c119 0 195 -69 195 -197v-362h-118v326c0 84 -36 125 -110 125c-66 0 -121 -39 -121 -118v-333h-118v801h118z" />
    <glyph glyph-name="i" unicode="i" horiz-adv-x="276" 
d="M138 652c-39 0 -69 29 -69 67c0 39 30 68 69 68s69 -29 69 -68c0 -38 -30 -67 -69 -67zM79 0v546h118v-546h-118z" />
    <glyph glyph-name="j" unicode="j" horiz-adv-x="276" 
d="M139 652c-39 0 -69 29 -69 67c0 39 30 68 69 68s69 -29 69 -68c0 -38 -30 -67 -69 -67zM-22 -210c68 74 102 153 102 284v472h118v-464c0 -120 -23 -211 -86 -292h-134z" />
    <glyph glyph-name="k" unicode="k" horiz-adv-x="577" 
d="M573 0h-149l-229 272v-272h-118v801h118v-508l225 253h144l-236 -260z" />
    <glyph glyph-name="l" unicode="l" horiz-adv-x="276" 
d="M79 0v801h118v-801h-118z" />
    <glyph glyph-name="m" unicode="m" horiz-adv-x="888" 
d="M642 559c119 0 174 -80 174 -196v-363h-118v342c0 70 -27 107 -92 107c-64 0 -101 -50 -101 -105v-344h-118v342c0 70 -27 107 -92 107c-66 0 -100 -53 -100 -111v-338h-118v546h91l13 -79h3c28 51 77 92 148 92c78 0 126 -36 153 -95c33 57 85 95 157 95z" />
    <glyph glyph-name="n" unicode="n" horiz-adv-x="616" 
d="M350 559c119 0 194 -76 194 -196v-363h-118v325c0 84 -38 124 -111 124c-68 0 -120 -50 -120 -119v-330h-118v546h91l13 -81h3c31 51 90 94 166 94z" />
    <glyph glyph-name="o" unicode="o" horiz-adv-x="643" 
d="M322 -13c-158 0 -278 120 -278 286s121 286 278 286c158 0 277 -120 277 -286s-119 -286 -277 -286zM322 95c81 0 158 65 158 178s-77 178 -158 178s-159 -65 -159 -178s78 -178 159 -178z" />
    <glyph glyph-name="p" unicode="p" horiz-adv-x="668" 
d="M77 -210v756h98l13 -94c39 67 109 107 187 107c129 0 248 -112 248 -286c0 -175 -117 -286 -245 -286c-74 0 -147 39 -183 102v-299h-118zM347 95c89 0 157 73 157 179c0 104 -68 177 -156 177s-155 -73 -155 -178s67 -178 154 -178z" />
    <glyph glyph-name="q" unicode="q" horiz-adv-x="668" 
d="M289 559c81 0 152 -40 191 -107l13 94h98v-756h-118v299c-38 -65 -108 -102 -184 -102c-128 0 -244 113 -244 283c0 176 114 289 244 289zM320 451c-88 0 -156 -74 -156 -178c0 -105 68 -178 156 -178s155 73 155 178c0 104 -67 178 -155 178z" />
    <glyph glyph-name="r" unicode="r" horiz-adv-x="393" 
d="M77 0v546h94l12 -85h2c37 69 104 91 153 91c15 0 27 -1 38 -3v-112c-13 3 -27 4 -41 4c-70 0 -140 -42 -140 -147v-294h-118z" />
    <glyph glyph-name="s" unicode="s" horiz-adv-x="503" 
d="M261 559c63 0 128 -18 168 -46v-108c-39 31 -101 53 -164 53c-62 0 -96 -24 -96 -62c0 -41 41 -56 110 -76c86 -23 182 -52 182 -164c0 -103 -81 -169 -216 -169c-73 0 -141 20 -191 58v116c45 -41 108 -74 187 -74c67 0 105 28 105 68c0 45 -47 60 -122 83
c-89 26 -170 58 -170 155c0 95 78 166 207 166z" />
    <glyph glyph-name="t" unicode="t" horiz-adv-x="409" 
d="M220 673v-127h151v-100h-151v-242c0 -78 48 -110 114 -110c15 0 31 2 49 5v-101c-15 -3 -40 -7 -73 -7c-129 0 -206 77 -206 207v248h-80v100h82v127h114z" />
    <glyph glyph-name="u" unicode="u" horiz-adv-x="608" 
d="M302 -13c-145 0 -231 94 -231 227v332h118v-333c0 -75 42 -118 113 -118c73 0 118 43 118 119v332h118v-331c0 -134 -90 -228 -236 -228z" />
    <glyph glyph-name="v" unicode="v" horiz-adv-x="561" 
d="M218 0l-199 546h126l137 -418h3l137 418h122l-199 -546h-127z" />
    <glyph glyph-name="w" unicode="w" horiz-adv-x="874" 
d="M563 0l-123 399h-3l-123 -399h-136l-151 546h124l101 -418h3l125 418h119l125 -418h2l105 418h116l-150 -546h-134z" />
    <glyph glyph-name="x" unicode="x" horiz-adv-x="551" 
d="M529 546l-185 -268l191 -278h-134l-126 194h-1l-127 -194h-129l189 273l-187 273h131l124 -193h2l124 193h128z" />
    <glyph glyph-name="y" unicode="y" horiz-adv-x="561" 
d="M545 546l-297 -756h-119l94 228l-205 528h128l137 -394h2l138 394h122z" />
    <glyph glyph-name="z" unicode="z" horiz-adv-x="521" 
d="M499 546l-291 -438h262v-108h-451l292 438h-256v108h444z" />
    <glyph glyph-name="aacute" unicode="&#xe1;" horiz-adv-x="667" 
d="M376 794h121l-142 -171h-94zM290 -13c-125 0 -245 113 -245 285c0 174 120 287 245 287c80 0 150 -40 189 -107l13 94h98v-546h-98l-13 94c-39 -67 -109 -107 -189 -107zM320 95c87 0 155 73 155 178c0 104 -68 178 -155 178c-89 0 -157 -74 -157 -178
c0 -105 68 -178 157 -178z" />
    <glyph glyph-name="abreve" unicode="&#x103;" horiz-adv-x="667" 
d="M521 791c5 -108 -90 -162 -176 -162s-181 54 -176 162h83c2 -46 35 -84 93 -84s91 38 93 84h83zM290 -13c-125 0 -245 113 -245 285c0 174 120 287 245 287c80 0 150 -40 189 -107l13 94h98v-546h-98l-13 94c-39 -67 -109 -107 -189 -107zM320 95c87 0 155 73 155 178
c0 104 -68 178 -155 178c-89 0 -157 -74 -157 -178c0 -105 68 -178 157 -178z" />
    <glyph glyph-name="acircumflex" unicode="&#xe2;" horiz-adv-x="667" 
d="M389 794l138 -171h-107l-75 99l-75 -99h-105l137 171h87zM290 -13c-125 0 -245 113 -245 285c0 174 120 287 245 287c80 0 150 -40 189 -107l13 94h98v-546h-98l-13 94c-39 -67 -109 -107 -189 -107zM320 95c87 0 155 73 155 178c0 104 -68 178 -155 178
c-89 0 -157 -74 -157 -178c0 -105 68 -178 157 -178z" />
    <glyph glyph-name="adieresis" unicode="&#xe4;" horiz-adv-x="667" 
d="M238 641c-34 0 -62 27 -62 61c0 33 28 61 62 61s62 -28 62 -61c0 -34 -28 -61 -62 -61zM453 641c-35 0 -62 27 -62 61c0 33 27 61 62 61s62 -28 62 -61c0 -34 -27 -61 -62 -61zM290 -13c-125 0 -245 113 -245 285c0 174 120 287 245 287c80 0 150 -40 189 -107l13 94h98
v-546h-98l-13 94c-39 -67 -109 -107 -189 -107zM320 95c87 0 155 73 155 178c0 104 -68 178 -155 178c-89 0 -157 -74 -157 -178c0 -105 68 -178 157 -178z" />
    <glyph glyph-name="agrave" unicode="&#xe0;" horiz-adv-x="667" 
d="M318 794l115 -171h-94l-142 171h121zM290 -13c-125 0 -245 113 -245 285c0 174 120 287 245 287c80 0 150 -40 189 -107l13 94h98v-546h-98l-13 94c-39 -67 -109 -107 -189 -107zM320 95c87 0 155 73 155 178c0 104 -68 178 -155 178c-89 0 -157 -74 -157 -178
c0 -105 68 -178 157 -178z" />
    <glyph glyph-name="amacron" unicode="&#x101;" horiz-adv-x="667" 
d="M172 662v80h345v-80h-345zM290 -13c-125 0 -245 113 -245 285c0 174 120 287 245 287c80 0 150 -40 189 -107l13 94h98v-546h-98l-13 94c-39 -67 -109 -107 -189 -107zM320 95c87 0 155 73 155 178c0 104 -68 178 -155 178c-89 0 -157 -74 -157 -178
c0 -105 68 -178 157 -178z" />
    <glyph glyph-name="aogonek" unicode="&#x105;" horiz-adv-x="667" 
d="M590 0c-56 -30 -93 -63 -93 -96c0 -34 28 -52 60 -52c12 0 29 2 33 5v-70c-6 -4 -29 -10 -55 -10c-74 0 -129 41 -129 108c0 43 23 88 84 132l-11 77c-39 -67 -109 -107 -189 -107c-125 0 -245 113 -245 285c0 174 120 287 245 287c80 0 150 -40 189 -107l13 94h98v-546z
M320 95c87 0 155 73 155 178c0 104 -68 178 -155 178c-89 0 -157 -74 -157 -178c0 -105 68 -178 157 -178z" />
    <glyph glyph-name="aring" unicode="&#xe5;" horiz-adv-x="667" 
d="M346 831c63 0 112 -45 112 -104c0 -60 -49 -105 -112 -105c-64 0 -113 45 -113 105c0 59 49 104 113 104zM346 777c-31 0 -54 -22 -54 -50c0 -29 23 -51 54 -51c30 0 52 22 52 51c0 28 -22 50 -52 50zM290 -13c-125 0 -245 113 -245 285c0 174 120 287 245 287
c80 0 150 -40 189 -107l13 94h98v-546h-98l-13 94c-39 -67 -109 -107 -189 -107zM320 95c87 0 155 73 155 178c0 104 -68 178 -155 178c-89 0 -157 -74 -157 -178c0 -105 68 -178 157 -178z" />
    <glyph glyph-name="atilde" unicode="&#xe3;" horiz-adv-x="667" 
d="M543 768c6 -95 -51 -135 -116 -135c-73 0 -100 59 -154 59c-37 0 -51 -30 -50 -56h-77c-5 95 52 135 116 135c74 0 101 -60 155 -60c37 0 51 30 50 57h76zM290 -13c-125 0 -245 113 -245 285c0 174 120 287 245 287c80 0 150 -40 189 -107l13 94h98v-546h-98l-13 94
c-39 -67 -109 -107 -189 -107zM320 95c87 0 155 73 155 178c0 104 -68 178 -155 178c-89 0 -157 -74 -157 -178c0 -105 68 -178 157 -178z" />
    <glyph glyph-name="ae" unicode="&#xe6;" horiz-adv-x="935" 
d="M892 283c0 -17 -1 -32 -3 -46h-390c15 -96 87 -152 182 -152c62 0 124 22 179 65v-106c-56 -38 -120 -57 -191 -57c-102 0 -176 40 -221 105c-44 -62 -121 -105 -213 -105c-113 0 -197 70 -197 172c0 90 67 171 206 171c51 0 105 -9 145 -18v38c0 63 -42 108 -126 108
c-66 0 -133 -28 -176 -62v105c49 33 115 58 190 58c90 0 151 -37 184 -91c47 58 116 91 193 91c129 0 238 -95 238 -276zM500 318h279c-2 95 -62 143 -130 143c-74 0 -134 -55 -149 -143zM253 82c73 0 136 52 136 123v33c-37 12 -77 18 -118 18c-86 0 -125 -40 -125 -88
c0 -51 43 -86 107 -86z" />
    <glyph glyph-name="cacute" unicode="&#x107;" horiz-adv-x="529" 
d="M338 794h121l-142 -171h-94zM163 273c0 -111 82 -178 174 -178c44 0 96 9 142 43v-113c-42 -24 -96 -38 -155 -38c-159 0 -280 122 -280 287c0 163 121 285 280 285c56 0 110 -11 155 -39v-114c-46 32 -90 45 -143 45c-91 0 -173 -68 -173 -178z" />
    <glyph glyph-name="ccaron" unicode="&#x10d;" horiz-adv-x="529" 
d="M488 794l-139 -171h-84l-139 171h107l74 -99l75 99h106zM163 273c0 -111 82 -178 174 -178c44 0 96 9 142 43v-113c-42 -24 -96 -38 -155 -38c-159 0 -280 122 -280 287c0 163 121 285 280 285c56 0 110 -11 155 -39v-114c-46 32 -90 45 -143 45
c-91 0 -173 -68 -173 -178z" />
    <glyph glyph-name="ccedilla" unicode="&#xe7;" horiz-adv-x="529" 
d="M336 451c-91 0 -173 -68 -173 -178c0 -111 82 -178 174 -178c44 0 96 9 142 43v-113c-35 -20 -77 -33 -124 -37c-6 -65 -30 -118 -67 -163h-117c45 52 80 103 88 169c-126 29 -215 138 -215 280c0 163 121 285 280 285c56 0 110 -11 155 -39v-114c-46 32 -90 45 -143 45z
" />
    <glyph glyph-name="cdotaccent" unicode="&#x10b;" horiz-adv-x="529" 
d="M306 641c-33 0 -61 27 -61 61c0 33 28 61 61 61c35 0 63 -28 63 -61c0 -34 -28 -61 -63 -61zM163 273c0 -111 82 -178 174 -178c44 0 96 9 142 43v-113c-42 -24 -96 -38 -155 -38c-159 0 -280 122 -280 287c0 163 121 285 280 285c56 0 110 -11 155 -39v-114
c-46 32 -90 45 -143 45c-91 0 -173 -68 -173 -178z" />
    <glyph glyph-name="eth" unicode="&#xf0;" horiz-adv-x="647" 
d="M422 703c114 -143 178 -271 178 -413c0 -182 -120 -303 -278 -303c-157 0 -277 121 -277 283c0 164 115 279 254 279c63 0 107 -26 139 -57l3 1c-15 35 -52 93 -112 166l-96 -45l-24 54l81 37c-27 30 -57 62 -90 96h138c16 -18 31 -35 46 -53l96 44l24 -51zM322 95
c81 0 159 67 159 180c0 109 -78 174 -159 174s-159 -65 -159 -177s78 -177 159 -177z" />
    <glyph glyph-name="dcaron" unicode="&#x10f;" horiz-adv-x="718" 
d="M292 -13c-128 0 -247 111 -247 286s118 286 246 286c76 0 146 -38 182 -102v344h118v-801h-98l-14 94c-38 -67 -109 -107 -187 -107zM668 590c4 31 12 62 12 113c0 37 -6 67 -16 98h106c4 -19 7 -40 7 -62c0 -38 -5 -82 -33 -149h-76zM320 95c87 0 155 73 155 178
c0 104 -68 178 -155 178c-89 0 -156 -74 -156 -178c0 -105 67 -178 156 -178z" />
    <glyph glyph-name="dcroat" unicode="&#x111;" horiz-adv-x="668" 
d="M668 715v-86h-77v-629h-98l-14 94c-38 -67 -109 -107 -187 -107c-128 0 -247 111 -247 286s118 286 246 286c76 0 146 -38 182 -102v172h-154v86h154v86h118v-86h77zM320 95c87 0 155 73 155 178c0 104 -68 178 -155 178c-89 0 -156 -74 -156 -178
c0 -105 67 -178 156 -178z" />
    <glyph glyph-name="eacute" unicode="&#xe9;" horiz-adv-x="598" 
d="M465 794l-142 -171h-94l115 171h121zM554 283c0 -17 -1 -32 -3 -46h-393c17 -96 90 -152 186 -152c62 0 123 22 178 65v-106c-56 -38 -120 -57 -190 -57c-179 0 -287 116 -287 284c0 175 122 288 268 288c132 0 241 -95 241 -276zM158 316h284c-3 97 -62 145 -130 145
c-74 0 -140 -55 -154 -145z" />
    <glyph glyph-name="ecaron" unicode="&#x11b;" horiz-adv-x="598" 
d="M355 623h-84l-139 171h107l74 -99l75 99h106zM554 283c0 -17 -1 -32 -3 -46h-393c17 -96 90 -152 186 -152c62 0 123 22 178 65v-106c-56 -38 -120 -57 -190 -57c-179 0 -287 116 -287 284c0 175 122 288 268 288c132 0 241 -95 241 -276zM158 316h284
c-3 97 -62 145 -130 145c-74 0 -140 -55 -154 -145z" />
    <glyph glyph-name="ecircumflex" unicode="&#xea;" horiz-adv-x="598" 
d="M313 722l-75 -99h-105l137 171h87l138 -171h-107zM554 283c0 -17 -1 -32 -3 -46h-393c17 -96 90 -152 186 -152c62 0 123 22 178 65v-106c-56 -38 -120 -57 -190 -57c-179 0 -287 116 -287 284c0 175 122 288 268 288c132 0 241 -95 241 -276zM158 316h284
c-3 97 -62 145 -130 145c-74 0 -140 -55 -154 -145z" />
    <glyph glyph-name="edieresis" unicode="&#xeb;" horiz-adv-x="598" 
d="M206 641c-34 0 -62 27 -62 61c0 33 28 61 62 61s62 -28 62 -61c0 -34 -28 -61 -62 -61zM421 641c-35 0 -62 27 -62 61c0 33 27 61 62 61s62 -28 62 -61c0 -34 -27 -61 -62 -61zM554 283c0 -17 -1 -32 -3 -46h-393c17 -96 90 -152 186 -152c62 0 123 22 178 65v-106
c-56 -38 -120 -57 -190 -57c-179 0 -287 116 -287 284c0 175 122 288 268 288c132 0 241 -95 241 -276zM158 316h284c-3 97 -62 145 -130 145c-74 0 -140 -55 -154 -145z" />
    <glyph glyph-name="edotaccent" unicode="&#x117;" horiz-adv-x="598" 
d="M312 641c-33 0 -61 27 -61 61c0 33 28 61 61 61c35 0 63 -28 63 -61c0 -34 -28 -61 -63 -61zM554 283c0 -17 -1 -32 -3 -46h-393c17 -96 90 -152 186 -152c62 0 123 22 178 65v-106c-56 -38 -120 -57 -190 -57c-179 0 -287 116 -287 284c0 175 122 288 268 288
c132 0 241 -95 241 -276zM158 316h284c-3 97 -62 145 -130 145c-74 0 -140 -55 -154 -145z" />
    <glyph glyph-name="egrave" unicode="&#xe8;" horiz-adv-x="598" 
d="M401 623h-94l-142 171h121zM554 283c0 -17 -1 -32 -3 -46h-393c17 -96 90 -152 186 -152c62 0 123 22 178 65v-106c-56 -38 -120 -57 -190 -57c-179 0 -287 116 -287 284c0 175 122 288 268 288c132 0 241 -95 241 -276zM158 316h284c-3 97 -62 145 -130 145
c-74 0 -140 -55 -154 -145z" />
    <glyph glyph-name="emacron" unicode="&#x113;" horiz-adv-x="598" 
d="M485 742v-80h-345v80h345zM554 283c0 -17 -1 -32 -3 -46h-393c17 -96 90 -152 186 -152c62 0 123 22 178 65v-106c-56 -38 -120 -57 -190 -57c-179 0 -287 116 -287 284c0 175 122 288 268 288c132 0 241 -95 241 -276zM158 316h284c-3 97 -62 145 -130 145
c-74 0 -140 -55 -154 -145z" />
    <glyph glyph-name="eogonek" unicode="&#x119;" horiz-adv-x="598" 
d="M554 283c0 -17 -1 -32 -3 -46h-390c15 -96 87 -152 183 -152c62 0 123 22 178 65v-106c-75 -53 -129 -98 -129 -140c0 -34 28 -52 61 -52c11 0 28 2 33 5v-70c-6 -4 -30 -10 -56 -10c-74 0 -129 41 -129 108c0 33 13 67 47 102h-17c-179 0 -287 116 -287 284
c0 175 122 288 268 288c132 0 241 -95 241 -276zM162 318h280c-3 95 -62 143 -130 143c-74 0 -135 -55 -150 -143z" />
    <glyph glyph-name="gbreve" unicode="&#x11f;" horiz-adv-x="665" 
d="M523 791c5 -108 -90 -162 -176 -162s-181 54 -176 162h83c2 -46 35 -84 93 -84s91 38 93 84h83zM292 558c77 0 147 -40 185 -102l13 90h98v-492c0 -180 -127 -277 -283 -277c-74 0 -148 25 -205 66v119c56 -49 128 -79 197 -79c97 0 173 62 173 155v70
c-37 -59 -103 -98 -180 -98c-128 0 -245 110 -245 274c0 161 119 274 247 274zM318 451c-88 0 -155 -73 -155 -168s67 -167 155 -167s155 73 155 170c0 95 -67 165 -155 165z" />
    <glyph glyph-name="uni0123" unicode="&#x123;" horiz-adv-x="665" 
d="M296 625c-13 70 5 146 47 216h83c-32 -74 -40 -151 -23 -216h-107zM292 558c77 0 147 -40 185 -102l13 90h98v-492c0 -180 -127 -277 -283 -277c-74 0 -148 25 -205 66v119c56 -49 128 -79 197 -79c97 0 173 62 173 155v70c-37 -59 -103 -98 -180 -98
c-128 0 -245 110 -245 274c0 161 119 274 247 274zM318 451c-88 0 -155 -73 -155 -168s67 -167 155 -167s155 73 155 170c0 95 -67 165 -155 165z" />
    <glyph glyph-name="gdotaccent" unicode="&#x121;" horiz-adv-x="665" 
d="M346 641c-33 0 -61 27 -61 61c0 33 28 61 61 61c35 0 63 -28 63 -61c0 -34 -28 -61 -63 -61zM292 558c77 0 147 -40 185 -102l13 90h98v-492c0 -180 -127 -277 -283 -277c-74 0 -148 25 -205 66v119c56 -49 128 -79 197 -79c97 0 173 62 173 155v70
c-37 -59 -103 -98 -180 -98c-128 0 -245 110 -245 274c0 161 119 274 247 274zM318 451c-88 0 -155 -73 -155 -168s67 -167 155 -167s155 73 155 170c0 95 -67 165 -155 165z" />
    <glyph glyph-name="hbar" unicode="&#x127;" horiz-adv-x="616" 
d="M349 559c119 0 195 -69 195 -197v-362h-118v326c0 84 -36 125 -110 125c-66 0 -121 -39 -121 -118v-333h-118v629h-78v86h78v86h118v-86h153v-86h-153v-144h2c31 43 87 74 152 74z" />
    <glyph glyph-name="dotlessi" unicode="&#x131;" horiz-adv-x="276" 
d="M79 0v546h118v-546h-118z" />
    <glyph glyph-name="ij" unicode="&#x133;" horiz-adv-x="553" 
d="M138 652c-39 0 -69 29 -69 67c0 39 30 68 69 68s69 -29 69 -68c0 -38 -30 -67 -69 -67zM416 652c-39 0 -69 29 -69 67c0 39 30 68 69 68s69 -29 69 -68c0 -38 -30 -67 -69 -67zM79 0v546h118v-546h-118zM255 -210c68 74 102 153 102 284v472h118v-464
c0 -120 -23 -211 -86 -292h-134z" />
    <glyph glyph-name="iacute" unicode="&#xed;" horiz-adv-x="276" 
d="M187 819h121l-142 -171h-94zM79 0v546h118v-546h-118z" />
    <glyph glyph-name="icircumflex" unicode="&#xee;" horiz-adv-x="276" 
d="M182 819l138 -171h-107l-75 99l-75 -99h-105l137 171h87zM79 0v546h118v-546h-118z" />
    <glyph glyph-name="idieresis" unicode="&#xef;" horiz-adv-x="276" 
d="M31 666c-34 0 -62 27 -62 61c0 33 28 61 62 61s62 -28 62 -61c0 -34 -28 -61 -62 -61zM246 666c-35 0 -62 27 -62 61c0 33 27 61 62 61s62 -28 62 -61c0 -34 -27 -61 -62 -61zM79 0v546h118v-546h-118z" />
    <glyph glyph-name="i.loclTRK" horiz-adv-x="276" 
d="M138 652c-39 0 -69 29 -69 67c0 39 30 68 69 68s69 -29 69 -68c0 -38 -30 -67 -69 -67zM79 0v546h118v-546h-118z" />
    <glyph glyph-name="igrave" unicode="&#xec;" horiz-adv-x="276" 
d="M111 819l115 -171h-94l-142 171h121zM79 0v546h118v-546h-118z" />
    <glyph glyph-name="imacron" unicode="&#x12b;" horiz-adv-x="276" 
d="M-34 687v80h345v-80h-345zM79 0v546h118v-546h-118z" />
    <glyph glyph-name="iogonek" unicode="&#x12f;" horiz-adv-x="276" 
d="M139 652c-39 0 -69 29 -69 67c0 39 30 68 69 68s69 -29 69 -68c0 -38 -30 -67 -69 -67zM80 4v542h118v-546h-1c-56 -30 -93 -63 -93 -96c0 -34 28 -52 60 -52c12 0 29 2 33 5v-70c-6 -4 -29 -10 -55 -10c-74 0 -129 41 -129 108c0 39 18 80 67 119z" />
    <glyph glyph-name="uni0137" unicode="&#x137;" horiz-adv-x="577" 
d="M328 286l245 -286h-149l-229 272v-272h-118v801h118v-508l225 253h144zM240 -79h107c13 -70 -5 -146 -47 -216h-83c32 74 40 151 23 216z" />
    <glyph glyph-name="lacute" unicode="&#x13a;" horiz-adv-x="276" 
d="M169 1049h121l-142 -171h-94zM79 0v801h118v-801h-118z" />
    <glyph glyph-name="lcaron" unicode="&#x13e;" horiz-adv-x="324" 
d="M79 0v801h118v-801h-118zM275 590c4 31 12 62 12 113c0 37 -6 67 -16 98h106c4 -19 7 -40 7 -62c0 -38 -5 -82 -33 -149h-76z" />
    <glyph glyph-name="uni013C" unicode="&#x13c;" horiz-adv-x="276" 
d="M79 0v801h118v-801h-118zM189 -79c13 -70 -5 -146 -47 -216h-83c32 74 40 151 23 216h107z" />
    <glyph glyph-name="ldot" unicode="&#x140;" horiz-adv-x="409" 
d="M79 0v801h118v-801h-118zM342 328c-41 0 -73 31 -73 72c0 42 32 73 73 73s73 -31 73 -73c0 -41 -32 -72 -73 -72z" />
    <glyph glyph-name="lslash" unicode="&#x142;" horiz-adv-x="412" 
d="M389 561v-108l-120 -68v-385h-118v319l-119 -67v109l119 67v373h118v-307z" />
    <glyph glyph-name="nacute" unicode="&#x144;" horiz-adv-x="616" 
d="M348 794h121l-142 -171h-94zM350 559c119 0 194 -76 194 -196v-363h-118v325c0 84 -38 124 -111 124c-68 0 -120 -50 -120 -119v-330h-118v546h91l13 -81h3c31 51 90 94 166 94z" />
    <glyph glyph-name="ncaron" unicode="&#x148;" horiz-adv-x="616" 
d="M498 794l-139 -171h-84l-139 171h107l74 -99l75 99h106zM350 559c119 0 194 -76 194 -196v-363h-118v325c0 84 -38 124 -111 124c-68 0 -120 -50 -120 -119v-330h-118v546h91l13 -81h3c31 51 90 94 166 94z" />
    <glyph glyph-name="uni0146" unicode="&#x146;" horiz-adv-x="616" 
d="M350 559c119 0 194 -76 194 -196v-363h-118v325c0 84 -38 124 -111 124c-68 0 -120 -50 -120 -119v-330h-118v546h91l13 -81h3c31 51 90 94 166 94zM361 -79c13 -70 -5 -146 -47 -216h-83c32 74 40 151 23 216h107z" />
    <glyph glyph-name="eng" unicode="&#x14b;" horiz-adv-x="615" 
d="M544 363v-281c0 -120 -23 -211 -86 -292h-134c68 74 102 153 102 284v251c0 84 -38 124 -111 124c-68 0 -120 -50 -120 -119v-330h-118v546h91l13 -81h3c31 51 90 94 166 94c119 0 194 -76 194 -196z" />
    <glyph glyph-name="ntilde" unicode="&#xf1;" horiz-adv-x="616" 
d="M515 768c6 -95 -51 -135 -116 -135c-73 0 -100 59 -154 59c-37 0 -51 -30 -50 -56h-77c-5 95 52 135 116 135c74 0 101 -60 155 -60c37 0 51 30 50 57h76zM350 559c119 0 194 -76 194 -196v-363h-118v325c0 84 -38 124 -111 124c-68 0 -120 -50 -120 -119v-330h-118v546
h91l13 -81h3c31 51 90 94 166 94z" />
    <glyph glyph-name="oacute" unicode="&#xf3;" horiz-adv-x="643" 
d="M353 794h121l-142 -171h-94zM322 -13c-158 0 -278 120 -278 286s121 286 278 286c158 0 277 -120 277 -286s-119 -286 -277 -286zM322 95c81 0 158 65 158 178s-77 178 -158 178s-159 -65 -159 -178s78 -178 159 -178z" />
    <glyph glyph-name="ocircumflex" unicode="&#xf4;" horiz-adv-x="643" 
d="M366 794l138 -171h-107l-75 99l-75 -99h-105l137 171h87zM322 -13c-158 0 -278 120 -278 286s121 286 278 286c158 0 277 -120 277 -286s-119 -286 -277 -286zM322 95c81 0 158 65 158 178s-77 178 -158 178s-159 -65 -159 -178s78 -178 159 -178z" />
    <glyph glyph-name="odieresis" unicode="&#xf6;" horiz-adv-x="643" 
d="M215 641c-34 0 -62 27 -62 61c0 33 28 61 62 61s62 -28 62 -61c0 -34 -28 -61 -62 -61zM430 641c-35 0 -62 27 -62 61c0 33 27 61 62 61s62 -28 62 -61c0 -34 -27 -61 -62 -61zM322 -13c-158 0 -278 120 -278 286s121 286 278 286c158 0 277 -120 277 -286
s-119 -286 -277 -286zM322 95c81 0 158 65 158 178s-77 178 -158 178s-159 -65 -159 -178s78 -178 159 -178z" />
    <glyph glyph-name="ograve" unicode="&#xf2;" horiz-adv-x="643" 
d="M295 794l115 -171h-94l-142 171h121zM322 -13c-158 0 -278 120 -278 286s121 286 278 286c158 0 277 -120 277 -286s-119 -286 -277 -286zM322 95c81 0 158 65 158 178s-77 178 -158 178s-159 -65 -159 -178s78 -178 159 -178z" />
    <glyph glyph-name="ohungarumlaut" unicode="&#x151;" horiz-adv-x="643" 
d="M420 794l-177 -171h-97l149 171h125zM607 794l-177 -171h-96l148 171h125zM322 -13c-158 0 -278 120 -278 286s121 286 278 286c158 0 277 -120 277 -286s-119 -286 -277 -286zM322 95c81 0 158 65 158 178s-77 178 -158 178s-159 -65 -159 -178s78 -178 159 -178z" />
    <glyph glyph-name="omacron" unicode="&#x14d;" horiz-adv-x="643" 
d="M149 662v80h345v-80h-345zM322 -13c-158 0 -278 120 -278 286s121 286 278 286c158 0 277 -120 277 -286s-119 -286 -277 -286zM322 95c81 0 158 65 158 178s-77 178 -158 178s-159 -65 -159 -178s78 -178 159 -178z" />
    <glyph glyph-name="oslash" unicode="&#xf8;" horiz-adv-x="647" 
d="M600 507l-55 -57c35 -48 55 -109 55 -177c0 -166 -119 -286 -277 -286c-64 0 -122 20 -168 55l-52 -54l-50 48l52 55c-37 48 -59 111 -59 182c0 166 120 286 277 286c67 0 127 -21 174 -59l53 56zM154 273c0 -41 10 -76 26 -104l244 256c-29 22 -64 34 -101 34
c-86 0 -169 -67 -169 -186zM492 273c0 38 -8 71 -23 98l-242 -253c28 -20 62 -31 96 -31c87 0 169 67 169 186z" />
    <glyph glyph-name="otilde" unicode="&#xf5;" horiz-adv-x="643" 
d="M520 768c6 -95 -51 -135 -116 -135c-73 0 -100 59 -154 59c-37 0 -51 -30 -50 -56h-77c-5 95 52 135 116 135c74 0 101 -60 155 -60c37 0 51 30 50 57h76zM322 -13c-158 0 -278 120 -278 286s121 286 278 286c158 0 277 -120 277 -286s-119 -286 -277 -286zM322 95
c81 0 158 65 158 178s-77 178 -158 178s-159 -65 -159 -178s78 -178 159 -178z" />
    <glyph glyph-name="oe" unicode="&#x153;" horiz-adv-x="1031" 
d="M988 283c0 -17 -1 -32 -3 -46h-390c15 -96 87 -152 182 -152c62 0 124 22 179 65v-106c-56 -38 -121 -57 -191 -57c-100 0 -175 37 -228 105c-49 -60 -123 -105 -215 -105c-158 0 -278 120 -278 286s120 286 278 286c92 0 164 -43 215 -104c44 61 112 104 209 104
c133 0 242 -95 242 -276zM596 318h279c-2 95 -62 143 -130 143c-74 0 -134 -55 -149 -143zM322 95c81 0 159 65 159 178s-78 178 -159 178c-82 0 -160 -65 -160 -178c0 -114 78 -178 160 -178z" />
    <glyph glyph-name="thorn" unicode="&#xfe;" horiz-adv-x="667" 
d="M195 801v-345c37 63 110 98 182 98c130 0 244 -109 244 -281s-114 -281 -244 -281c-72 0 -141 30 -182 99v-301h-118v1011h118zM345 447c-85 0 -151 -69 -151 -174s66 -174 151 -174c87 0 155 69 155 174c0 106 -68 174 -155 174z" />
    <glyph glyph-name="racute" unicode="&#x155;" horiz-adv-x="393" 
d="M269 794h121l-142 -171h-94zM77 0v546h94l12 -85h2c37 69 104 91 153 91c15 0 27 -1 38 -3v-112c-13 3 -27 4 -41 4c-70 0 -140 -42 -140 -147v-294h-118z" />
    <glyph glyph-name="rcaron" unicode="&#x159;" horiz-adv-x="393" 
d="M419 794l-139 -171h-84l-139 171h107l74 -99l75 99h106zM77 0v546h94l12 -85h2c37 69 104 91 153 91c15 0 27 -1 38 -3v-112c-13 3 -27 4 -41 4c-70 0 -140 -42 -140 -147v-294h-118z" />
    <glyph glyph-name="uni0157" unicode="&#x157;" horiz-adv-x="393" 
d="M77 0v546h94l12 -85h2c37 69 104 91 153 91c15 0 27 -1 38 -3v-112c-13 3 -27 4 -41 4c-70 0 -140 -42 -140 -147v-294h-118zM187 -79c13 -70 -5 -146 -47 -216h-83c32 74 40 151 23 216h107z" />
    <glyph glyph-name="sacute" unicode="&#x15b;" horiz-adv-x="503" 
d="M294 794h121l-142 -171h-94zM261 559c63 0 128 -18 168 -46v-108c-39 31 -101 53 -164 53c-62 0 -96 -24 -96 -62c0 -41 41 -56 110 -76c86 -23 182 -52 182 -164c0 -103 -81 -169 -216 -169c-73 0 -141 20 -191 58v116c45 -41 108 -74 187 -74c67 0 105 28 105 68
c0 45 -47 60 -122 83c-89 26 -170 58 -170 155c0 95 78 166 207 166z" />
    <glyph glyph-name="scaron" unicode="&#x161;" horiz-adv-x="503" 
d="M444 794l-139 -171h-84l-139 171h107l74 -99l75 99h106zM261 559c63 0 128 -18 168 -46v-108c-39 31 -101 53 -164 53c-62 0 -96 -24 -96 -62c0 -41 41 -56 110 -76c86 -23 182 -52 182 -164c0 -103 -81 -169 -216 -169c-73 0 -141 20 -191 58v116
c45 -41 108 -74 187 -74c67 0 105 28 105 68c0 45 -47 60 -122 83c-89 26 -170 58 -170 155c0 95 78 166 207 166z" />
    <glyph glyph-name="uni015F" unicode="&#x15f;" horiz-adv-x="503" 
d="M461 156c0 -90 -62 -152 -169 -166c-6 -66 -29 -119 -67 -165h-117c44 51 79 101 87 165c-54 7 -103 26 -141 55v116c45 -41 108 -74 187 -74c67 0 105 28 105 68c0 45 -47 60 -122 83c-89 26 -170 58 -170 155c0 95 78 166 207 166c63 0 128 -18 168 -46v-108
c-39 31 -101 53 -164 53c-62 0 -96 -24 -96 -62c0 -41 41 -56 110 -76c86 -23 182 -52 182 -164z" />
    <glyph glyph-name="uni0219" unicode="&#x219;" horiz-adv-x="503" 
d="M261 559c63 0 128 -18 168 -46v-108c-39 31 -101 53 -164 53c-62 0 -96 -24 -96 -62c0 -41 41 -56 110 -76c86 -23 182 -52 182 -164c0 -103 -81 -169 -216 -169c-73 0 -141 20 -191 58v116c45 -41 108 -74 187 -74c67 0 105 28 105 68c0 45 -47 60 -122 83
c-89 26 -170 58 -170 155c0 95 78 166 207 166zM295 -79c13 -70 -5 -146 -47 -216h-83c32 74 40 151 23 216h107z" />
    <glyph glyph-name="germandbls" unicode="&#xdf;" horiz-adv-x="674" 
d="M77 547c0 162 98 261 250 261c142 0 226 -88 226 -193c0 -77 -39 -133 -93 -159v-1c95 -25 171 -92 171 -218c0 -156 -116 -244 -262 -244c-33 0 -71 6 -92 12v102c20 -5 47 -10 75 -10c88 0 162 48 162 147c0 89 -63 140 -165 140h-60v87h21c82 0 131 51 131 119
c0 66 -49 114 -118 114c-73 0 -127 -51 -127 -141v-563h-119v547z" />
    <glyph glyph-name="tbar" unicode="&#x167;" horiz-adv-x="416" 
d="M339 94c15 0 31 2 49 5v-101c-15 -3 -40 -7 -73 -7c-129 0 -206 77 -206 207v42h-80v85h80v121h-80v100h82v127h114v-127h151v-100h-151v-121h151v-85h-151v-36c0 -78 48 -110 114 -110z" />
    <glyph glyph-name="tcaron" unicode="&#x165;" horiz-adv-x="409" 
d="M298 612c4 24 10 58 10 98c0 31 -6 64 -14 91h105c4 -17 7 -37 7 -57c0 -35 -7 -79 -27 -132h-81zM220 673v-127h151v-100h-151v-242c0 -78 48 -110 114 -110c15 0 31 2 49 5v-101c-15 -3 -40 -7 -73 -7c-129 0 -206 77 -206 207v248h-80v100h82v127h114z" />
    <glyph glyph-name="uni0163" unicode="&#x163;" horiz-adv-x="410" 
d="M335 94c15 0 31 2 49 5v-101c-15 -3 -40 -7 -73 -7h-3c-5 -67 -29 -120 -67 -166h-117c48 56 86 111 89 185c-69 30 -108 96 -108 188v248h-80v100h82v127h114v-127h151v-100h-151v-242c0 -78 48 -110 114 -110z" />
    <glyph glyph-name="uni021B" unicode="&#x21b;" horiz-adv-x="409" 
d="M220 673v-127h151v-100h-151v-242c0 -78 48 -110 114 -110c15 0 31 2 49 5v-101c-15 -3 -40 -7 -73 -7c-129 0 -206 77 -206 207v248h-80v100h82v127h114zM311 -79c13 -70 -5 -146 -47 -216h-83c32 74 40 151 23 216h107z" />
    <glyph glyph-name="uacute" unicode="&#xfa;" horiz-adv-x="608" 
d="M335 794h121l-142 -171h-94zM302 -13c-145 0 -231 94 -231 227v332h118v-333c0 -75 42 -118 113 -118c73 0 118 43 118 119v332h118v-331c0 -134 -90 -228 -236 -228z" />
    <glyph glyph-name="ucircumflex" unicode="&#xfb;" horiz-adv-x="608" 
d="M348 794l138 -171h-107l-75 99l-75 -99h-105l137 171h87zM302 -13c-145 0 -231 94 -231 227v332h118v-333c0 -75 42 -118 113 -118c73 0 118 43 118 119v332h118v-331c0 -134 -90 -228 -236 -228z" />
    <glyph glyph-name="udieresis" unicode="&#xfc;" horiz-adv-x="608" 
d="M197 641c-34 0 -62 27 -62 61c0 33 28 61 62 61s62 -28 62 -61c0 -34 -28 -61 -62 -61zM412 641c-35 0 -62 27 -62 61c0 33 27 61 62 61s62 -28 62 -61c0 -34 -27 -61 -62 -61zM302 -13c-145 0 -231 94 -231 227v332h118v-333c0 -75 42 -118 113 -118
c73 0 118 43 118 119v332h118v-331c0 -134 -90 -228 -236 -228z" />
    <glyph glyph-name="ugrave" unicode="&#xf9;" horiz-adv-x="608" 
d="M277 794l115 -171h-94l-142 171h121zM302 -13c-145 0 -231 94 -231 227v332h118v-333c0 -75 42 -118 113 -118c73 0 118 43 118 119v332h118v-331c0 -134 -90 -228 -236 -228z" />
    <glyph glyph-name="uhungarumlaut" unicode="&#x171;" horiz-adv-x="608" 
d="M402 794l-177 -171h-97l149 171h125zM589 794l-177 -171h-96l148 171h125zM302 -13c-145 0 -231 94 -231 227v332h118v-333c0 -75 42 -118 113 -118c73 0 118 43 118 119v332h118v-331c0 -134 -90 -228 -236 -228z" />
    <glyph glyph-name="umacron" unicode="&#x16b;" horiz-adv-x="608" 
d="M131 662v80h345v-80h-345zM302 -13c-145 0 -231 94 -231 227v332h118v-333c0 -75 42 -118 113 -118c73 0 118 43 118 119v332h118v-331c0 -134 -90 -228 -236 -228z" />
    <glyph glyph-name="uogonek" unicode="&#x173;" horiz-adv-x="608" 
d="M420 546h118v-331c0 -86 -37 -153 -101 -194c-66 -45 -105 -81 -105 -119c0 -35 28 -51 61 -51c12 0 28 2 33 5v-70c-6 -4 -34 -10 -57 -10c-74 0 -127 40 -127 107c0 34 15 69 50 104c-139 4 -221 97 -221 227v332h118v-333c0 -74 41 -118 113 -118c73 0 118 43 118 119
v332z" />
    <glyph glyph-name="uring" unicode="&#x16f;" horiz-adv-x="608" 
d="M305 831c63 0 112 -45 112 -104c0 -60 -49 -105 -112 -105c-64 0 -113 45 -113 105c0 59 49 104 113 104zM305 777c-31 0 -54 -22 -54 -50c0 -29 23 -51 54 -51c30 0 52 22 52 51c0 28 -22 50 -52 50zM302 -13c-145 0 -231 94 -231 227v332h118v-333
c0 -75 42 -118 113 -118c73 0 118 43 118 119v332h118v-331c0 -134 -90 -228 -236 -228z" />
    <glyph glyph-name="wacute" unicode="&#x1e83;" horiz-adv-x="874" 
d="M470 794h121l-142 -171h-94zM563 0l-123 399h-3l-123 -399h-136l-151 546h124l101 -418h3l125 418h119l125 -418h2l105 418h116l-150 -546h-134z" />
    <glyph glyph-name="wcircumflex" unicode="&#x175;" horiz-adv-x="874" 
d="M483 794l138 -171h-107l-75 99l-75 -99h-105l137 171h87zM563 0l-123 399h-3l-123 -399h-136l-151 546h124l101 -418h3l125 418h119l125 -418h2l105 418h116l-150 -546h-134z" />
    <glyph glyph-name="wdieresis" unicode="&#x1e85;" horiz-adv-x="874" 
d="M332 641c-34 0 -62 27 -62 61c0 33 28 61 62 61s62 -28 62 -61c0 -34 -28 -61 -62 -61zM547 641c-35 0 -62 27 -62 61c0 33 27 61 62 61s62 -28 62 -61c0 -34 -27 -61 -62 -61zM563 0l-123 399h-3l-123 -399h-136l-151 546h124l101 -418h3l125 418h119l125 -418h2
l105 418h116l-150 -546h-134z" />
    <glyph glyph-name="wgrave" unicode="&#x1e81;" horiz-adv-x="874" 
d="M412 794l115 -171h-94l-142 171h121zM563 0l-123 399h-3l-123 -399h-136l-151 546h124l101 -418h3l125 418h119l125 -418h2l105 418h116l-150 -546h-134z" />
    <glyph glyph-name="yacute" unicode="&#xfd;" horiz-adv-x="561" 
d="M315 794h121l-142 -171h-94zM545 546l-297 -756h-119l94 228l-205 528h128l137 -394h2l138 394h122z" />
    <glyph glyph-name="ycircumflex" unicode="&#x177;" horiz-adv-x="561" 
d="M328 794l138 -171h-107l-75 99l-75 -99h-105l137 171h87zM545 546l-297 -756h-119l94 228l-205 528h128l137 -394h2l138 394h122z" />
    <glyph glyph-name="ydieresis" unicode="&#xff;" horiz-adv-x="561" 
d="M177 641c-34 0 -62 27 -62 61c0 33 28 61 62 61s62 -28 62 -61c0 -34 -28 -61 -62 -61zM392 641c-35 0 -62 27 -62 61c0 33 27 61 62 61s62 -28 62 -61c0 -34 -27 -61 -62 -61zM545 546l-297 -756h-119l94 228l-205 528h128l137 -394h2l138 394h122z" />
    <glyph glyph-name="ygrave" unicode="&#x1ef3;" horiz-adv-x="561" 
d="M257 794l115 -171h-94l-142 171h121zM545 546l-297 -756h-119l94 228l-205 528h128l137 -394h2l138 394h122z" />
    <glyph glyph-name="zacute" unicode="&#x17a;" horiz-adv-x="521" 
d="M299 794h121l-142 -171h-94zM499 546l-291 -438h262v-108h-451l292 438h-256v108h444z" />
    <glyph glyph-name="zcaron" unicode="&#x17e;" horiz-adv-x="521" 
d="M449 794l-139 -171h-84l-139 171h107l74 -99l75 99h106zM499 546l-291 -438h262v-108h-451l292 438h-256v108h444z" />
    <glyph glyph-name="zdotaccent" unicode="&#x17c;" horiz-adv-x="521" 
d="M267 641c-33 0 -61 27 -61 61c0 33 28 61 61 61c35 0 63 -28 63 -61c0 -34 -28 -61 -63 -61zM499 546l-291 -438h262v-108h-451l292 438h-256v108h444z" />
    <glyph glyph-name="ordmasculine" unicode="&#xba;" horiz-adv-x="527" 
d="M264 755c124 0 218 -93 218 -224s-94 -224 -218 -224c-125 0 -219 93 -219 224s95 224 219 224zM264 666c-62 0 -121 -49 -121 -135s58 -135 121 -135c61 0 120 49 120 135s-59 135 -120 135z" />
    <glyph glyph-name="ordfeminine" unicode="&#xaa;" horiz-adv-x="553" 
d="M476 744v-427h-82l-11 72c-30 -51 -83 -82 -146 -82c-98 0 -191 89 -191 223c0 136 93 225 191 225c63 0 116 -31 146 -82l11 71h82zM263 666c-68 0 -118 -57 -118 -136c0 -78 50 -133 118 -133c66 0 117 55 117 134s-51 135 -117 135z" />
    <glyph glyph-name="ampersand" unicode="&#x26;" horiz-adv-x="768" 
d="M737 0h-135l-81 84c-59 -64 -131 -99 -220 -99c-141 0 -239 88 -239 213c0 103 69 159 154 202c-58 62 -97 114 -97 179c0 101 90 181 212 181c124 0 207 -81 207 -184c0 -100 -77 -154 -166 -198l142 -147l104 168h115l-152 -237zM332 667c-64 0 -106 -41 -106 -91
c0 -36 24 -70 83 -133c73 34 127 69 127 128c0 51 -38 96 -104 96zM309 81c50 0 100 21 147 70l-176 183c-62 -33 -106 -68 -106 -131c0 -72 56 -122 135 -122z" />
    <glyph glyph-name="period" unicode="." horiz-adv-x="260" 
d="M130 -5c-41 0 -73 31 -73 72c0 42 32 73 73 73s73 -31 73 -73c0 -41 -32 -72 -73 -72z" />
    <glyph glyph-name="comma" unicode="," horiz-adv-x="255" 
d="M34 -133c23 77 42 154 42 237v48h108v-41c0 -80 -34 -174 -64 -244h-86z" />
    <glyph glyph-name="colon" unicode=":" horiz-adv-x="280" 
d="M140 331c-41 0 -73 31 -73 72c0 42 32 73 73 73s73 -31 73 -73c0 -41 -32 -72 -73 -72zM140 -5c-41 0 -73 31 -73 72c0 42 32 73 73 73s73 -31 73 -73c0 -41 -32 -72 -73 -72z" />
    <glyph glyph-name="semicolon" unicode=";" horiz-adv-x="281" 
d="M139 331c-41 0 -73 31 -73 72c0 42 32 73 73 73s73 -31 73 -73c0 -41 -32 -72 -73 -72zM53 -133c23 77 42 154 42 237v48h108v-41c0 -80 -34 -174 -64 -244h-86z" />
    <glyph glyph-name="ellipsis" unicode="&#x2026;" horiz-adv-x="849" 
d="M130 -5c-41 0 -73 31 -73 72c0 42 32 73 73 73s73 -31 73 -73c0 -41 -32 -72 -73 -72zM424 -5c-41 0 -73 31 -73 72c0 42 32 73 73 73s73 -31 73 -73c0 -41 -32 -72 -73 -72zM718 -5c-41 0 -73 31 -73 72c0 42 32 73 73 73s73 -31 73 -73c0 -41 -32 -72 -73 -72z" />
    <glyph glyph-name="exclam" unicode="!" horiz-adv-x="272" 
d="M93 242l-20 502h125l-20 -502h-85zM137 -5c-42 0 -73 31 -73 72c0 42 31 73 73 73c41 0 72 -31 72 -73c0 -41 -31 -72 -72 -72z" />
    <glyph glyph-name="exclamdown" unicode="&#xa1;" horiz-adv-x="272" 
d="M209 675c0 -42 -31 -73 -72 -73c-42 0 -73 31 -73 73c0 41 31 72 73 72c41 0 72 -31 72 -72zM93 500h85l20 -502h-125z" />
    <glyph glyph-name="question" unicode="?" horiz-adv-x="519" 
d="M244 760c136 0 225 -98 225 -211c0 -99 -70 -169 -176 -286h-118c109 128 172 186 172 260s-52 125 -128 125c-64 0 -129 -42 -170 -90v126c44 42 115 76 195 76zM237 140c41 0 73 -31 73 -73c0 -41 -32 -72 -73 -72s-73 31 -73 72c0 42 32 73 73 73z" />
    <glyph glyph-name="questiondown" unicode="&#xbf;" horiz-adv-x="520" 
d="M283 604c-41 0 -73 31 -73 73c0 41 32 72 73 72s73 -31 73 -72c0 -42 -32 -73 -73 -73zM276 -16c-136 0 -225 98 -225 211c0 99 70 169 176 286h118c-109 -128 -172 -186 -172 -260s52 -125 128 -125c64 0 129 42 170 90v-126c-44 -42 -115 -76 -195 -76z" />
    <glyph glyph-name="quotesingle" unicode="'" horiz-adv-x="230" 
d="M82 465l-22 279h109l-21 -279h-66z" />
    <glyph glyph-name="quotedbl" unicode="&#x22;" horiz-adv-x="412" 
d="M82 465l-22 279h109l-21 -279h-66zM264 465l-22 279h109l-21 -279h-66z" />
    <glyph glyph-name="quoteleft" unicode="&#x2018;" horiz-adv-x="257" 
d="M211 744c-23 -77 -42 -154 -42 -237v-48h-108v41c0 80 34 174 64 244h86z" />
    <glyph glyph-name="quoteright" unicode="&#x2019;" horiz-adv-x="256" 
d="M55 459c23 77 42 154 42 237v48h108v-41c0 -80 -34 -174 -64 -244h-86z" />
    <glyph glyph-name="quotedblleft" unicode="&#x201c;" horiz-adv-x="455" 
d="M211 744c-23 -77 -42 -154 -42 -237v-48h-108v41c0 80 34 174 64 244h86zM410 744c-23 -77 -42 -154 -42 -237v-48h-108v41c0 80 34 174 64 244h86z" />
    <glyph glyph-name="quotedblright" unicode="&#x201d;" horiz-adv-x="453" 
d="M55 459c23 77 42 154 42 237v48h108v-41c0 -80 -34 -174 -64 -244h-86zM252 459c23 77 42 154 42 237v48h108v-41c0 -80 -34 -174 -64 -244h-86z" />
    <glyph glyph-name="quotesinglbase" unicode="&#x201a;" horiz-adv-x="255" 
d="M34 -133c23 77 42 154 42 237v48h108v-41c0 -80 -34 -174 -64 -244h-86z" />
    <glyph glyph-name="quotedblbase" unicode="&#x201e;" horiz-adv-x="458" 
d="M34 -134c23 77 42 154 42 237v48h108v-41c0 -80 -34 -174 -64 -244h-86zM237 -134c23 77 42 154 42 237v48h108v-41c0 -80 -34 -174 -64 -244h-86z" />
    <glyph glyph-name="guilsinglleft" unicode="&#x2039;" horiz-adv-x="382" 
d="M320 529v-118l-178 -138l178 -138v-118l-277 220v71z" />
    <glyph glyph-name="guilsinglright" unicode="&#x203a;" horiz-adv-x="382" 
d="M62 17v118l178 138l-178 138v118l277 -220v-71z" />
    <glyph glyph-name="guillemotleft" unicode="&#xab;" horiz-adv-x="646" 
d="M320 529v-118l-178 -138l178 -138v-118l-277 220v71zM584 529v-118l-178 -138l178 -138v-118l-277 220v71z" />
    <glyph glyph-name="guillemotright" unicode="&#xbb;" horiz-adv-x="646" 
d="M62 17v118l178 138l-178 138v118l277 -220v-71zM326 17v118l178 138l-178 138v118l277 -220v-71z" />
    <glyph glyph-name="hyphen" unicode="-" horiz-adv-x="411" 
d="M70 271v96h271v-96h-271z" />
    <glyph glyph-name="uni00AD" unicode="&#xad;" horiz-adv-x="411" 
d="M70 271v96h271v-96h-271z" />
    <glyph glyph-name="endash" unicode="&#x2013;" horiz-adv-x="512" 
d="M70 271v96h372v-96h-372z" />
    <glyph glyph-name="emdash" unicode="&#x2014;" horiz-adv-x="807" 
d="M70 271v96h667v-96h-667z" />
    <glyph glyph-name="periodcentered" unicode="&#xb7;" horiz-adv-x="273" 
d="M137 300c-41 0 -73 31 -73 72c0 42 32 73 73 73s73 -31 73 -73c0 -41 -32 -72 -73 -72z" />
    <glyph glyph-name="bullet" unicode="&#x2022;" horiz-adv-x="435" 
d="M83 371c0 75 60 135 135 135s135 -60 135 -135s-60 -135 -135 -135s-135 60 -135 135z" />
    <glyph glyph-name="underscore" unicode="_" horiz-adv-x="527" 
d="M0 -175v94h527v-94h-527z" />
    <glyph glyph-name="slash" unicode="/" horiz-adv-x="514" 
d="M33 -134l335 1011h114l-336 -1011h-113z" />
    <glyph glyph-name="backslash" unicode="\" horiz-adv-x="514" 
d="M481 -134h-113l-336 1011h114z" />
    <glyph glyph-name="fraction" unicode="&#x2044;" horiz-adv-x="181" 
d="M-196 0l491 744h85l-491 -744h-85z" />
    <glyph glyph-name="bar" unicode="|" horiz-adv-x="259" 
d="M76 -183v1108h106v-1108h-106z" />
    <glyph glyph-name="brokenbar" unicode="&#xa6;" horiz-adv-x="262" 
d="M83 484v441h96v-441h-96zM179 259v-442h-96v442h96z" />
    <glyph glyph-name="parenleft" unicode="(" horiz-adv-x="351" 
d="M345 744c-100 -97 -185 -251 -185 -435s86 -339 185 -437h-122c-105 115 -174 263 -174 438c0 171 69 320 174 434h122z" />
    <glyph glyph-name="parenright" unicode=")" horiz-adv-x="351" 
d="M6 744h122c105 -114 174 -263 174 -434c0 -175 -69 -323 -174 -438h-122c99 98 185 253 185 437s-85 338 -185 435z" />
    <glyph glyph-name="bracketleft" unicode="[" horiz-adv-x="347" 
d="M75 -210v1011h241v-92h-142v-827h142v-92h-241z" />
    <glyph glyph-name="bracketright" unicode="]" horiz-adv-x="347" 
d="M272 -210h-241v92h142v827h-142v92h241v-1011z" />
    <glyph glyph-name="braceleft" unicode="{" horiz-adv-x="359" 
d="M325 774v-90c-75 8 -102 -26 -102 -80v-176c0 -62 -20 -124 -87 -147v-1c67 -22 87 -85 87 -147v-174c0 -54 28 -88 103 -80v-90c-127 -16 -198 51 -198 157v186c0 44 -15 95 -103 109v79c88 13 103 65 103 109v188c0 106 70 173 197 157z" />
    <glyph glyph-name="braceright" unicode="}" horiz-adv-x="359" 
d="M231 617v-188c0 -44 15 -96 103 -109v-79c-88 -14 -103 -65 -103 -109v-186c0 -106 -71 -173 -198 -157v90c75 -8 103 26 103 80v174c0 62 20 125 87 147v1c-67 23 -87 85 -87 147v176c0 54 -27 88 -102 80v90c127 16 197 -51 197 -157z" />
    <glyph glyph-name="asterisk" unicode="*" horiz-adv-x="582" 
d="M342 801l-21 -177l172 73l36 -100l-188 -33l128 -132l-84 -62l-94 156h-1l-94 -156l-85 62l125 132l-182 33l31 101l171 -74l-20 177h106z" />
    <glyph glyph-name="dagger" unicode="&#x2020;" horiz-adv-x="554" 
d="M227 -210v650h-192v94h192v210h99v-210h192v-94h-192v-650h-99z" />
    <glyph glyph-name="daggerdbl" unicode="&#x2021;" horiz-adv-x="610" 
d="M354 744v-210h193v-94h-193v-346h193v-94h-193v-210h-98v210h-193v94h193v346h-193v94h193v210h98z" />
    <glyph glyph-name="section" unicode="&#xa7;" horiz-adv-x="550" 
d="M394 145c45 -31 81 -74 81 -142c0 -106 -89 -190 -220 -190c-74 0 -139 26 -181 58v116c42 -45 112 -77 175 -77c60 0 113 33 113 87s-52 76 -131 111c-74 33 -171 75 -171 181c0 67 40 123 108 151c-46 29 -83 71 -83 139c0 103 86 181 219 181c55 0 114 -14 156 -38
v-110c-45 32 -99 51 -155 51c-70 0 -108 -36 -108 -79c0 -46 39 -67 104 -94c83 -36 195 -76 195 -190c0 -69 -41 -125 -102 -155zM170 302c0 -51 46 -75 110 -102c7 -3 15 -6 23 -10c47 12 84 45 84 96c0 52 -44 76 -115 106c-66 -5 -102 -48 -102 -90z" />
    <glyph glyph-name="paragraph" unicode="&#xb6;" horiz-adv-x="687" 
d="M337 -210v458h-30c-159 0 -273 98 -273 247c0 151 114 249 281 249h286v-954h-98v859h-67v-859h-99z" />
    <glyph glyph-name="copyright" unicode="&#xa9;" horiz-adv-x="892" 
d="M446 760c218 0 392 -176 392 -388s-174 -388 -392 -388c-219 0 -391 176 -391 388s172 388 391 388zM130 372c0 -172 138 -314 316 -314c177 0 316 142 316 314s-139 315 -316 315c-178 0 -316 -143 -316 -315zM569 185c-28 -16 -62 -25 -111 -25
c-109 0 -208 84 -208 212s99 213 208 213c49 0 84 -11 111 -25v-81c-32 21 -60 31 -100 31c-72 0 -138 -55 -138 -138c0 -82 66 -138 138 -138c40 0 68 10 100 32v-81z" />
    <glyph glyph-name="registered" unicode="&#xae;" horiz-adv-x="892" 
d="M446 760c218 0 392 -176 392 -388s-174 -388 -392 -388c-219 0 -391 176 -391 388s172 388 391 388zM446 58c177 0 316 142 316 314s-139 315 -316 315c-178 0 -316 -143 -316 -315s138 -314 316 -314zM592 451c0 -67 -57 -111 -115 -121l139 -160h-92l-125 153h-8v-153
h-71v412h111c104 0 161 -55 161 -131zM391 384h34c57 0 93 24 93 68c0 48 -40 64 -99 64h-28v-132z" />
    <glyph glyph-name="trademark" unicode="&#x2122;" horiz-adv-x="985" 
d="M373 744v-89h-120v-339h-89v339h-120v89h329zM854 744l66 -429h-89l-41 299h-2l-97 -299h-68l-95 297h-2l-43 -297h-87l65 429h102l96 -290h1l94 290h100z" />
    <glyph glyph-name="at" unicode="@" horiz-adv-x="999" 
d="M638 46h-38l1 73c-38 -55 -88 -84 -146 -84c-95 0 -181 74 -181 206c0 140 97 260 221 260c65 0 119 -32 146 -92l25 82h82l-56 -367c85 30 160 122 160 250c0 163 -140 260 -309 260c-197 0 -388 -140 -388 -385c0 -236 180 -337 382 -337c48 0 108 5 165 24l-13 -90
c-55 -15 -108 -22 -165 -22c-250 0 -470 133 -470 414c0 297 231 486 496 486c213 0 392 -131 392 -338c0 -185 -129 -340 -304 -340zM486 126c79 0 132 73 132 160c0 75 -40 124 -103 124c-78 0 -136 -75 -136 -164c0 -82 50 -120 107 -120z" />
    <glyph glyph-name="numbersign" unicode="#" horiz-adv-x="738" 
d="M689 447h-131l-24 -151h123l-1 -92h-136l-33 -204h-105l33 204h-148l-33 -204h-104l33 204h-115v92h129l24 151h-120v92h135l33 205h105l-33 -205h148l33 205h104l-33 -205h117zM430 296l24 151h-148l-24 -151h148z" />
    <glyph glyph-name="zero" unicode="0" horiz-adv-x="694" 
d="M347 760c159 0 289 -147 289 -388s-130 -388 -289 -388c-160 0 -289 147 -289 388s129 388 289 388zM347 649c-94 0 -169 -102 -169 -277c0 -176 75 -276 169 -276c93 0 171 101 171 276s-78 277 -171 277z" />
    <glyph glyph-name="one" unicode="1" horiz-adv-x="462" 
d="M214 0v587l-177 -74v121l285 115h10v-749h-118z" />
    <glyph glyph-name="two" unicode="2" horiz-adv-x="599" 
d="M33 0c325 370 363 432 363 514c0 71 -51 135 -140 135c-77 0 -143 -40 -185 -87v126c44 40 119 72 202 72c152 0 245 -103 245 -236c0 -115 -95 -232 -261 -414h290v-110h-514z" />
    <glyph glyph-name="three" unicode="3" horiz-adv-x="585" 
d="M77 694c44 39 112 66 191 66c150 0 236 -95 236 -201c0 -76 -41 -138 -108 -169v-3c70 -26 132 -88 132 -185c0 -112 -91 -217 -260 -217c-83 0 -153 25 -209 72v125c47 -53 114 -88 195 -88c93 0 153 50 153 120c0 69 -57 118 -159 118h-94v96h75c106 0 157 48 157 113
c0 62 -48 111 -135 111c-72 0 -135 -32 -174 -75v117z" />
    <glyph glyph-name="four" unicode="4" horiz-adv-x="668" 
d="M629 271v-101h-125v-170h-112v170h-359v71l369 503h102v-473h125zM164 271h228v313l-228 -311v-2z" />
    <glyph glyph-name="five" unicode="5" horiz-adv-x="580" 
d="M493 744v-109h-256l-34 -180c17 6 46 12 74 12c162 0 251 -113 251 -232c0 -124 -87 -251 -274 -251c-79 0 -150 25 -202 67v131c51 -55 124 -85 195 -85c98 0 158 57 158 135c0 79 -60 138 -169 138c-56 0 -96 -15 -131 -31l-17 12l65 393h340z" />
    <glyph glyph-name="six" unicode="6" horiz-adv-x="626" 
d="M338 485c124 0 248 -98 248 -240c0 -145 -110 -261 -269 -261s-269 116 -269 258c0 87 42 160 107 238l213 264h143l-211 -262c12 2 25 3 38 3zM316 91c89 0 151 71 151 150c0 99 -80 153 -166 153c-29 0 -57 -6 -85 -18c-34 -45 -51 -83 -51 -133
c0 -80 63 -152 151 -152z" />
    <glyph glyph-name="seven" unicode="7" horiz-adv-x="570" 
d="M53 0l335 635h-338v109h516l-386 -744h-127z" />
    <glyph glyph-name="eight" unicode="8" horiz-adv-x="646" 
d="M458 383c86 -32 131 -103 131 -185c0 -118 -102 -214 -266 -214c-162 0 -265 97 -265 214c0 79 45 154 130 186v2c-61 28 -109 85 -109 169c0 107 91 205 244 205s243 -98 243 -204c0 -85 -48 -142 -108 -171v-2zM192 543c0 -67 53 -116 131 -116c79 0 132 49 132 116
c0 61 -52 115 -132 115s-131 -53 -131 -115zM323 333c-90 0 -146 -55 -146 -124c0 -65 54 -124 146 -124c94 0 149 59 149 124c0 69 -58 124 -149 124z" />
    <glyph glyph-name="nine" unicode="9" horiz-adv-x="619" 
d="M308 760c159 0 264 -113 264 -255c0 -80 -37 -155 -106 -237l-217 -268h-142l209 261c-10 -1 -19 -2 -27 -2c-124 0 -247 95 -247 241c0 142 108 260 266 260zM402 368c35 46 54 85 54 135c0 82 -59 150 -147 150c-89 0 -149 -69 -149 -150c0 -89 69 -152 157 -152
c28 0 58 6 85 17z" />
    <glyph glyph-name="zero.osf" horiz-adv-x="685" 
d="M342 558c145 0 288 -107 288 -286c0 -177 -143 -285 -288 -285c-144 0 -288 106 -288 285s144 286 288 286zM342 447c-85 0 -169 -64 -169 -175s84 -175 169 -175c86 0 170 65 170 175c0 112 -84 175 -170 175z" />
    <glyph glyph-name="one.osf" horiz-adv-x="411" 
d="M183 0v405l-140 -56v114l249 96h9v-559h-118z" />
    <glyph glyph-name="two.osf" horiz-adv-x="604" 
d="M550 110v-110h-510c296 223 352 278 352 353c1 54 -46 97 -122 97c-78 0 -141 -42 -189 -96v127c55 47 129 78 222 78c130 0 218 -76 218 -177c0 -105 -100 -188 -222 -272h251z" />
    <glyph glyph-name="three.osf" horiz-adv-x="552" 
d="M71 496c44 38 109 63 181 63c140 0 223 -90 223 -200c0 -75 -39 -146 -105 -176v-3c72 -27 129 -88 129 -185c0 -116 -82 -218 -243 -218c-74 0 -148 22 -203 64v121c46 -43 111 -77 182 -77c91 0 144 55 144 122s-52 120 -147 120h-83v96h64c97 0 145 56 145 118
c0 60 -47 110 -127 110c-64 0 -123 -31 -160 -73v118z" />
    <glyph glyph-name="four.osf" horiz-adv-x="648" 
d="M610 101v-101h-119v-210h-111v210h-353v71l353 475h111v-445h119zM159 101h221v303l-221 -301v-2z" />
    <glyph glyph-name="five.osf" horiz-adv-x="568" 
d="M488 546v-110h-256l-34 -184c17 5 46 12 74 12c165 0 251 -114 251 -237s-84 -250 -272 -250c-80 0 -150 26 -204 68v130c50 -54 123 -85 196 -85c96 0 156 58 157 136c0 79 -60 141 -169 141c-55 0 -95 -15 -131 -31l-17 13l65 397h340z" />
    <glyph glyph-name="six.osf" horiz-adv-x="626" 
d="M338 485c124 0 248 -98 248 -240c0 -145 -110 -261 -269 -261s-269 116 -269 258c0 87 42 160 107 238l213 264h143l-211 -262c12 2 25 3 38 3zM316 91c89 0 151 71 151 150c0 99 -80 153 -166 153c-29 0 -57 -6 -85 -18c-34 -45 -51 -83 -51 -133
c0 -80 63 -152 151 -152z" />
    <glyph glyph-name="seven.osf" horiz-adv-x="564" 
d="M44 -210l341 646h-338v110h515l-391 -756h-127z" />
    <glyph glyph-name="eight.osf" horiz-adv-x="646" 
d="M458 383c86 -32 131 -103 131 -185c0 -118 -102 -214 -266 -214c-162 0 -265 97 -265 214c0 79 45 154 130 186v2c-61 28 -109 85 -109 169c0 107 91 205 244 205s243 -98 243 -204c0 -85 -48 -142 -108 -171v-2zM192 543c0 -67 53 -116 131 -116c79 0 132 49 132 116
c0 61 -52 115 -132 115s-131 -53 -131 -115zM323 333c-90 0 -146 -55 -146 -124c0 -65 54 -124 146 -124c94 0 149 59 149 124c0 69 -58 124 -149 124z" />
    <glyph glyph-name="nine.osf" horiz-adv-x="606" 
d="M304 559c158 0 264 -114 264 -256c0 -80 -37 -155 -106 -237l-224 -276h-143l218 269c-9 0 -18 -1 -28 -1c-124 0 -248 94 -248 241c0 141 109 260 267 260zM398 167c35 45 53 84 53 134c0 82 -58 150 -147 150c-88 0 -148 -69 -148 -149c0 -90 68 -152 156 -152
c28 0 59 5 86 17z" />
    <glyph glyph-name="zero.tf" 
d="M341 760c149 0 268 -147 268 -389c0 -241 -118 -387 -268 -387s-270 146 -270 387c0 242 120 389 270 389zM341 649c-84 0 -151 -101 -151 -278c0 -174 67 -275 151 -275c83 0 151 101 151 275c0 176 -68 278 -151 278z" />
    <glyph glyph-name="one.tf" 
d="M580 109v-109h-442v109h166v480l-175 -74v121l283 113h10v-640h158z" />
    <glyph glyph-name="two.tf" 
d="M74 0c325 370 363 432 363 514c0 71 -51 135 -140 135c-77 0 -143 -40 -185 -87v126c44 40 119 72 202 72c152 0 245 -103 245 -236c0 -115 -95 -232 -261 -414h290v-110h-514z" />
    <glyph glyph-name="three.tf" 
d="M125 694c44 39 112 66 191 66c150 0 236 -95 236 -201c0 -76 -41 -138 -108 -169v-3c70 -26 132 -88 132 -185c0 -112 -91 -217 -260 -217c-83 0 -153 25 -209 72v125c47 -53 114 -88 195 -88c93 0 153 50 153 120c0 69 -57 118 -159 118h-94v96h75c106 0 157 48 157 113
c0 62 -48 111 -135 111c-72 0 -135 -32 -174 -75v117z" />
    <glyph glyph-name="four.tf" 
d="M635 271v-101h-125v-170h-112v170h-359v71l369 503h102v-473h125zM170 271h228v313l-228 -311v-2z" />
    <glyph glyph-name="five.tf" 
d="M543 744v-109h-256l-34 -180c17 6 46 12 74 12c162 0 251 -113 251 -232c0 -124 -87 -251 -274 -251c-79 0 -150 25 -202 67v131c51 -55 124 -85 195 -85c98 0 158 57 158 135c0 79 -60 138 -169 138c-56 0 -96 -15 -131 -31l-17 12l65 393h340z" />
    <glyph glyph-name="six.tf" 
d="M365 485c124 0 248 -98 248 -240c0 -145 -110 -261 -269 -261s-269 116 -269 258c0 87 42 160 107 238l213 264h143l-211 -262c12 2 25 3 38 3zM343 91c89 0 151 71 151 150c0 99 -80 153 -166 153c-29 0 -57 -6 -85 -18c-34 -45 -51 -83 -51 -133
c0 -80 63 -152 151 -152z" />
    <glyph glyph-name="seven.tf" 
d="M108 0l335 635h-338v109h516l-386 -744h-127z" />
    <glyph glyph-name="eight.tf" 
d="M475 383c85 -32 130 -103 130 -185c0 -118 -101 -214 -265 -214c-163 0 -265 97 -265 214c0 79 45 154 129 186v2c-60 28 -108 85 -108 169c0 107 91 205 244 205s243 -98 243 -204c0 -85 -48 -142 -108 -171v-2zM340 658c-80 0 -132 -53 -132 -115
c0 -67 53 -116 132 -116c78 0 132 49 132 116c0 61 -53 115 -132 115zM488 209c0 69 -57 124 -148 124c-90 0 -147 -55 -147 -124c0 -65 55 -124 147 -124c93 0 148 59 148 124z" />
    <glyph glyph-name="nine.tf" 
d="M339 760c159 0 264 -113 264 -255c0 -80 -37 -155 -106 -237l-217 -268h-142l209 261c-10 -1 -19 -2 -27 -2c-124 0 -247 95 -247 241c0 142 108 260 266 260zM433 368c35 46 54 85 54 135c0 82 -59 150 -147 150c-89 0 -149 -69 -149 -150c0 -89 69 -152 157 -152
c28 0 58 6 85 17z" />
    <glyph glyph-name="zero.dnom" horiz-adv-x="472" 
d="M236 435c107 0 193 -84 193 -224s-86 -225 -193 -225s-193 85 -193 225s86 224 193 224zM236 351c-57 0 -101 -50 -101 -140c0 -91 44 -140 101 -140s101 49 101 140c0 90 -44 140 -101 140z" />
    <glyph glyph-name="one.dnom" horiz-adv-x="309" 
d="M138 0v322l-106 -44v87l183 75h11v-440h-88z" />
    <glyph glyph-name="two.dnom" horiz-adv-x="391" 
d="M347 80v-80h-321c185 205 209 244 209 292c0 33 -25 66 -75 66c-40 0 -76 -22 -102 -49v92c31 25 79 40 125 40c87 0 150 -52 150 -134c0 -68 -46 -125 -142 -227h156z" />
    <glyph glyph-name="three.dnom" horiz-adv-x="387" 
d="M58 398c26 21 76 37 125 37c96 0 147 -54 147 -117c0 -48 -26 -77 -62 -96v-2c46 -18 76 -55 76 -104c0 -69 -58 -130 -163 -130c-54 0 -105 18 -136 43v89c32 -34 81 -55 134 -55c44 0 80 20 80 57c0 40 -38 58 -96 58h-65v72h62c58 0 82 28 82 56c0 29 -27 51 -68 52
c-46 1 -87 -16 -116 -42v82z" />
    <glyph glyph-name="four.dnom" horiz-adv-x="431" 
d="M395 170v-75h-64v-95h-78v95h-224v55l218 283h84v-263h64zM125 170h128v162z" />
    <glyph glyph-name="five.dnom" horiz-adv-x="400" 
d="M342 427v-78h-179l-17 -89c12 3 31 5 55 5c108 0 159 -61 159 -131c0 -72 -54 -148 -189 -148c-50 0 -100 13 -131 32v85c34 -25 82 -39 129 -39c57 0 102 26 102 67c0 42 -43 68 -101 68c-44 0 -77 -7 -101 -16l-10 8l42 236h241z" />
    <glyph glyph-name="six.dnom" horiz-adv-x="431" 
d="M229 285c97 0 169 -63 169 -148c0 -84 -75 -151 -181 -151c-105 0 -181 69 -181 157c0 47 23 91 71 139l139 145h107l-139 -143c5 1 10 1 15 1zM217 62c56 0 94 36 94 79c0 50 -46 79 -94 79c-27 0 -50 -3 -66 -9c-20 -21 -29 -45 -29 -70c0 -43 40 -79 95 -79z" />
    <glyph glyph-name="seven.dnom" horiz-adv-x="406" 
d="M41 0l213 354h-214v79h356l-257 -433h-98z" />
    <glyph glyph-name="eight.dnom" horiz-adv-x="441" 
d="M321 218c48 -22 77 -60 77 -106c0 -73 -74 -126 -178 -126c-103 0 -177 53 -177 126c0 46 29 84 77 106c-40 21 -64 56 -64 97c0 70 69 120 163 120c97 0 166 -50 166 -120c0 -41 -24 -76 -64 -97zM219 368c-47 0 -80 -26 -80 -62s33 -62 80 -62c48 0 83 26 83 62
s-35 62 -83 62zM220 53c53 0 92 28 92 65c0 38 -39 66 -92 66s-92 -28 -92 -66c0 -37 39 -65 92 -65z" />
    <glyph glyph-name="nine.dnom" horiz-adv-x="428" 
d="M212 441c103 0 180 -66 180 -157c0 -48 -23 -88 -71 -137l-141 -147h-108l137 143h-8c-95 0 -168 60 -168 144c0 87 76 154 179 154zM277 218c18 21 28 45 28 68c0 46 -39 79 -93 79c-53 0 -92 -33 -92 -79s38 -78 92 -78c22 0 48 4 65 10z" />
    <glyph glyph-name="zero.numr" horiz-adv-x="472" 
d="M236 752c107 0 193 -84 193 -224s-86 -225 -193 -225s-193 85 -193 225s86 224 193 224zM236 668c-57 0 -101 -50 -101 -140c0 -91 44 -140 101 -140s101 49 101 140c0 90 -44 140 -101 140z" />
    <glyph glyph-name="one.numr" horiz-adv-x="308" 
d="M137 311v322l-106 -44v87l183 75h11v-440h-88z" />
    <glyph glyph-name="two.numr" horiz-adv-x="389" 
d="M346 391v-80h-321c185 205 209 244 209 292c0 33 -25 66 -75 66c-40 0 -76 -22 -102 -49v92c31 25 79 40 125 40c87 0 150 -52 150 -134c0 -68 -46 -125 -142 -227h156z" />
    <glyph glyph-name="three.numr" horiz-adv-x="386" 
d="M57 715c26 21 76 37 125 37c96 0 147 -54 147 -117c0 -48 -26 -77 -62 -96v-2c46 -18 76 -55 76 -104c0 -69 -58 -130 -163 -130c-54 0 -105 18 -136 43v89c32 -34 81 -55 134 -55c44 0 80 20 80 57c0 40 -38 58 -96 58h-65v72h62c58 0 82 28 82 56c0 29 -27 51 -68 52
c-46 1 -87 -16 -116 -42v82z" />
    <glyph glyph-name="four.numr" horiz-adv-x="432" 
d="M395 481v-75h-64v-95h-78v95h-224v55l218 283h84v-263h64zM125 481h128v162z" />
    <glyph glyph-name="five.numr" horiz-adv-x="400" 
d="M342 744v-78h-179l-17 -89c12 3 31 5 55 5c108 0 159 -61 159 -131c0 -72 -54 -148 -189 -148c-50 0 -100 13 -131 32v85c34 -25 82 -39 129 -39c57 0 102 26 102 67c0 42 -43 68 -101 68c-44 0 -77 -7 -101 -16l-10 8l42 236h241z" />
    <glyph glyph-name="six.numr" horiz-adv-x="431" 
d="M230 602c97 0 169 -63 169 -148c0 -84 -75 -151 -181 -151c-105 0 -181 69 -181 157c0 47 23 91 71 139l139 145h107l-139 -143c5 1 10 1 15 1zM218 379c56 0 94 36 94 79c0 50 -46 79 -94 79c-27 0 -50 -3 -66 -9c-20 -21 -29 -45 -29 -70c0 -43 40 -79 95 -79z" />
    <glyph glyph-name="seven.numr" horiz-adv-x="403" 
d="M40 311l213 354h-214v79h356l-257 -433h-98z" />
    <glyph glyph-name="eight.numr" horiz-adv-x="441" 
d="M321 535c48 -22 77 -60 77 -106c0 -73 -74 -126 -178 -126c-103 0 -177 53 -177 126c0 46 29 84 77 106c-40 21 -64 56 -64 97c0 70 69 120 163 120c97 0 166 -50 166 -120c0 -41 -24 -76 -64 -97zM219 685c-47 0 -80 -26 -80 -62s33 -62 80 -62c48 0 83 26 83 62
s-35 62 -83 62zM220 370c53 0 92 28 92 65c0 38 -39 66 -92 66s-92 -28 -92 -66c0 -37 39 -65 92 -65z" />
    <glyph glyph-name="nine.numr" horiz-adv-x="428" 
d="M212 752c103 0 180 -66 180 -157c0 -48 -23 -88 -71 -137l-141 -147h-108l137 143h-8c-95 0 -168 60 -168 144c0 87 76 154 179 154zM277 529c18 21 28 45 28 68c0 46 -39 79 -93 79c-53 0 -92 -33 -92 -79s38 -78 92 -78c22 0 48 4 65 10z" />
    <glyph glyph-name="uni00B9" unicode="&#xb9;" horiz-adv-x="308" 
d="M137 311v322l-106 -44v87l183 75h11v-440h-88z" />
    <glyph glyph-name="uni00B2" unicode="&#xb2;" horiz-adv-x="389" 
d="M346 391v-80h-321c185 205 209 244 209 292c0 33 -25 66 -75 66c-40 0 -76 -22 -102 -49v92c31 25 79 40 125 40c87 0 150 -52 150 -134c0 -68 -46 -125 -142 -227h156z" />
    <glyph glyph-name="uni00B3" unicode="&#xb3;" horiz-adv-x="386" 
d="M57 715c26 21 76 37 125 37c96 0 147 -54 147 -117c0 -48 -26 -77 -62 -96v-2c46 -18 76 -55 76 -104c0 -69 -58 -130 -163 -130c-54 0 -105 18 -136 43v89c32 -34 81 -55 134 -55c44 0 80 20 80 57c0 40 -38 58 -96 58h-65v72h62c58 0 82 28 82 56c0 29 -27 51 -68 52
c-46 1 -87 -16 -116 -42v82z" />
    <glyph glyph-name="onequarter" unicode="&#xbc;" horiz-adv-x="896" 
d="M145 311v322l-106 -44v87l183 75h11v-440h-88zM635 744h85l-491 -744h-85zM856 170v-75h-64v-95h-78v95h-224v55l218 283h84v-263h64zM586 170h128v162z" />
    <glyph glyph-name="onehalf" unicode="&#xbd;" horiz-adv-x="936" 
d="M145 311v322l-106 -44v87l183 75h11v-440h-88zM144 0l491 744h85l-491 -744h-85zM889 80v-80h-321c185 205 209 244 209 292c0 33 -25 66 -75 66c-40 0 -76 -22 -102 -49v92c31 25 79 40 125 40c87 0 150 -52 150 -134c0 -68 -46 -125 -142 -227h156z" />
    <glyph glyph-name="threequarters" unicode="&#xbe;" horiz-adv-x="966" 
d="M351 433c0 -69 -58 -130 -163 -130c-54 0 -105 18 -136 43v89c32 -34 81 -55 134 -55c44 0 80 20 80 57c0 40 -38 58 -96 58h-65v72h62c58 0 82 28 82 56c0 29 -27 51 -68 52c-46 1 -87 -16 -116 -42v82c26 21 76 37 125 37c96 0 147 -54 147 -117c0 -48 -26 -77 -62 -96
v-2c46 -18 76 -55 76 -104zM704 744h85l-491 -744h-85zM925 170v-75h-64v-95h-78v95h-224v55l218 283h84v-263h64zM655 170h128v162z" />
    <glyph glyph-name="dollar" unicode="$" horiz-adv-x="565" 
d="M520 218c0 -98 -74 -183 -187 -206v-84h-99v78c-72 6 -131 31 -173 60v131c46 -51 126 -83 197 -83c80 0 140 42 140 105s-62 87 -137 113c-99 34 -200 77 -200 205c0 94 68 170 173 192v85h99v-80c54 -5 107 -21 144 -42v-121c-37 28 -105 56 -171 56
c-78 0 -124 -40 -124 -91c0 -59 61 -82 133 -107c100 -35 205 -77 205 -211z" />
    <glyph glyph-name="cent" unicode="&#xa2;" horiz-adv-x="554" 
d="M344 447c-87 0 -168 -62 -168 -167c0 -106 81 -167 171 -167c43 0 94 9 139 41v-111c-34 -18 -77 -31 -123 -35v-89h-83v92c-131 22 -226 128 -226 269s95 246 227 267v103h83v-100c44 -4 88 -16 122 -36v-110c-45 31 -93 43 -142 43z" />
    <glyph glyph-name="sterling" unicode="&#xa3;" horiz-adv-x="593" 
d="M196 105h333v-105h-494c48 67 88 150 114 300l2 12h-87v86h102l19 110c28 164 100 252 246 252c39 0 74 -10 95 -19v-107c-24 13 -56 22 -88 22c-74 0 -122 -38 -142 -158l-17 -100h169v-86h-183l-2 -11c-13 -78 -30 -135 -67 -196z" />
    <glyph glyph-name="currency" unicode="&#xa4;" horiz-adv-x="667" 
d="M530 638l69 -69l-75 -75c23 -35 36 -76 36 -121s-14 -88 -36 -123l75 -75l-68 -69l-75 76c-35 -24 -78 -37 -123 -37s-87 13 -122 37l-75 -76l-68 69l75 75c-23 35 -37 78 -37 123s13 87 36 122l-74 74l69 69l74 -75c34 24 77 37 122 37c46 0 88 -14 122 -37zM333 232
c79 0 140 63 140 141c0 77 -61 140 -140 140s-140 -63 -140 -140c0 -78 61 -141 140 -141z" />
    <glyph glyph-name="yen" unicode="&#xa5;" horiz-adv-x="726" 
d="M696 744l-245 -361h143v-78h-171v-60h171v-77h-171v-168h-118v168h-171v77h171v60h-171v78h142l-246 361h134l201 -301h2l199 301h130z" />
    <glyph glyph-name="Euro" unicode="&#x20ac;" horiz-adv-x="663" 
d="M488 648c-117 0 -199 -67 -233 -166h251v-78h-267c-1 -10 -1 -21 -1 -32c0 -10 0 -20 1 -30h267v-77h-252c33 -103 115 -169 234 -169c40 0 78 10 111 27v-115c-32 -16 -75 -24 -123 -24c-169 0 -301 116 -341 281h-88v77h76c-1 10 -1 20 -1 30c0 11 0 21 1 32h-76v78h88
c42 163 174 278 341 278c48 0 91 -7 123 -23v-115c-33 16 -71 26 -111 26z" />
    <glyph glyph-name="florin" unicode="&#x192;" horiz-adv-x="488" 
d="M413 704c-78 0 -101 -46 -109 -99l-9 -59h134v-100h-149l-71 -468c-18 -113 -63 -201 -214 -201c-17 0 -39 2 -58 6v100c15 -2 31 -4 45 -4c71 0 103 50 112 111l68 456h-75v100h90l10 67c17 114 64 195 210 195c20 0 49 -3 65 -8v-102c-11 3 -34 6 -49 6z" />
    <glyph glyph-name="uni20B9" unicode="&#x20b9;" horiz-adv-x="655" 
d="M603 661h-157c29 -31 48 -68 55 -111h102v-84h-104c-18 -87 -89 -159 -228 -175l267 -291h-149l-335 370h163c93 0 148 39 165 96h-324v84h325c-17 60 -71 97 -160 97h-165v97h545v-83z" />
    <glyph glyph-name="uni20BD" unicode="&#x20bd;" 
d="M351 261h-84v-77h141v-83h-141v-101h-119v101h-89v83h89v77h-89v95h89v388h203c183 0 289 -93 289 -241c0 -149 -106 -242 -289 -242zM267 640v-284h86c101 0 166 51 166 142c0 90 -65 142 -166 142h-86z" />
    <glyph glyph-name="uni20BA" unicode="&#x20ba;" horiz-adv-x="707" 
d="M665 377c10 -221 -112 -377 -336 -377h-170v213l-97 -56v98l97 56v72l-97 -56v97l97 56v264h120v-194l180 104v-98l-180 -104v-72l180 104v-97l-180 -104v-173h31c145 0 244 88 237 267h118z" />
    <glyph glyph-name="percent" unicode="%" horiz-adv-x="918" 
d="M229 374c-106 0 -189 80 -189 194s83 193 189 193c107 0 189 -79 189 -193c0 -113 -82 -194 -189 -194zM160 0l490 744h108l-491 -744h-107zM229 459c49 0 98 40 98 109c0 70 -49 108 -98 108s-98 -38 -98 -108c0 -69 48 -109 98 -109zM690 -16c-107 0 -190 80 -190 193
c0 114 83 194 190 194s188 -80 188 -194c0 -113 -81 -193 -188 -193zM690 68c48 0 97 40 97 109c0 71 -49 109 -97 109c-50 0 -99 -38 -99 -109c0 -69 48 -109 99 -109z" />
    <glyph glyph-name="perthousand" unicode="&#x2030;" horiz-adv-x="1341" 
d="M418 568c0 -113 -82 -194 -189 -194c-106 0 -189 80 -189 194s83 193 189 193c107 0 189 -79 189 -193zM160 0l490 744h108l-491 -744h-107zM327 568c0 70 -49 108 -98 108s-98 -38 -98 -108c0 -69 48 -109 98 -109c49 0 98 40 98 109zM878 177
c0 -113 -81 -193 -188 -193s-190 80 -190 193c0 114 83 194 190 194s188 -80 188 -194zM1304 177c0 -113 -81 -193 -188 -193s-190 80 -190 193c0 114 83 194 190 194s188 -80 188 -194zM787 177c0 71 -49 109 -97 109c-50 0 -99 -38 -99 -109c0 -69 48 -109 99 -109
c48 0 97 40 97 109zM1214 177c0 71 -49 109 -98 109s-98 -38 -98 -109c0 -69 48 -109 98 -109c49 0 98 40 98 109z" />
    <glyph glyph-name="plus" unicode="+" 
d="M389 663v-242h241v-98h-241v-242h-103v242h-236v98h236v242h103z" />
    <glyph glyph-name="minus" unicode="&#x2212;" horiz-adv-x="697" 
d="M75 323v98h546v-98h-546z" />
    <glyph glyph-name="plusminus" unicode="&#xb1;" horiz-adv-x="707" 
d="M401 676v-214h235v-98h-235v-216h-102v216h-228v98h228v214h102zM636 98v-98h-565v98h565z" />
    <glyph glyph-name="divide" unicode="&#xf7;" horiz-adv-x="691" 
d="M344 490c-41 0 -72 32 -72 73s31 73 72 73c42 0 73 -32 73 -73s-31 -73 -73 -73zM67 322v100h556v-100h-556zM344 108c-41 0 -72 32 -72 73s31 73 72 73c42 0 73 -32 73 -73s-31 -73 -73 -73z" />
    <glyph glyph-name="multiply" unicode="&#xd7;" horiz-adv-x="657" 
d="M593 567l-195 -195l195 -195l-69 -69l-195 195l-196 -195l-68 69l195 195l-195 195l69 69l195 -195l195 195z" />
    <glyph glyph-name="equal" unicode="=" horiz-adv-x="697" 
d="M75 418v98h546v-98h-546zM75 228v98h546v-98h-546z" />
    <glyph glyph-name="less" unicode="&#x3c;" horiz-adv-x="660" 
d="M577 530v115l-529 -217v-113l529 -216v115l-394 158z" />
    <glyph glyph-name="greater" unicode="&#x3e;" horiz-adv-x="660" 
d="M83 530l394 -158l-394 -158v-115l529 216v113l-529 217v-115z" />
    <glyph glyph-name="lessequal" unicode="&#x2264;" horiz-adv-x="664" 
d="M594 567v115l-529 -217v-113l529 -216v115l-394 158zM64 0v95h529v-95h-529z" />
    <glyph glyph-name="greaterequal" unicode="&#x2265;" horiz-adv-x="664" 
d="M71 567l394 -158l-394 -158v-115l529 216v113l-529 217v-115zM71 0v95h530v-95h-530z" />
    <glyph glyph-name="approxequal" unicode="&#x2248;" horiz-adv-x="744" 
d="M672 573c-3 -139 -88 -180 -161 -180c-99 0 -178 75 -254 75c-39 0 -78 -20 -85 -73h-94c2 139 87 180 160 180c100 0 177 -75 254 -75c40 0 78 20 85 73h95zM672 349c-3 -139 -88 -180 -161 -180c-99 0 -178 75 -254 75c-39 0 -78 -20 -85 -73h-94c2 139 87 180 160 180
c100 0 177 -75 254 -75c40 0 78 20 85 73h95z" />
    <glyph glyph-name="notequal" unicode="&#x2260;" horiz-adv-x="697" 
d="M621 418h-187l-66 -92h253v-98h-323l-107 -150h-106l107 150h-117v98h187l66 92h-253v98h323l107 150h106l-107 -150h117v-98z" />
    <glyph glyph-name="logicalnot" unicode="&#xac;" horiz-adv-x="732" 
d="M550 81v242h-478v98h580v-340h-102z" />
    <glyph glyph-name="partialdiff" unicode="&#x2202;" horiz-adv-x="654" 
d="M318 808c188 0 289 -142 289 -338c0 -37 -4 -82 -10 -126c-24 -177 -117 -356 -312 -356c-142 0 -240 96 -240 250c0 176 124 312 308 312c57 0 103 -13 134 -28c-9 109 -73 181 -186 181c-44 0 -86 -10 -118 -26v103c36 18 86 28 135 28zM293 92c91 0 162 86 185 250
c5 31 7 58 9 83c-29 13 -67 25 -113 25c-135 0 -211 -100 -211 -208c0 -93 55 -150 130 -150z" />
    <glyph glyph-name="product" unicode="&#x220f;" horiz-adv-x="725" 
d="M81 744h563v-954h-120v852h-323v-852h-120v954z" />
    <glyph glyph-name="summation" unicode="&#x2211;" horiz-adv-x="664" 
d="M607 744v-104h-375l235 -373l-235 -372h377v-105h-576l299 477l-299 477h574z" />
    <glyph glyph-name="radical" unicode="&#x221a;" horiz-adv-x="705" 
d="M156 248l-123 -43l-23 77l217 81l130 -385h1l229 947h105l-269 -1096h-118z" />
    <glyph glyph-name="infinity" unicode="&#x221e;" horiz-adv-x="734" 
d="M521 531c86 0 153 -70 153 -159c0 -87 -67 -156 -153 -156c-68 0 -115 44 -154 94c-39 -50 -86 -94 -155 -94c-85 0 -152 69 -152 156c0 89 67 159 152 159c69 0 116 -44 155 -94c39 50 86 94 154 94zM224 301c37 0 66 32 96 73c-30 40 -59 72 -96 72
c-38 0 -68 -33 -68 -74c0 -40 30 -71 68 -71zM510 301c38 0 67 31 67 71c0 41 -29 74 -67 74c-37 0 -66 -32 -96 -72c30 -41 59 -73 96 -73z" />
    <glyph glyph-name="integral" unicode="&#x222b;" horiz-adv-x="529" 
d="M507 780v-103c-29 16 -57 26 -88 26c-58 0 -93 -38 -93 -92v-641c0 -128 -93 -187 -188 -187c-51 0 -93 14 -117 28v103c29 -17 58 -26 88 -26c58 0 93 37 93 92v641c0 128 93 187 188 187c51 0 94 -15 117 -28z" />
    <glyph glyph-name="asciicircum" unicode="^" horiz-adv-x="590" 
d="M543 242h-114l-133 347l-136 -347h-113l201 502h94z" />
    <glyph glyph-name="asciitilde" unicode="~" horiz-adv-x="741" 
d="M671 461c-3 -139 -88 -180 -161 -180c-99 0 -178 75 -254 75c-39 0 -78 -20 -85 -73h-94c2 139 87 180 160 180c100 0 177 -75 254 -75c40 0 78 20 85 73h95z" />
    <glyph glyph-name="degree" unicode="&#xb0;" horiz-adv-x="429" 
d="M215 425c-95 0 -169 73 -169 167c0 95 74 168 169 168s168 -73 168 -168c0 -94 -73 -167 -168 -167zM215 690c-54 0 -96 -43 -96 -98c0 -54 42 -97 96 -97s95 43 95 97c0 55 -41 98 -95 98z" />
    <glyph glyph-name="uni2206" unicode="&#x2206;" horiz-adv-x="705" 
d="M-3 0l287 744h137l286 -744h-710zM158 102h388l-194 516z" />
    <glyph glyph-name="uni2126" unicode="&#x2126;" horiz-adv-x="865" 
d="M647 97h169v-97h-315v87c89 55 171 163 171 298c1 154 -100 263 -240 263c-141 0 -240 -109 -239 -263c0 -135 81 -243 170 -298v-87h-315v97h169c-77 58 -147 162 -148 305c-1 209 151 358 363 358s363 -149 363 -358c0 -143 -70 -247 -148 -305z" />
    <glyph glyph-name="pi" unicode="&#x3c0;" horiz-adv-x="728" 
d="M682 445h-123v-249c0 -71 23 -102 85 -102c13 0 25 2 37 5v-100c-16 -5 -43 -8 -66 -8c-116 0 -174 69 -174 197v257h-183v-445h-117v445h-121v101h662v-101z" />
    <glyph glyph-name="uni00B5" unicode="&#xb5;" horiz-adv-x="658" 
d="M597 92c8 0 17 1 24 3v-98c-12 -4 -30 -6 -47 -6c-63 0 -106 29 -125 85c-25 -49 -78 -87 -142 -87c-55 0 -103 24 -131 65l22 -264h-121v756h118v-329c0 -76 44 -119 116 -119c71 0 116 40 116 123v325h118v-396c0 -44 17 -58 52 -58z" />
    <glyph glyph-name="lozenge" unicode="&#x25ca;" horiz-adv-x="644" 
d="M605 372l-231 -388h-103l-233 388l231 388h103zM479 372l-157 265h-2l-154 -265l156 -264h1z" />
    <glyph glyph-name="arrowup" unicode="&#x2191;" horiz-adv-x="765" 
d="M719 433l-1 -148l-277 259l1 -544h-119l1 544l-277 -259v148l335 311z" />
    <glyph glyph-name="uni2197" unicode="&#x2197;" horiz-adv-x="765" 
d="M80 167l399 398h-393l104 108h479v-479l-107 -104v390l-398 -397z" />
    <glyph glyph-name="arrowright" unicode="&#x2192;" horiz-adv-x="765" 
d="M433 35l-148 1l259 277l-544 -1v119l544 -1l-259 277h148l311 -335z" />
    <glyph glyph-name="uni2198" unicode="&#x2198;" horiz-adv-x="765" 
d="M80 579l84 84l398 -397v390l107 -104v-479h-479l-104 108h393z" />
    <glyph glyph-name="arrowdown" unicode="&#x2193;" horiz-adv-x="765" 
d="M719 311l-337 -311l-335 311v148l277 -259l-1 544h119l-1 -544l277 259z" />
    <glyph glyph-name="uni2199" unicode="&#x2199;" horiz-adv-x="765" 
d="M685 579l-399 -398h393l-104 -108h-479v479l107 104v-390l398 397z" />
    <glyph glyph-name="arrowleft" unicode="&#x2190;" horiz-adv-x="765" 
d="M332 710l148 -1l-259 -277l544 1v-119l-544 1l259 -277h-148l-311 335z" />
    <glyph glyph-name="uni2196" unicode="&#x2196;" horiz-adv-x="765" 
d="M685 167l-84 -84l-398 397v-390l-107 104v479h479l104 -108h-393z" />
    <glyph glyph-name="grave" unicode="`" horiz-adv-x="643" 
d="M308 794l115 -171h-94l-142 171h121z" />
    <glyph glyph-name="acute" unicode="&#xb4;" horiz-adv-x="643" 
d="M335 794h121l-142 -171h-94z" />
    <glyph glyph-name="circumflex" unicode="&#x2c6;" horiz-adv-x="643" 
d="M365 794l138 -171h-107l-75 99l-75 -99h-105l137 171h87z" />
    <glyph glyph-name="caron" unicode="&#x2c7;" horiz-adv-x="643" 
d="M503 794l-139 -171h-84l-139 171h107l74 -99l75 99h106z" />
    <glyph glyph-name="tilde" unicode="&#x2dc;" horiz-adv-x="643" 
d="M527 768c6 -95 -51 -135 -116 -135c-73 0 -100 59 -154 59c-37 0 -51 -30 -50 -56h-77c-5 95 52 135 116 135c74 0 101 -60 155 -60c37 0 51 30 50 57h76z" />
    <glyph glyph-name="dieresis" unicode="&#xa8;" horiz-adv-x="643" 
d="M214 641c-34 0 -62 27 -62 61c0 33 28 61 62 61s62 -28 62 -61c0 -34 -28 -61 -62 -61zM429 641c-35 0 -62 27 -62 61c0 33 27 61 62 61s62 -28 62 -61c0 -34 -27 -61 -62 -61z" />
    <glyph glyph-name="ring" unicode="&#x2da;" horiz-adv-x="643" 
d="M322 831c63 0 112 -45 112 -104c0 -60 -49 -105 -112 -105c-64 0 -113 45 -113 105c0 59 49 104 113 104zM322 777c-31 0 -54 -22 -54 -50c0 -29 23 -51 54 -51c30 0 52 22 52 51c0 28 -22 50 -52 50z" />
    <glyph glyph-name="macron" unicode="&#xaf;" horiz-adv-x="643" 
d="M149 662v80h345v-80h-345z" />
    <glyph glyph-name="breve" unicode="&#x2d8;" horiz-adv-x="643" 
d="M498 791c5 -108 -90 -162 -176 -162s-181 54 -176 162h83c2 -46 35 -84 93 -84s91 38 93 84h83z" />
    <glyph glyph-name="dotaccent" unicode="&#x2d9;" horiz-adv-x="643" 
d="M321 641c-33 0 -61 27 -61 61c0 33 28 61 61 61c35 0 63 -28 63 -61c0 -34 -28 -61 -63 -61z" />
    <glyph glyph-name="hungarumlaut" unicode="&#x2dd;" horiz-adv-x="643" 
d="M384 794l-177 -171h-97l149 171h125zM571 794l-177 -171h-96l148 171h125z" />
    <glyph glyph-name="cedilla" unicode="&#xb8;" horiz-adv-x="643" 
d="M211 -175c50 58 89 116 89 194h96c0 -80 -25 -142 -68 -194h-117z" />
    <glyph glyph-name="ogonek" unicode="&#x2db;" horiz-adv-x="643" 
d="M406 0c-56 -30 -93 -63 -93 -96c0 -34 28 -52 60 -52c12 0 29 2 33 5v-70c-6 -4 -29 -10 -55 -10c-74 0 -129 41 -129 108c0 54 35 110 135 164z" />
    <glyph glyph-name="caron.alt" horiz-adv-x="286" 
d="M91 590c4 31 12 62 12 113c0 37 -6 67 -16 98h106c4 -19 7 -40 7 -62c0 -38 -5 -82 -33 -149h-76z" />
    <glyph glyph-name="gravecomb" unicode="&#x300;" horiz-adv-x="0" 
d="M-27 794l115 -171h-94l-142 171h121z" />
    <glyph glyph-name="acutecomb" unicode="&#x301;" horiz-adv-x="0" 
d="M31 794h121l-142 -171h-94z" />
    <glyph glyph-name="uni0302" unicode="&#x302;" horiz-adv-x="0" 
d="M44 794l138 -171h-107l-75 99l-75 -99h-105l137 171h87z" />
    <glyph glyph-name="uni030C" unicode="&#x30c;" horiz-adv-x="0" 
d="M181 794l-139 -171h-84l-139 171h107l74 -99l75 99h106z" />
    <glyph glyph-name="tildecomb" unicode="&#x303;" horiz-adv-x="0" 
d="M198 768c6 -95 -51 -135 -116 -135c-73 0 -100 59 -154 59c-37 0 -51 -30 -50 -56h-77c-5 95 52 135 116 135c74 0 101 -60 155 -60c37 0 51 30 50 57h76z" />
    <glyph glyph-name="uni0308" unicode="&#x308;" horiz-adv-x="0" 
d="M-107 641c-34 0 -62 27 -62 61c0 33 28 61 62 61s62 -28 62 -61c0 -34 -28 -61 -62 -61zM108 641c-35 0 -62 27 -62 61c0 33 27 61 62 61s62 -28 62 -61c0 -34 -27 -61 -62 -61z" />
    <glyph glyph-name="uni030A" unicode="&#x30a;" horiz-adv-x="0" 
d="M1 831c63 0 112 -45 112 -104c0 -60 -49 -105 -112 -105c-64 0 -113 45 -113 105c0 59 49 104 113 104zM1 777c-31 0 -54 -22 -54 -50c0 -29 23 -51 54 -51c30 0 52 22 52 51c0 28 -22 50 -52 50z" />
    <glyph glyph-name="uni0304" unicode="&#x304;" horiz-adv-x="0" 
d="M-173 662v80h345v-80h-345z" />
    <glyph glyph-name="uni0306" unicode="&#x306;" horiz-adv-x="0" 
d="M176 791c5 -108 -90 -162 -176 -162s-181 54 -176 162h83c2 -46 35 -84 93 -84s91 38 93 84h83z" />
    <glyph glyph-name="uni0307" unicode="&#x307;" horiz-adv-x="0" 
d="M-1 641c-33 0 -61 27 -61 61c0 33 28 61 61 61c35 0 63 -28 63 -61c0 -34 -28 -61 -63 -61z" />
    <glyph glyph-name="uni030B" unicode="&#x30b;" horiz-adv-x="0" 
d="M98 794l-177 -171h-97l149 171h125zM285 794l-177 -171h-96l148 171h125z" />
    <glyph glyph-name="uni0327" unicode="&#x327;" horiz-adv-x="0" 
d="M-136 -175c50 58 89 116 89 194h96c0 -80 -25 -142 -68 -194h-117z" />
    <glyph glyph-name="uni0328" unicode="&#x328;" horiz-adv-x="0" 
d="M0 0c-56 -30 -93 -63 -93 -96c0 -34 28 -52 60 -52c12 0 29 2 33 5v-70c-6 -4 -29 -10 -55 -10c-74 0 -129 41 -129 108c0 54 35 110 135 164z" />
    <glyph glyph-name="uni0326" unicode="&#x326;" horiz-adv-x="0" 
d="M51 -79c13 -70 -5 -146 -47 -216h-83c32 74 40 151 23 216h107z" />
    <glyph glyph-name="I.ss01" horiz-adv-x="452" 
d="M163 104v535h-117v105h360v-105h-121v-535h121v-104h-360v104h117z" />
    <glyph glyph-name="IJ.ss01" horiz-adv-x="984" 
d="M163 104v535h-117v105h360v-105h-121v-535h121v-104h-360v104h117zM897 744v-521c0 -140 -79 -235 -233 -235c-73 0 -134 30 -168 57v126c35 -40 93 -72 156 -72c78 0 124 47 124 126v409h-197v110h318z" />
    <glyph glyph-name="Iacute.ss01" horiz-adv-x="452" 
d="M255 993h121l-142 -171h-94zM163 104v535h-117v105h360v-105h-121v-535h121v-104h-360v104h117z" />
    <glyph glyph-name="Icircumflex.ss01" horiz-adv-x="452" 
d="M268 993l138 -171h-107l-75 99l-75 -99h-105l137 171h87zM163 104v535h-117v105h360v-105h-121v-535h121v-104h-360v104h117z" />
    <glyph glyph-name="Idieresis.ss01" horiz-adv-x="452" 
d="M117 840c-34 0 -62 27 -62 61c0 33 28 61 62 61s62 -28 62 -61c0 -34 -28 -61 -62 -61zM332 840c-35 0 -62 27 -62 61c0 33 27 61 62 61s62 -28 62 -61c0 -34 -27 -61 -62 -61zM163 104v535h-117v105h360v-105h-121v-535h121v-104h-360v104h117z" />
    <glyph glyph-name="Idotaccent.ss01" horiz-adv-x="452" 
d="M223 840c-33 0 -61 27 -61 61c0 33 28 61 61 61c35 0 63 -28 63 -61c0 -34 -28 -61 -63 -61zM163 104v535h-117v105h360v-105h-121v-535h121v-104h-360v104h117z" />
    <glyph glyph-name="Igrave.ss01" horiz-adv-x="452" 
d="M197 993l115 -171h-94l-142 171h121zM163 104v535h-117v105h360v-105h-121v-535h121v-104h-360v104h117z" />
    <glyph glyph-name="Imacron.ss01" horiz-adv-x="452" 
d="M51 861v80h345v-80h-345zM163 104v535h-117v105h360v-105h-121v-535h121v-104h-360v104h117z" />
    <glyph glyph-name="Iogonek.ss01" horiz-adv-x="452" 
d="M406 639h-121v-535h121v-104h-55c-56 -30 -93 -63 -93 -96c0 -34 28 -52 60 -52c12 0 29 2 33 5v-70c-6 -4 -29 -10 -55 -10c-74 0 -129 41 -129 108c0 38 17 77 62 115h-183v104h117v535h-117v105h360v-105z" />
    <glyph glyph-name="J.ss01" horiz-adv-x="516" 
d="M429 744v-521c0 -140 -79 -235 -233 -235c-73 0 -134 30 -168 57v126c35 -40 93 -72 156 -72c78 0 124 47 124 126v409h-197v110h318z" />
    <glyph glyph-name="kgreenlandic" unicode="&#x138;" horiz-adv-x="577" 
d="M573 0h-149l-229 272v-272h-118v546h118v-253l225 253h144l-236 -260z" />
    <glyph glyph-name="a.ss01" horiz-adv-x="576" 
d="M283 559c142 0 221 -82 221 -196v-363h-89l-14 82c-37 -61 -102 -95 -175 -95c-110 0 -188 73 -188 171c0 92 69 172 203 172c56 0 110 -14 149 -33v52c0 64 -41 109 -125 109c-67 0 -136 -28 -178 -62v105c46 33 116 58 196 58zM266 256c-83 0 -120 -43 -120 -89
c0 -49 43 -85 105 -85c74 0 139 50 139 123v19c-32 19 -79 32 -124 32z" />
    <glyph glyph-name="aacute.ss01" horiz-adv-x="576" 
d="M322 794h121l-142 -171h-94zM283 559c142 0 221 -82 221 -196v-363h-89l-14 82c-37 -61 -102 -95 -175 -95c-110 0 -188 73 -188 171c0 92 69 172 203 172c56 0 110 -14 149 -33v52c0 64 -41 109 -125 109c-67 0 -136 -28 -178 -62v105c46 33 116 58 196 58zM266 256
c-83 0 -120 -43 -120 -89c0 -49 43 -85 105 -85c74 0 139 50 139 123v19c-32 19 -79 32 -124 32z" />
    <glyph glyph-name="abreve.ss01" horiz-adv-x="576" 
d="M467 791c5 -108 -90 -162 -176 -162s-181 54 -176 162h83c2 -46 35 -84 93 -84s91 38 93 84h83zM283 559c142 0 221 -82 221 -196v-363h-89l-14 82c-37 -61 -102 -95 -175 -95c-110 0 -188 73 -188 171c0 92 69 172 203 172c56 0 110 -14 149 -33v52
c0 64 -41 109 -125 109c-67 0 -136 -28 -178 -62v105c46 33 116 58 196 58zM266 256c-83 0 -120 -43 -120 -89c0 -49 43 -85 105 -85c74 0 139 50 139 123v19c-32 19 -79 32 -124 32z" />
    <glyph glyph-name="acircumflex.ss01" horiz-adv-x="576" 
d="M335 794l138 -171h-107l-75 99l-75 -99h-105l137 171h87zM283 559c142 0 221 -82 221 -196v-363h-89l-14 82c-37 -61 -102 -95 -175 -95c-110 0 -188 73 -188 171c0 92 69 172 203 172c56 0 110 -14 149 -33v52c0 64 -41 109 -125 109c-67 0 -136 -28 -178 -62v105
c46 33 116 58 196 58zM266 256c-83 0 -120 -43 -120 -89c0 -49 43 -85 105 -85c74 0 139 50 139 123v19c-32 19 -79 32 -124 32z" />
    <glyph glyph-name="adieresis.ss01" horiz-adv-x="576" 
d="M184 641c-34 0 -62 27 -62 61c0 33 28 61 62 61s62 -28 62 -61c0 -34 -28 -61 -62 -61zM399 641c-35 0 -62 27 -62 61c0 33 27 61 62 61s62 -28 62 -61c0 -34 -27 -61 -62 -61zM283 559c142 0 221 -82 221 -196v-363h-89l-14 82c-37 -61 -102 -95 -175 -95
c-110 0 -188 73 -188 171c0 92 69 172 203 172c56 0 110 -14 149 -33v52c0 64 -41 109 -125 109c-67 0 -136 -28 -178 -62v105c46 33 116 58 196 58zM266 256c-83 0 -120 -43 -120 -89c0 -49 43 -85 105 -85c74 0 139 50 139 123v19c-32 19 -79 32 -124 32z" />
    <glyph glyph-name="agrave.ss01" horiz-adv-x="576" 
d="M264 794l115 -171h-94l-142 171h121zM283 559c142 0 221 -82 221 -196v-363h-89l-14 82c-37 -61 -102 -95 -175 -95c-110 0 -188 73 -188 171c0 92 69 172 203 172c56 0 110 -14 149 -33v52c0 64 -41 109 -125 109c-67 0 -136 -28 -178 -62v105c46 33 116 58 196 58z
M266 256c-83 0 -120 -43 -120 -89c0 -49 43 -85 105 -85c74 0 139 50 139 123v19c-32 19 -79 32 -124 32z" />
    <glyph glyph-name="amacron.ss01" horiz-adv-x="576" 
d="M118 662v80h345v-80h-345zM283 559c142 0 221 -82 221 -196v-363h-89l-14 82c-37 -61 -102 -95 -175 -95c-110 0 -188 73 -188 171c0 92 69 172 203 172c56 0 110 -14 149 -33v52c0 64 -41 109 -125 109c-67 0 -136 -28 -178 -62v105c46 33 116 58 196 58zM266 256
c-83 0 -120 -43 -120 -89c0 -49 43 -85 105 -85c74 0 139 50 139 123v19c-32 19 -79 32 -124 32z" />
    <glyph glyph-name="aogonek.ss01" horiz-adv-x="576" 
d="M504 0c-56 -30 -93 -63 -93 -96c0 -34 28 -52 60 -52c12 0 29 2 33 5v-70c-6 -4 -29 -10 -55 -10c-74 0 -129 41 -129 108c0 45 25 92 91 137l-10 60c-37 -61 -102 -95 -175 -95c-110 0 -188 73 -188 171c0 92 69 172 203 172c56 0 110 -14 149 -33v52
c0 64 -41 109 -125 109c-67 0 -136 -28 -178 -62v105c46 33 116 58 196 58c142 0 221 -82 221 -196v-363zM390 205v19c-32 19 -79 32 -124 32c-83 0 -120 -43 -120 -89c0 -49 43 -85 105 -85c74 0 139 50 139 123z" />
    <glyph glyph-name="aring.ss01" horiz-adv-x="576" 
d="M292 831c63 0 112 -45 112 -104c0 -60 -49 -105 -112 -105c-64 0 -113 45 -113 105c0 59 49 104 113 104zM292 777c-31 0 -54 -22 -54 -50c0 -29 23 -51 54 -51c30 0 52 22 52 51c0 28 -22 50 -52 50zM283 559c142 0 221 -82 221 -196v-363h-89l-14 82
c-37 -61 -102 -95 -175 -95c-110 0 -188 73 -188 171c0 92 69 172 203 172c56 0 110 -14 149 -33v52c0 64 -41 109 -125 109c-67 0 -136 -28 -178 -62v105c46 33 116 58 196 58zM266 256c-83 0 -120 -43 -120 -89c0 -49 43 -85 105 -85c74 0 139 50 139 123v19
c-32 19 -79 32 -124 32z" />
    <glyph glyph-name="atilde.ss01" horiz-adv-x="576" 
d="M489 768c6 -95 -51 -135 -116 -135c-73 0 -100 59 -154 59c-37 0 -51 -30 -50 -56h-77c-5 95 52 135 116 135c74 0 101 -60 155 -60c37 0 51 30 50 57h76zM283 559c142 0 221 -82 221 -196v-363h-89l-14 82c-37 -61 -102 -95 -175 -95c-110 0 -188 73 -188 171
c0 92 69 172 203 172c56 0 110 -14 149 -33v52c0 64 -41 109 -125 109c-67 0 -136 -28 -178 -62v105c46 33 116 58 196 58zM266 256c-83 0 -120 -43 -120 -89c0 -49 43 -85 105 -85c74 0 139 50 139 123v19c-32 19 -79 32 -124 32z" />
    <glyph glyph-name="g.ss01" horiz-adv-x="602" 
d="M390 113c113 0 176 -71 176 -150c0 -102 -102 -185 -275 -186c-174 0 -270 69 -270 163c0 52 32 95 79 118c-22 20 -35 48 -35 79c0 41 23 80 67 104c-40 33 -62 79 -62 134c0 108 88 184 222 184c33 0 62 -5 89 -13h183v-96h-66c10 -22 16 -48 16 -75
c0 -108 -89 -184 -222 -184c-30 0 -58 4 -84 11c-20 -6 -36 -23 -36 -44c0 -18 13 -45 60 -45h158zM292 478c-68 0 -116 -44 -116 -104c0 -59 48 -102 116 -102c67 0 115 43 115 103c0 59 -48 103 -115 103zM292 -133c103 0 163 39 163 87c0 35 -33 65 -84 65h-168
c-7 0 -14 0 -21 1c-31 -12 -49 -38 -49 -66c0 -55 66 -87 159 -87z" />
    <glyph glyph-name="gbreve.ss01" horiz-adv-x="602" 
d="M306 629c-86 0 -181 54 -176 162h83c2 -46 35 -84 93 -84s91 38 93 84h83c5 -108 -90 -162 -176 -162zM390 113c113 0 176 -71 176 -150c0 -102 -102 -185 -275 -186c-174 0 -270 69 -270 163c0 52 32 95 79 118c-22 20 -35 48 -35 79c0 41 23 80 67 104
c-40 33 -62 79 -62 134c0 108 88 184 222 184c33 0 62 -5 89 -13h183v-96h-66c10 -22 16 -48 16 -75c0 -108 -89 -184 -222 -184c-30 0 -58 4 -84 11c-20 -6 -36 -23 -36 -44c0 -18 13 -45 60 -45h158zM292 478c-68 0 -116 -44 -116 -104c0 -59 48 -102 116 -102
c67 0 115 43 115 103c0 59 -48 103 -115 103zM292 -133c103 0 163 39 163 87c0 35 -33 65 -84 65h-168c-7 0 -14 0 -21 1c-31 -12 -49 -38 -49 -66c0 -55 66 -87 159 -87z" />
    <glyph glyph-name="gcommaaccent.ss01" horiz-adv-x="602" 
d="M362 625h-107c-13 70 5 146 47 216h83c-32 -74 -40 -151 -23 -216zM390 113c113 0 176 -71 176 -150c0 -102 -102 -185 -275 -186c-174 0 -270 69 -270 163c0 52 32 95 79 118c-22 20 -35 48 -35 79c0 41 23 80 67 104c-40 33 -62 79 -62 134c0 108 88 184 222 184
c33 0 62 -5 89 -13h183v-96h-66c10 -22 16 -48 16 -75c0 -108 -89 -184 -222 -184c-30 0 -58 4 -84 11c-20 -6 -36 -23 -36 -44c0 -18 13 -45 60 -45h158zM292 478c-68 0 -116 -44 -116 -104c0 -59 48 -102 116 -102c67 0 115 43 115 103c0 59 -48 103 -115 103zM292 -133
c103 0 163 39 163 87c0 35 -33 65 -84 65h-168c-7 0 -14 0 -21 1c-31 -12 -49 -38 -49 -66c0 -55 66 -87 159 -87z" />
    <glyph glyph-name="gdotaccent.ss01" horiz-adv-x="602" 
d="M305 641c-33 0 -61 27 -61 61c0 33 28 61 61 61c35 0 63 -28 63 -61c0 -34 -28 -61 -63 -61zM390 113c113 0 176 -71 176 -150c0 -102 -102 -185 -275 -186c-174 0 -270 69 -270 163c0 52 32 95 79 118c-22 20 -35 48 -35 79c0 41 23 80 67 104c-40 33 -62 79 -62 134
c0 108 88 184 222 184c33 0 62 -5 89 -13h183v-96h-66c10 -22 16 -48 16 -75c0 -108 -89 -184 -222 -184c-30 0 -58 4 -84 11c-20 -6 -36 -23 -36 -44c0 -18 13 -45 60 -45h158zM292 478c-68 0 -116 -44 -116 -104c0 -59 48 -102 116 -102c67 0 115 43 115 103
c0 59 -48 103 -115 103zM292 -133c103 0 163 39 163 87c0 35 -33 65 -84 65h-168c-7 0 -14 0 -21 1c-31 -12 -49 -38 -49 -66c0 -55 66 -87 159 -87z" />
    <glyph glyph-name="l.ss01" horiz-adv-x="327" 
d="M191 801v-623c0 -53 25 -78 79 -78c11 0 25 1 39 4v-103c-11 -3 -35 -8 -63 -8c-117 0 -173 77 -173 166v642h118z" />
    <glyph glyph-name="lacute.ss01" horiz-adv-x="326" 
d="M163 1049h121l-142 -171h-94zM191 801v-623c0 -53 25 -78 79 -78c11 0 25 1 39 4v-103c-11 -3 -35 -8 -63 -8c-117 0 -173 77 -173 166v642h118z" />
    <glyph glyph-name="lcaron.ss01" horiz-adv-x="353" 
d="M191 801v-623c0 -53 25 -78 79 -78c11 0 25 1 39 4v-103c-11 -3 -35 -8 -63 -8c-117 0 -173 77 -173 166v642h118zM268 590c4 31 12 62 12 113c0 37 -6 67 -16 98h106c4 -19 7 -40 7 -62c0 -38 -5 -82 -33 -149h-76z" />
    <glyph glyph-name="lcommaaccent.ss01" horiz-adv-x="326" 
d="M191 801v-623c0 -53 25 -78 79 -78c11 0 25 1 39 4v-103c-11 -3 -35 -8 -63 -8c-117 0 -173 77 -173 166v642h118zM237 -79c13 -70 -5 -146 -47 -216h-83c32 74 40 151 23 216h107z" />
    <glyph glyph-name="lslash.ss01" horiz-adv-x="445" 
d="M393 453l-122 -69v-206c0 -53 25 -78 79 -78c11 0 25 1 39 4v-103c-11 -3 -35 -8 -63 -8c-117 0 -173 77 -173 166v159l-117 -66v109l117 66v374h118v-308l122 68v-108z" />
    <glyph glyph-name="fl.ss01" horiz-adv-x="731" 
d="M111 0v446h-77v100h77v72c0 105 75 190 197 190c34 0 66 -6 97 -16v-104c-20 7 -51 14 -79 14c-64 0 -98 -30 -98 -97v-59h152v-100h-151v-446h-118zM596 801v-623c0 -53 25 -78 79 -78c11 0 25 1 39 4v-103c-11 -3 -35 -8 -63 -8c-117 0 -173 77 -173 166v642h118z" />
    <glyph glyph-name="A.sc" horiz-adv-x="587" 
d="M453 0l-51 158h-218l-51 -158h-114l206 596h137l205 -596h-114zM213 247h161l-79 247h-2z" />
    <glyph glyph-name="Aacute.sc" horiz-adv-x="587" 
d="M446 845l-142 -171h-94l115 171h121zM453 0l-51 158h-218l-51 -158h-114l206 596h137l205 -596h-114zM213 247h161l-79 247h-2z" />
    <glyph glyph-name="Abreve.sc" horiz-adv-x="587" 
d="M294 680c-86 0 -181 54 -176 162h83c2 -46 35 -84 93 -84s91 38 93 84h83c5 -108 -90 -162 -176 -162zM453 0l-51 158h-218l-51 -158h-114l206 596h137l205 -596h-114zM213 247h161l-79 247h-2z" />
    <glyph glyph-name="Acircumflex.sc" horiz-adv-x="587" 
d="M294 773l-75 -99h-105l137 171h87l138 -171h-107zM453 0l-51 158h-218l-51 -158h-114l206 596h137l205 -596h-114zM213 247h161l-79 247h-2z" />
    <glyph glyph-name="Adieresis.sc" horiz-adv-x="587" 
d="M187 692c-34 0 -62 27 -62 61c0 33 28 61 62 61s62 -28 62 -61c0 -34 -28 -61 -62 -61zM402 692c-35 0 -62 27 -62 61c0 33 27 61 62 61s62 -28 62 -61c0 -34 -27 -61 -62 -61zM453 0l-51 158h-218l-51 -158h-114l206 596h137l205 -596h-114zM213 247h161l-79 247h-2z
" />
    <glyph glyph-name="Agrave.sc" horiz-adv-x="587" 
d="M382 674h-94l-142 171h121zM453 0l-51 158h-218l-51 -158h-114l206 596h137l205 -596h-114zM213 247h161l-79 247h-2z" />
    <glyph glyph-name="Amacron.sc" horiz-adv-x="587" 
d="M466 793v-80h-345v80h345zM453 0l-51 158h-218l-51 -158h-114l206 596h137l205 -596h-114zM213 247h161l-79 247h-2z" />
    <glyph glyph-name="Aogonek.sc" horiz-adv-x="587" 
d="M474 -96c0 -34 28 -52 60 -52c12 0 29 2 33 5v-70c-6 -4 -29 -10 -55 -10c-74 0 -129 41 -129 108c0 40 19 80 68 120l-49 153h-218l-51 -158h-114l206 596h137l205 -596c-56 -30 -93 -63 -93 -96zM213 247h161l-79 247h-2z" />
    <glyph glyph-name="Aring.sc" horiz-adv-x="587" 
d="M295 673c-64 0 -113 45 -113 105c0 59 49 104 113 104c63 0 112 -45 112 -104c0 -60 -49 -105 -112 -105zM295 828c-31 0 -54 -22 -54 -50c0 -29 23 -51 54 -51c30 0 52 22 52 51c0 28 -22 50 -52 50zM453 0l-51 158h-218l-51 -158h-114l206 596h137l205 -596h-114z
M213 247h161l-79 247h-2z" />
    <glyph glyph-name="Atilde.sc" horiz-adv-x="587" 
d="M172 687h-77c-5 95 52 135 116 135c74 0 101 -60 155 -60c37 0 51 30 50 57h76c6 -95 -51 -135 -116 -135c-73 0 -100 59 -154 59c-37 0 -51 -30 -50 -56zM453 0l-51 158h-218l-51 -158h-114l206 596h137l205 -596h-114zM213 247h161l-79 247h-2z" />
    <glyph glyph-name="AE.sc" horiz-adv-x="839" 
d="M778 497h-238v-151h218v-90h-218v-157h238v-99h-350v158h-211l-98 -158h-130l377 596h412v-99zM272 247h156v250h-2z" />
    <glyph glyph-name="B.sc" horiz-adv-x="563" 
d="M412 306c67 -23 102 -71 102 -140c0 -97 -76 -166 -218 -166h-210v596h200c134 0 207 -61 207 -159c0 -61 -29 -106 -81 -131zM200 504v-161h83c61 -1 100 31 100 82c0 50 -36 79 -101 79h-82zM289 93c70 0 111 32 111 86c0 52 -40 83 -111 83h-89v-169h89z" />
    <glyph glyph-name="C.sc" horiz-adv-x="530" 
d="M484 15c-42 -19 -92 -27 -138 -27c-156 0 -297 117 -297 310c0 192 141 310 297 310c49 0 99 -9 138 -28v-108c-41 19 -78 28 -121 28c-120 0 -198 -85 -198 -202c0 -118 78 -202 198 -202c43 0 80 9 121 27v-108z" />
    <glyph glyph-name="Cacute.sc" horiz-adv-x="530" 
d="M361 845h121l-142 -171h-94zM484 15c-42 -19 -92 -27 -138 -27c-156 0 -297 117 -297 310c0 192 141 310 297 310c49 0 99 -9 138 -28v-108c-41 19 -78 28 -121 28c-120 0 -198 -85 -198 -202c0 -118 78 -202 198 -202c43 0 80 9 121 27v-108z" />
    <glyph glyph-name="Ccaron.sc" horiz-adv-x="530" 
d="M511 845l-139 -171h-84l-139 171h107l74 -99l75 99h106zM484 15c-42 -19 -92 -27 -138 -27c-156 0 -297 117 -297 310c0 192 141 310 297 310c49 0 99 -9 138 -28v-108c-41 19 -78 28 -121 28c-120 0 -198 -85 -198 -202c0 -118 78 -202 198 -202c43 0 80 9 121 27v-108z
" />
    <glyph glyph-name="Ccedilla.sc" horiz-adv-x="530" 
d="M363 500c-120 0 -198 -85 -198 -202c0 -118 78 -202 198 -202c43 0 80 9 121 27v-108c-32 -15 -70 -23 -106 -26c-6 -66 -29 -119 -67 -164h-117c45 52 81 104 88 170c-129 27 -233 137 -233 303c0 192 141 310 297 310c49 0 99 -9 138 -28v-108c-41 19 -78 28 -121 28z
" />
    <glyph glyph-name="Cdotaccent.sc" horiz-adv-x="530" 
d="M329 692c-33 0 -61 27 -61 61c0 33 28 61 61 61c35 0 63 -28 63 -61c0 -34 -28 -61 -63 -61zM484 15c-42 -19 -92 -27 -138 -27c-156 0 -297 117 -297 310c0 192 141 310 297 310c49 0 99 -9 138 -28v-108c-41 19 -78 28 -121 28c-120 0 -198 -85 -198 -202
c0 -118 78 -202 198 -202c43 0 80 9 121 27v-108z" />
    <glyph glyph-name="D.sc" horiz-adv-x="618" 
d="M232 596c206 0 338 -120 338 -297c0 -179 -131 -299 -338 -299h-146v596h146zM201 490v-383h39c129 0 212 69 212 191s-83 192 -212 192h-39z" />
    <glyph glyph-name="Eth.sc" horiz-adv-x="631" 
d="M245 596c206 0 337 -120 337 -297c0 -179 -131 -299 -337 -299h-146v257h-74v84h74v255h146zM253 103c128 0 212 72 212 195s-83 196 -212 196h-42v-154h128v-82h-128v-155h42z" />
    <glyph glyph-name="Dcaron.sc" horiz-adv-x="618" 
d="M489 845l-139 -171h-84l-139 171h107l74 -99l75 99h106zM232 596c206 0 338 -120 338 -297c0 -179 -131 -299 -338 -299h-146v596h146zM201 490v-383h39c129 0 212 69 212 191s-83 192 -212 192h-39z" />
    <glyph glyph-name="Dcroat.sc" horiz-adv-x="631" 
d="M245 596c206 0 337 -120 337 -297c0 -179 -131 -299 -337 -299h-146v257h-74v84h74v255h146zM253 103c128 0 212 72 212 195s-83 196 -212 196h-42v-154h128v-82h-128v-155h42z" />
    <glyph glyph-name="E.sc" horiz-adv-x="501" 
d="M86 0v596h353v-99h-238v-150h219v-89h-219v-159h238v-99h-353z" />
    <glyph glyph-name="Eacute.sc" horiz-adv-x="501" 
d="M292 845h121l-142 -171h-94zM86 0v596h353v-99h-238v-150h219v-89h-219v-159h238v-99h-353z" />
    <glyph glyph-name="Ecaron.sc" horiz-adv-x="501" 
d="M442 845l-139 -171h-84l-139 171h107l74 -99l75 99h106zM86 0v596h353v-99h-238v-150h219v-89h-219v-159h238v-99h-353z" />
    <glyph glyph-name="Ecircumflex.sc" horiz-adv-x="501" 
d="M305 845l138 -171h-107l-75 99l-75 -99h-105l137 171h87zM86 0v596h353v-99h-238v-150h219v-89h-219v-159h238v-99h-353z" />
    <glyph glyph-name="Edieresis.sc" horiz-adv-x="501" 
d="M154 692c-34 0 -62 27 -62 61c0 33 28 61 62 61s62 -28 62 -61c0 -34 -28 -61 -62 -61zM369 692c-35 0 -62 27 -62 61c0 33 27 61 62 61s62 -28 62 -61c0 -34 -27 -61 -62 -61zM86 0v596h353v-99h-238v-150h219v-89h-219v-159h238v-99h-353z" />
    <glyph glyph-name="Edotaccent.sc" horiz-adv-x="501" 
d="M260 692c-33 0 -61 27 -61 61c0 33 28 61 61 61c35 0 63 -28 63 -61c0 -34 -28 -61 -63 -61zM86 0v596h353v-99h-238v-150h219v-89h-219v-159h238v-99h-353z" />
    <glyph glyph-name="Egrave.sc" horiz-adv-x="501" 
d="M234 845l115 -171h-94l-142 171h121zM86 0v596h353v-99h-238v-150h219v-89h-219v-159h238v-99h-353z" />
    <glyph glyph-name="Emacron.sc" horiz-adv-x="501" 
d="M88 713v80h345v-80h-345zM86 0v596h353v-99h-238v-150h219v-89h-219v-159h238v-99h-353z" />
    <glyph glyph-name="Eogonek.sc" horiz-adv-x="501" 
d="M439 497h-238v-150h219v-89h-219v-159h238v-99c-56 -30 -93 -63 -93 -96c0 -34 28 -52 60 -52c12 0 29 2 33 5v-70c-6 -4 -29 -10 -55 -10c-74 0 -129 41 -129 108c0 38 17 77 62 115h-231v596h353v-99z" />
    <glyph glyph-name="F.sc" horiz-adv-x="485" 
d="M86 0v596h353v-107h-238v-162h218v-97h-218v-230h-115z" />
    <glyph glyph-name="G.sc" horiz-adv-x="593" 
d="M530 313v-291c-50 -21 -105 -34 -164 -34c-158 0 -317 102 -317 308c0 193 142 312 314 312c62 0 113 -13 155 -31v-108c-43 20 -93 31 -142 31c-124 0 -212 -85 -212 -204c0 -132 104 -201 201 -201c20 0 42 3 59 10v208h106z" />
    <glyph glyph-name="Gbreve.sc" horiz-adv-x="593" 
d="M517 842c5 -108 -90 -162 -176 -162s-181 54 -176 162h83c2 -46 35 -84 93 -84s91 38 93 84h83zM530 313v-291c-50 -21 -105 -34 -164 -34c-158 0 -317 102 -317 308c0 193 142 312 314 312c62 0 113 -13 155 -31v-108c-43 20 -93 31 -142 31c-124 0 -212 -85 -212 -204
c0 -132 104 -201 201 -201c20 0 42 3 59 10v208h106z" />
    <glyph glyph-name="Gcommaaccent.sc" horiz-adv-x="593" 
d="M530 313v-291c-50 -21 -105 -34 -164 -34c-158 0 -317 102 -317 308c0 193 142 312 314 312c62 0 113 -13 155 -31v-108c-43 20 -93 31 -142 31c-124 0 -212 -85 -212 -204c0 -132 104 -201 201 -201c20 0 42 3 59 10v208h106zM392 -79c13 -70 -5 -146 -47 -216h-83
c32 74 40 151 23 216h107z" />
    <glyph glyph-name="Gdotaccent.sc" horiz-adv-x="593" 
d="M340 692c-33 0 -61 27 -61 61c0 33 28 61 61 61c35 0 63 -28 63 -61c0 -34 -28 -61 -63 -61zM530 313v-291c-50 -21 -105 -34 -164 -34c-158 0 -317 102 -317 308c0 193 142 312 314 312c62 0 113 -13 155 -31v-108c-43 20 -93 31 -142 31c-124 0 -212 -85 -212 -204
c0 -132 104 -201 201 -201c20 0 42 3 59 10v208h106z" />
    <glyph glyph-name="H.sc" horiz-adv-x="666" 
d="M466 0v246h-265v-246h-115v596h115v-243h265v243h114v-596h-114z" />
    <glyph glyph-name="Hbar.sc" horiz-adv-x="678" 
d="M650 511v-77h-64v-434h-114v246h-265v-246h-115v434h-65v77h65v85h115v-85h265v85h114v-85h64zM472 353v81h-265v-81h265z" />
    <glyph glyph-name="I.sc" horiz-adv-x="287" 
d="M86 0v596h115v-596h-115z" />
    <glyph glyph-name="IJ.sc" horiz-adv-x="679" 
d="M86 0v596h115v-596h-115zM321 113c22 -12 41 -17 63 -17c63 0 101 41 101 120v380h114v-390c0 -130 -74 -216 -199 -216c-30 0 -55 6 -79 15v108z" />
    <glyph glyph-name="Iacute.sc" horiz-adv-x="287" 
d="M174 845h121l-142 -171h-94zM86 0v596h115v-596h-115z" />
    <glyph glyph-name="Icircumflex.sc" horiz-adv-x="287" 
d="M187 845l138 -171h-107l-75 99l-75 -99h-105l137 171h87zM86 0v596h115v-596h-115z" />
    <glyph glyph-name="Idieresis.sc" horiz-adv-x="287" 
d="M36 692c-34 0 -62 27 -62 61c0 33 28 61 62 61s62 -28 62 -61c0 -34 -28 -61 -62 -61zM251 692c-35 0 -62 27 -62 61c0 33 27 61 62 61s62 -28 62 -61c0 -34 -27 -61 -62 -61zM86 0v596h115v-596h-115z" />
    <glyph glyph-name="Idotaccent.sc" horiz-adv-x="287" 
d="M142 692c-33 0 -61 27 -61 61c0 33 28 61 61 61c35 0 63 -28 63 -61c0 -34 -28 -61 -63 -61zM86 0v596h115v-596h-115z" />
    <glyph glyph-name="Igrave.sc" horiz-adv-x="287" 
d="M116 845l115 -171h-94l-142 171h121zM86 0v596h115v-596h-115z" />
    <glyph glyph-name="Imacron.sc" horiz-adv-x="287" 
d="M-30 713v80h345v-80h-345zM86 0v596h115v-596h-115z" />
    <glyph glyph-name="Iogonek.sc" horiz-adv-x="287" 
d="M87 596h115v-596h-1c-56 -30 -93 -63 -93 -96c0 -34 28 -52 60 -52c12 0 29 2 33 5v-70c-6 -4 -29 -10 -55 -10c-74 0 -129 41 -129 108c0 40 19 81 70 122v589z" />
    <glyph glyph-name="J.sc" horiz-adv-x="388" 
d="M30 113c22 -12 41 -17 63 -17c63 0 101 41 101 120v380h114v-390c0 -130 -74 -216 -199 -216c-30 0 -55 6 -79 15v108z" />
    <glyph glyph-name="K.sc" horiz-adv-x="566" 
d="M549 0h-133l-215 300v-300h-115v596h115v-275l215 275h130l-227 -284z" />
    <glyph glyph-name="Kcommaaccent.sc" horiz-adv-x="566" 
d="M319 312l230 -312h-133l-215 300v-300h-115v596h115v-275l215 275h130zM243 -79h107c13 -70 -5 -146 -47 -216h-83c32 74 40 151 23 216z" />
    <glyph glyph-name="L.sc" horiz-adv-x="481" 
d="M86 0v596h115v-488h251v-108h-366z" />
    <glyph glyph-name="Lacute.sc" horiz-adv-x="481" 
d="M174 845h121l-142 -171h-94zM86 0v596h115v-488h251v-108h-366z" />
    <glyph glyph-name="Lcaron.sc" horiz-adv-x="492" 
d="M278 386c4 31 12 62 12 113c0 37 -6 67 -16 98h106c4 -19 7 -40 7 -62c0 -38 -5 -82 -33 -149h-76zM86 0v596h115v-488h251v-108h-366z" />
    <glyph glyph-name="Lcommaaccent.sc" horiz-adv-x="481" 
d="M86 0v596h115v-488h251v-108h-366zM320 -79c13 -70 -5 -146 -47 -216h-83c32 74 40 151 23 216h107z" />
    <glyph glyph-name="Ldot.sc" horiz-adv-x="513" 
d="M86 0v596h115v-488h251v-108h-366zM385 253c-41 0 -73 31 -73 72c0 42 32 73 73 73s73 -31 73 -73c0 -41 -32 -72 -73 -72z" />
    <glyph glyph-name="Lslash.sc" horiz-adv-x="512" 
d="M232 108h251v-108h-366v207l-95 -58v94l95 59v294h115v-223l118 73v-96l-118 -72v-170z" />
    <glyph glyph-name="M.sc" horiz-adv-x="807" 
d="M213 444l-55 -444h-110l88 596h129l138 -440h2l137 440h129l88 -596h-111l-56 444h-2l-140 -444h-98l-136 444h-3z" />
    <glyph glyph-name="N.sc" horiz-adv-x="669" 
d="M583 596v-596h-111l-278 429v-429h-108v596h115l274 -426v426h108z" />
    <glyph glyph-name="Nacute.sc" horiz-adv-x="669" 
d="M379 845h121l-142 -171h-94zM583 596v-596h-111l-278 429v-429h-108v596h115l274 -426v426h108z" />
    <glyph glyph-name="Ncaron.sc" horiz-adv-x="669" 
d="M529 845l-139 -171h-84l-139 171h107l74 -99l75 99h106zM583 596v-596h-111l-278 429v-429h-108v596h115l274 -426v426h108z" />
    <glyph glyph-name="Ncommaaccent.sc" horiz-adv-x="669" 
d="M583 596v-596h-111l-278 429v-429h-108v596h115l274 -426v426h108zM386 -79c13 -70 -5 -146 -47 -216h-83c32 74 40 151 23 216h107z" />
    <glyph glyph-name="Eng.sc" horiz-adv-x="669" 
d="M475 596h108v-602c0 -130 -75 -217 -199 -217c-30 0 -55 6 -80 16v107c22 -11 45 -16 67 -16c61 0 101 38 104 112l-281 433v-429h-108v596h115l274 -426v426z" />
    <glyph glyph-name="Ntilde.sc" horiz-adv-x="669" 
d="M546 819c6 -95 -51 -135 -116 -135c-73 0 -100 59 -154 59c-37 0 -51 -30 -50 -56h-77c-5 95 52 135 116 135c74 0 101 -60 155 -60c37 0 51 30 50 57h76zM583 596v-596h-111l-278 429v-429h-108v596h115l274 -426v426h108z" />
    <glyph glyph-name="O.sc" horiz-adv-x="705" 
d="M352 608c164 0 304 -125 304 -310s-140 -310 -304 -310s-303 125 -303 310s139 310 303 310zM352 500c-96 0 -186 -76 -186 -203c0 -126 91 -201 186 -201s187 75 187 201c0 127 -92 203 -187 203z" />
    <glyph glyph-name="Oacute.sc" horiz-adv-x="705" 
d="M383 845h121l-142 -171h-94zM352 608c164 0 304 -125 304 -310s-140 -310 -304 -310s-303 125 -303 310s139 310 303 310zM352 500c-96 0 -186 -76 -186 -203c0 -126 91 -201 186 -201s187 75 187 201c0 127 -92 203 -187 203z" />
    <glyph glyph-name="Ocircumflex.sc" horiz-adv-x="705" 
d="M396 845l138 -171h-107l-75 99l-75 -99h-105l137 171h87zM352 608c164 0 304 -125 304 -310s-140 -310 -304 -310s-303 125 -303 310s139 310 303 310zM352 500c-96 0 -186 -76 -186 -203c0 -126 91 -201 186 -201s187 75 187 201c0 127 -92 203 -187 203z" />
    <glyph glyph-name="Odieresis.sc" horiz-adv-x="705" 
d="M245 692c-34 0 -62 27 -62 61c0 33 28 61 62 61s62 -28 62 -61c0 -34 -28 -61 -62 -61zM460 692c-35 0 -62 27 -62 61c0 33 27 61 62 61s62 -28 62 -61c0 -34 -27 -61 -62 -61zM352 608c164 0 304 -125 304 -310s-140 -310 -304 -310s-303 125 -303 310s139 310 303 310z
M352 500c-96 0 -186 -76 -186 -203c0 -126 91 -201 186 -201s187 75 187 201c0 127 -92 203 -187 203z" />
    <glyph glyph-name="Ograve.sc" horiz-adv-x="705" 
d="M325 845l115 -171h-94l-142 171h121zM352 608c164 0 304 -125 304 -310s-140 -310 -304 -310s-303 125 -303 310s139 310 303 310zM352 500c-96 0 -186 -76 -186 -203c0 -126 91 -201 186 -201s187 75 187 201c0 127 -92 203 -187 203z" />
    <glyph glyph-name="Ohungarumlaut.sc" horiz-adv-x="705" 
d="M450 845l-177 -171h-97l149 171h125zM637 845l-177 -171h-96l148 171h125zM352 608c164 0 304 -125 304 -310s-140 -310 -304 -310s-303 125 -303 310s139 310 303 310zM352 500c-96 0 -186 -76 -186 -203c0 -126 91 -201 186 -201s187 75 187 201
c0 127 -92 203 -187 203z" />
    <glyph glyph-name="Omacron.sc" horiz-adv-x="705" 
d="M179 713v80h345v-80h-345zM352 608c164 0 304 -125 304 -310s-140 -310 -304 -310s-303 125 -303 310s139 310 303 310zM352 500c-96 0 -186 -76 -186 -203c0 -126 91 -201 186 -201s187 75 187 201c0 127 -92 203 -187 203z" />
    <glyph glyph-name="Oslash.sc" horiz-adv-x="708" 
d="M659 554l-63 -65c38 -51 61 -116 61 -191c0 -185 -140 -310 -304 -310c-69 0 -134 22 -186 62l-58 -60l-52 49l59 61c-41 52 -66 119 -66 198c0 185 139 310 303 310c73 0 140 -24 194 -68l61 63zM164 297c0 -45 12 -85 32 -116l273 280c-33 27 -74 41 -116 41
c-97 0 -189 -78 -189 -205zM543 297c0 42 -10 79 -28 110l-270 -278c31 -23 69 -35 108 -35c97 0 190 77 190 203z" />
    <glyph glyph-name="Otilde.sc" horiz-adv-x="705" 
d="M550 819c6 -95 -51 -135 -116 -135c-73 0 -100 59 -154 59c-37 0 -51 -30 -50 -56h-77c-5 95 52 135 116 135c74 0 101 -60 155 -60c37 0 51 30 50 57h76zM352 608c164 0 304 -125 304 -310s-140 -310 -304 -310s-303 125 -303 310s139 310 303 310zM352 500
c-96 0 -186 -76 -186 -203c0 -126 91 -201 186 -201s187 75 187 201c0 127 -92 203 -187 203z" />
    <glyph glyph-name="OE.sc" horiz-adv-x="840" 
d="M49 298c0 184 139 309 303 309c35 0 69 -3 100 -11h326v-99h-238v-150h219v-89h-219v-159h238v-99h-326c-31 -7 -65 -11 -100 -11c-164 0 -303 124 -303 309zM166 297c0 -126 91 -201 186 -201c25 0 50 1 73 7v390c-23 7 -48 7 -73 7c-96 0 -186 -76 -186 -203z" />
    <glyph glyph-name="P.sc" horiz-adv-x="534" 
d="M86 596h158c161 0 253 -81 253 -205c0 -122 -88 -215 -248 -215h-48v-176h-115v596zM253 275c87 0 130 48 130 113c0 63 -44 105 -130 105h-52v-218h52z" />
    <glyph glyph-name="Thorn.sc" horiz-adv-x="560" 
d="M201 596v-82h76c157 0 247 -80 247 -206c0 -121 -86 -216 -247 -216h-76v-92h-115v596h115zM279 197c87 0 130 46 130 111c0 62 -44 102 -130 102h-78v-213h78z" />
    <glyph glyph-name="Q.sc" horiz-adv-x="705" 
d="M675 24l-64 -66l-86 82c-50 -33 -110 -52 -173 -52c-164 0 -303 125 -303 310s139 310 303 310s304 -125 304 -310c0 -77 -24 -143 -64 -195zM352 89c33 0 66 9 94 26l-110 105l64 66l111 -106c20 32 32 71 32 117c0 128 -92 207 -191 207c-98 0 -189 -79 -189 -207
c0 -127 91 -208 189 -208z" />
    <glyph glyph-name="R.sc" horiz-adv-x="552" 
d="M332 221l190 -221h-139l-177 214h-5v-214h-115v596h172c160 0 236 -83 236 -192c0 -86 -59 -159 -162 -183zM201 303h63c70 0 114 37 114 98c0 55 -42 91 -115 91h-62v-189z" />
    <glyph glyph-name="Racute.sc" horiz-adv-x="552" 
d="M435 845l-142 -171h-94l115 171h121zM332 221l190 -221h-139l-177 214h-5v-214h-115v596h172c160 0 236 -83 236 -192c0 -86 -59 -159 -162 -183zM201 303h63c70 0 114 37 114 98c0 55 -42 91 -115 91h-62v-189z" />
    <glyph glyph-name="Rcaron.sc" horiz-adv-x="552" 
d="M325 674h-84l-139 171h107l74 -99l75 99h106zM332 221l190 -221h-139l-177 214h-5v-214h-115v596h172c160 0 236 -83 236 -192c0 -86 -59 -159 -162 -183zM201 303h63c70 0 114 37 114 98c0 55 -42 91 -115 91h-62v-189z" />
    <glyph glyph-name="Rcommaaccent.sc" horiz-adv-x="552" 
d="M332 221l190 -221h-139l-177 214h-5v-214h-115v596h172c160 0 236 -83 236 -192c0 -86 -59 -159 -162 -183zM201 303h63c70 0 114 37 114 98c0 55 -42 91 -115 91h-62v-189zM227 -79h107c13 -70 -5 -146 -47 -216h-83c32 74 40 151 23 216z" />
    <glyph glyph-name="S.sc" horiz-adv-x="496" 
d="M414 569v-108c-40 30 -88 46 -140 46c-60 0 -101 -25 -101 -66c0 -39 36 -60 88 -81c84 -34 190 -73 190 -190c0 -106 -87 -182 -213 -182c-76 0 -138 26 -180 57v121c43 -44 105 -77 172 -77c65 0 106 34 106 75c0 37 -34 58 -87 81c-81 33 -190 77 -190 193
c0 92 74 170 199 170c67 0 118 -16 156 -39z" />
    <glyph glyph-name="Sacute.sc" horiz-adv-x="496" 
d="M290 845h121l-142 -171h-94zM414 569v-108c-40 30 -88 46 -140 46c-60 0 -101 -25 -101 -66c0 -39 36 -60 88 -81c84 -34 190 -73 190 -190c0 -106 -87 -182 -213 -182c-76 0 -138 26 -180 57v121c43 -44 105 -77 172 -77c65 0 106 34 106 75c0 37 -34 58 -87 81
c-81 33 -190 77 -190 193c0 92 74 170 199 170c67 0 118 -16 156 -39z" />
    <glyph glyph-name="Scaron.sc" horiz-adv-x="496" 
d="M440 845l-139 -171h-84l-139 171h107l74 -99l75 99h106zM414 569v-108c-40 30 -88 46 -140 46c-60 0 -101 -25 -101 -66c0 -39 36 -60 88 -81c84 -34 190 -73 190 -190c0 -106 -87 -182 -213 -182c-76 0 -138 26 -180 57v121c43 -44 105 -77 172 -77c65 0 106 34 106 75
c0 37 -34 58 -87 81c-81 33 -190 77 -190 193c0 92 74 170 199 170c67 0 118 -16 156 -39z" />
    <glyph glyph-name="Scedilla.sc" horiz-adv-x="496" 
d="M451 170c0 -88 -61 -156 -154 -176c-5 -68 -29 -123 -67 -169h-117c44 51 79 101 87 165c-59 7 -107 29 -142 55v121c43 -44 105 -77 172 -77c65 0 106 34 106 75c0 37 -34 58 -87 81c-81 33 -190 77 -190 193c0 92 74 170 199 170c67 0 118 -16 156 -39v-108
c-40 30 -88 46 -140 46c-60 0 -101 -25 -101 -66c0 -39 36 -60 88 -81c84 -34 190 -73 190 -190z" />
    <glyph glyph-name="Scommaaccent.sc" horiz-adv-x="496" 
d="M414 569v-108c-40 30 -88 46 -140 46c-60 0 -101 -25 -101 -66c0 -39 36 -60 88 -81c84 -34 190 -73 190 -190c0 -106 -87 -182 -213 -182c-76 0 -138 26 -180 57v121c43 -44 105 -77 172 -77c65 0 106 34 106 75c0 37 -34 58 -87 81c-81 33 -190 77 -190 193
c0 92 74 170 199 170c67 0 118 -16 156 -39zM300 -79c13 -70 -5 -146 -47 -216h-83c32 74 40 151 23 216h107z" />
    <glyph glyph-name="uni1E9E.sc" horiz-adv-x="638" 
d="M436 340c87 -10 154 -74 154 -166c0 -88 -59 -186 -205 -186c-60 0 -110 18 -143 42v108c31 -30 79 -53 131 -53c70 0 111 43 111 96c0 54 -44 92 -115 92h-87l153 206c-23 18 -59 28 -99 28c-80 0 -151 -49 -151 -145v-362h-106v373c0 145 114 236 264 236
c99 0 172 -41 225 -92z" />
    <glyph glyph-name="T.sc" horiz-adv-x="536" 
d="M210 0v489h-182v107h480v-107h-182v-489h-116z" />
    <glyph glyph-name="Tbar.sc" horiz-adv-x="555" 
d="M517 489h-182v-177h122v-94h-122v-218h-116v218h-122v94h122v177h-182v107h480v-107z" />
    <glyph glyph-name="Tcaron.sc" horiz-adv-x="536" 
d="M449 845l-139 -171h-84l-139 171h107l74 -99l75 99h106zM210 0v489h-182v107h480v-107h-182v-489h-116z" />
    <glyph glyph-name="uni0162.sc" horiz-adv-x="536" 
d="M28 596h480v-107h-182v-489h-9c-4 -71 -28 -127 -68 -175h-117c46 53 82 106 88 175h-10v489h-182v107z" />
    <glyph glyph-name="uni021A.sc" horiz-adv-x="536" 
d="M210 0v489h-182v107h480v-107h-182v-489h-116zM319 -79c13 -70 -5 -146 -47 -216h-83c32 74 40 151 23 216h107z" />
    <glyph glyph-name="U.sc" horiz-adv-x="643" 
d="M565 596v-359c0 -155 -107 -248 -244 -249c-138 0 -243 94 -243 249v359h115v-366c0 -84 54 -134 128 -134c76 0 129 50 129 134v366h115z" />
    <glyph glyph-name="Uacute.sc" horiz-adv-x="643" 
d="M353 845h121l-142 -171h-94zM565 596v-359c0 -155 -107 -248 -244 -249c-138 0 -243 94 -243 249v359h115v-366c0 -84 54 -134 128 -134c76 0 129 50 129 134v366h115z" />
    <glyph glyph-name="Ucircumflex.sc" horiz-adv-x="643" 
d="M366 845l138 -171h-107l-75 99l-75 -99h-105l137 171h87zM565 596v-359c0 -155 -107 -248 -244 -249c-138 0 -243 94 -243 249v359h115v-366c0 -84 54 -134 128 -134c76 0 129 50 129 134v366h115z" />
    <glyph glyph-name="Udieresis.sc" horiz-adv-x="643" 
d="M215 692c-34 0 -62 27 -62 61c0 33 28 61 62 61s62 -28 62 -61c0 -34 -28 -61 -62 -61zM430 692c-35 0 -62 27 -62 61c0 33 27 61 62 61s62 -28 62 -61c0 -34 -27 -61 -62 -61zM565 596v-359c0 -155 -107 -248 -244 -249c-138 0 -243 94 -243 249v359h115v-366
c0 -84 54 -134 128 -134c76 0 129 50 129 134v366h115z" />
    <glyph glyph-name="Ugrave.sc" horiz-adv-x="643" 
d="M295 845l115 -171h-94l-142 171h121zM565 596v-359c0 -155 -107 -248 -244 -249c-138 0 -243 94 -243 249v359h115v-366c0 -84 54 -134 128 -134c76 0 129 50 129 134v366h115z" />
    <glyph glyph-name="Uhungarumlaut.sc" horiz-adv-x="643" 
d="M420 845l-177 -171h-97l149 171h125zM607 845l-177 -171h-96l148 171h125zM565 596v-359c0 -155 -107 -248 -244 -249c-138 0 -243 94 -243 249v359h115v-366c0 -84 54 -134 128 -134c76 0 129 50 129 134v366h115z" />
    <glyph glyph-name="Umacron.sc" horiz-adv-x="643" 
d="M149 713v80h345v-80h-345zM565 596v-359c0 -155 -107 -248 -244 -249c-138 0 -243 94 -243 249v359h115v-366c0 -84 54 -134 128 -134c76 0 129 50 129 134v366h115z" />
    <glyph glyph-name="Uogonek.sc" horiz-adv-x="643" 
d="M450 596h115v-359c0 -91 -39 -166 -104 -208c-73 -51 -115 -89 -115 -127c0 -35 28 -51 61 -51c12 0 29 2 33 5v-70c-6 -4 -34 -10 -57 -10c-74 0 -127 40 -127 107c0 34 15 70 52 105c-132 6 -230 99 -230 249v359h115v-366c0 -83 53 -134 128 -134c76 0 129 50 129 134
v366z" />
    <glyph glyph-name="Uring.sc" horiz-adv-x="643" 
d="M323 882c63 0 112 -45 112 -104c0 -60 -49 -105 -112 -105c-64 0 -113 45 -113 105c0 59 49 104 113 104zM323 828c-31 0 -54 -22 -54 -50c0 -29 23 -51 54 -51c30 0 52 22 52 51c0 28 -22 50 -52 50zM565 596v-359c0 -155 -107 -248 -244 -249c-138 0 -243 94 -243 249
v359h115v-366c0 -84 54 -134 128 -134c76 0 129 50 129 134v366h115z" />
    <glyph glyph-name="V.sc" horiz-adv-x="581" 
d="M560 596l-198 -596h-143l-199 596h124l146 -488h2l150 488h118z" />
    <glyph glyph-name="W.sc" horiz-adv-x="899" 
d="M589 0l-138 453h-3l-136 -453h-124l-163 596h119l109 -459h4l132 459h121l138 -459h2l110 459h115l-165 -596h-121z" />
    <glyph glyph-name="Wacute.sc" horiz-adv-x="899" 
d="M481 845h121l-142 -171h-94zM589 0l-138 453h-3l-136 -453h-124l-163 596h119l109 -459h4l132 459h121l138 -459h2l110 459h115l-165 -596h-121z" />
    <glyph glyph-name="Wcircumflex.sc" horiz-adv-x="899" 
d="M494 845l138 -171h-107l-75 99l-75 -99h-105l137 171h87zM589 0l-138 453h-3l-136 -453h-124l-163 596h119l109 -459h4l132 459h121l138 -459h2l110 459h115l-165 -596h-121z" />
    <glyph glyph-name="Wdieresis.sc" horiz-adv-x="899" 
d="M343 692c-34 0 -62 27 -62 61c0 33 28 61 62 61s62 -28 62 -61c0 -34 -28 -61 -62 -61zM558 692c-35 0 -62 27 -62 61c0 33 27 61 62 61s62 -28 62 -61c0 -34 -27 -61 -62 -61zM589 0l-138 453h-3l-136 -453h-124l-163 596h119l109 -459h4l132 459h121l138 -459h2
l110 459h115l-165 -596h-121z" />
    <glyph glyph-name="Wgrave.sc" horiz-adv-x="899" 
d="M423 845l115 -171h-94l-142 171h121zM589 0l-138 453h-3l-136 -453h-124l-163 596h119l109 -459h4l132 459h121l138 -459h2l110 459h115l-165 -596h-121z" />
    <glyph glyph-name="X.sc" horiz-adv-x="567" 
d="M541 596l-187 -296l192 -300h-129l-135 222l-133 -222h-126l190 299l-189 297h128l132 -219l131 219h126z" />
    <glyph glyph-name="Y.sc" horiz-adv-x="581" 
d="M569 596l-221 -354v-242h-115v242l-221 354h130l152 -253h1l149 253h125z" />
    <glyph glyph-name="Yacute.sc" horiz-adv-x="581" 
d="M321 845h121l-142 -171h-94zM569 596l-221 -354v-242h-115v242l-221 354h130l152 -253h1l149 253h125z" />
    <glyph glyph-name="Ycircumflex.sc" horiz-adv-x="581" 
d="M334 845l138 -171h-107l-75 99l-75 -99h-105l137 171h87zM569 596l-221 -354v-242h-115v242l-221 354h130l152 -253h1l149 253h125z" />
    <glyph glyph-name="Ydieresis.sc" horiz-adv-x="581" 
d="M183 692c-34 0 -62 27 -62 61c0 33 28 61 62 61s62 -28 62 -61c0 -34 -28 -61 -62 -61zM398 692c-35 0 -62 27 -62 61c0 33 27 61 62 61s62 -28 62 -61c0 -34 -27 -61 -62 -61zM569 596l-221 -354v-242h-115v242l-221 354h130l152 -253h1l149 253h125z" />
    <glyph glyph-name="Ygrave.sc" horiz-adv-x="581" 
d="M263 845l115 -171h-94l-142 171h121zM569 596l-221 -354v-242h-115v242l-221 354h130l152 -253h1l149 253h125z" />
    <glyph glyph-name="Z.sc" horiz-adv-x="526" 
d="M497 596l-294 -490h275v-106h-453l293 490h-265v106h444z" />
    <glyph glyph-name="Zacute.sc" horiz-adv-x="526" 
d="M305 845h121l-142 -171h-94zM497 596l-294 -490h275v-106h-453l293 490h-265v106h444z" />
    <glyph glyph-name="Zcaron.sc" horiz-adv-x="526" 
d="M455 845l-139 -171h-84l-139 171h107l74 -99l75 99h106zM497 596l-294 -490h275v-106h-453l293 490h-265v106h444z" />
    <glyph glyph-name="Zdotaccent.sc" horiz-adv-x="526" 
d="M273 692c-33 0 -61 27 -61 61c0 33 28 61 61 61c35 0 63 -28 63 -61c0 -34 -28 -61 -63 -61zM497 596l-294 -490h275v-106h-453l293 490h-265v106h444z" />
    <glyph glyph-name="I.sc.ss01" horiz-adv-x="416" 
d="M150 100v396h-92v100h301v-100h-95v-396h95v-100h-301v100h92z" />
    <glyph glyph-name="IJ.sc.ss01" horiz-adv-x="893" 
d="M150 100v396h-92v100h301v-100h-95v-396h95v-100h-301v100h92zM812 596v-406c0 -131 -71 -203 -192 -203c-57 0 -107 17 -148 48v118c32 -36 82 -58 127 -58c64 0 99 31 99 108v287h-168v106h282z" />
    <glyph glyph-name="Iacute.sc.ss01" horiz-adv-x="416" 
d="M238 843h121l-142 -171h-94zM150 100v396h-92v100h301v-100h-95v-396h95v-100h-301v100h92z" />
    <glyph glyph-name="Icircumflex.sc.ss01" horiz-adv-x="442" 
d="M264 843l138 -171h-107l-75 99l-75 -99h-105l137 171h87zM163 100v396h-92v100h301v-100h-95v-396h95v-100h-301v100h92z" />
    <glyph glyph-name="Idieresis.sc.ss01" horiz-adv-x="423" 
d="M103 690c-34 0 -62 27 -62 61c0 33 28 61 62 61s62 -28 62 -61c0 -34 -28 -61 -62 -61zM318 690c-35 0 -62 27 -62 61c0 33 27 61 62 61s62 -28 62 -61c0 -34 -27 -61 -62 -61zM154 100v396h-92v100h301v-100h-95v-396h95v-100h-301v100h92z" />
    <glyph glyph-name="Idotaccent.sc.ss01" horiz-adv-x="416" 
d="M206 690c-33 0 -61 27 -61 61c0 33 28 61 61 61c35 0 63 -28 63 -61c0 -34 -28 -61 -63 -61zM150 100v396h-92v100h301v-100h-95v-396h95v-100h-301v100h92z" />
    <glyph glyph-name="Igrave.sc.ss01" horiz-adv-x="416" 
d="M180 843l115 -171h-94l-142 171h121zM150 100v396h-92v100h301v-100h-95v-396h95v-100h-301v100h92z" />
    <glyph glyph-name="Imacron.sc.ss01" horiz-adv-x="416" 
d="M34 711v80h345v-80h-345zM150 100v396h-92v100h301v-100h-95v-396h95v-100h-301v100h92z" />
    <glyph glyph-name="Iogonek.sc.ss01" horiz-adv-x="416" 
d="M359 496h-95v-396h95v-100h-43c-56 -30 -93 -63 -93 -96c0 -34 28 -52 60 -52c12 0 29 2 33 5v-70c-6 -4 -29 -10 -55 -10c-74 0 -129 41 -129 108c0 38 17 77 62 115h-136v100h92v396h-92v100h301v-100z" />
    <glyph glyph-name="J.sc.ss01" horiz-adv-x="461" 
d="M380 596v-406c0 -131 -71 -203 -192 -203c-57 0 -107 17 -148 48v118c32 -36 82 -58 127 -58c64 0 99 31 99 108v287h-168v106h282z" />
    <glyph glyph-name="uni0410" unicode="&#x410;" horiz-adv-x="730" 
d="M722 0h-127l-79 209h-303l-79 -209h-125l287 744h137zM364 616l-115 -304h231z" />
    <glyph glyph-name="uni0411" unicode="&#x411;" horiz-adv-x="634" 
d="M310 460c187 0 282 -79 282 -223c0 -146 -105 -237 -279 -237h-219v744h452v-104h-332v-180h96zM307 104c102 0 163 45 163 129c0 80 -53 125 -164 125h-92v-254h93z" />
    <glyph glyph-name="uni0412" unicode="&#x412;" horiz-adv-x="661" 
d="M476 384c89 -28 135 -92 135 -178c0 -111 -85 -206 -258 -206h-259v744h246c163 0 248 -85 248 -195c0 -86 -48 -141 -112 -165zM213 640v-215h125c87 0 135 47 135 110c0 64 -48 105 -130 105h-130zM346 105c96 0 147 48 147 115c0 71 -59 113 -142 113h-138v-228h133z
" />
    <glyph glyph-name="uni0413" unicode="&#x413;" horiz-adv-x="523" 
d="M94 0v744h408v-109h-288v-635h-120z" />
    <glyph glyph-name="uni0414" unicode="&#x414;" horiz-adv-x="767" 
d="M634 110h96v-280h-110v170h-494v-170h-111v280h75c35 51 71 132 71 316v318h473v-634zM277 416c0 -141 -23 -238 -63 -306h300v524h-237v-218z" />
    <glyph glyph-name="uni0415" unicode="&#x415;" horiz-adv-x="589" 
d="M94 0v744h431v-109h-311v-205h286v-103h-286v-218h311v-109h-431z" />
    <glyph glyph-name="uni0401" unicode="&#x401;" horiz-adv-x="589" 
d="M202 840c-34 0 -62 27 -62 61c0 33 28 61 62 61s62 -28 62 -61c0 -34 -28 -61 -62 -61zM417 840c-35 0 -62 27 -62 61c0 33 27 61 62 61s62 -28 62 -61c0 -34 -27 -61 -62 -61zM94 0v744h431v-109h-311v-205h286v-103h-286v-218h311v-109h-431z" />
    <glyph glyph-name="uni0416" unicode="&#x416;" horiz-adv-x="1025" 
d="M1021 0h-147l-302 361v-361h-119v361l-302 -361h-147l323 377l-319 367h145l300 -357v357h119v-357l300 357h145l-319 -367z" />
    <glyph glyph-name="uni0417" unicode="&#x417;" horiz-adv-x="585" 
d="M393 383c79 -19 135 -87 135 -177c0 -131 -101 -222 -262 -222c-77 0 -153 20 -218 65v125c45 -43 126 -82 205 -82c92 0 153 49 153 123c0 76 -56 113 -161 113h-90v102h99c87 0 141 40 141 111c0 70 -58 113 -148 113c-65 0 -135 -22 -188 -59v117c54 29 121 49 204 49
c165 0 251 -80 251 -204c0 -84 -55 -149 -121 -174z" />
    <glyph glyph-name="uni0418" unicode="&#x418;" horiz-adv-x="805" 
d="M94 0v744h114v-563h1l386 563h116v-744h-114v568h-1l-386 -568h-116z" />
    <glyph glyph-name="uni0419" unicode="&#x419;" horiz-adv-x="805" 
d="M581 989c1 -110 -78 -163 -173 -163s-175 53 -174 163h92c1 -56 26 -94 82 -94s81 38 81 94h92zM94 0v744h114v-563h1l386 563h116v-744h-114v568h-1l-386 -568h-116z" />
    <glyph glyph-name="uni041A" unicode="&#x41a;" horiz-adv-x="682" 
d="M680 0h-149l-317 361v-361h-120v744h120v-358l316 358h144l-329 -368z" />
    <glyph glyph-name="uni041B" unicode="&#x41b;" horiz-adv-x="708" 
d="M6 -5v106c94 0 134 69 134 229v414h474v-744h-120v634h-236v-303c0 -233 -77 -336 -252 -336z" />
    <glyph glyph-name="uni041C" unicode="&#x41c;" horiz-adv-x="974" 
d="M242 573l-80 -573h-116l112 744h143l188 -563h1l183 563h143l111 -744h-117l-79 577h-3l-189 -577h-105l-189 573h-3z" />
    <glyph glyph-name="uni041D" unicode="&#x41d;" horiz-adv-x="787" 
d="M573 0v320h-359v-320h-120v744h120v-313h359v313h120v-744h-120z" />
    <glyph glyph-name="uni041E" unicode="&#x41e;" horiz-adv-x="848" 
d="M424 -16c-215 0 -376 165 -376 388c0 222 161 388 376 388s375 -166 375 -388c0 -223 -160 -388 -375 -388zM424 96c130 0 253 101 253 276s-123 277 -253 277c-132 0 -254 -102 -254 -277c0 -176 124 -276 254 -276z" />
    <glyph glyph-name="uni041F" unicode="&#x41f;" horiz-adv-x="762" 
d="M549 0v634h-335v-634h-120v744h574v-744h-119z" />
    <glyph glyph-name="uni0420" unicode="&#x420;" horiz-adv-x="628" 
d="M94 0v744h197c187 0 303 -94 303 -249c0 -151 -112 -259 -298 -259h-82v-236h-120zM302 345c104 0 171 54 171 146c0 93 -67 143 -171 143h-88v-289h88z" />
    <glyph glyph-name="uni0421" unicode="&#x421;" horiz-adv-x="669" 
d="M623 35c-50 -27 -115 -50 -200 -50c-199 0 -375 151 -375 388c0 236 176 387 375 387c85 0 150 -23 200 -50v-123c-59 38 -114 61 -191 61c-134 0 -262 -104 -262 -276c0 -170 128 -275 262 -275c77 0 132 24 191 62v-124z" />
    <glyph glyph-name="uni0422" unicode="&#x422;" horiz-adv-x="619" 
d="M250 0v634h-229v110h577v-110h-229v-634h-119z" />
    <glyph glyph-name="uni0423" unicode="&#x423;" horiz-adv-x="675" 
d="M551 744h123l-237 -544c-68 -155 -146 -207 -297 -207v105c84 0 131 23 169 96l-300 550h130l230 -439z" />
    <glyph glyph-name="uni0424" unicode="&#x424;" horiz-adv-x="882" 
d="M839 382c0 -189 -146 -327 -340 -327v-70h-116v70c-194 0 -340 137 -340 327c0 189 146 327 340 327v70h116v-70c194 0 340 -137 340 -327zM158 382c0 -128 96 -223 225 -223v446c-129 0 -225 -95 -225 -223zM499 159c130 0 226 95 226 223s-96 223 -226 223v-446z" />
    <glyph glyph-name="uni0425" unicode="&#x425;" horiz-adv-x="675" 
d="M13 0l249 374l-246 370h138l186 -283l182 283h136l-245 -369l250 -375h-138l-189 286l-186 -286h-137z" />
    <glyph glyph-name="uni0427" unicode="&#x427;" horiz-adv-x="657" 
d="M443 744h120v-744h-120v300c-48 -17 -102 -29 -167 -29c-144 0 -228 77 -228 230v243h119v-218c0 -100 46 -144 140 -144c48 0 100 12 136 28v334z" />
    <glyph glyph-name="uni0426" unicode="&#x426;" horiz-adv-x="784" 
d="M650 110h97v-280h-109v170h-544v744h120v-634h317v634h119v-634z" />
    <glyph glyph-name="uni0428" unicode="&#x428;" horiz-adv-x="1021" 
d="M807 744h120v-744h-833v744h120v-634h237v634h119v-634h237v634z" />
    <glyph glyph-name="uni0429" unicode="&#x429;" horiz-adv-x="1057" 
d="M923 110h97v-280h-109v170h-817v744h120v-634h235v634h119v-634h236v634h119v-634z" />
    <glyph glyph-name="uni040F" unicode="&#x40f;" horiz-adv-x="743" 
d="M649 744v-744h-223v-170h-109v170h-223v744h120v-634h316v634h119z" />
    <glyph glyph-name="uni042C" unicode="&#x42c;" horiz-adv-x="624" 
d="M299 489c181 0 291 -83 291 -238c0 -157 -118 -251 -292 -251h-204v744h120v-255h85zM303 105c102 0 166 52 166 142s-63 138 -167 138h-88v-280h89z" />
    <glyph glyph-name="uni042A" unicode="&#x42a;" horiz-adv-x="754" 
d="M430 489c181 0 291 -83 291 -238c0 -157 -118 -251 -292 -251h-201v634h-207v110h326v-255h83zM434 105c102 0 166 52 166 142s-63 138 -167 138h-86v-280h87z" />
    <glyph glyph-name="uni042B" unicode="&#x42b;" horiz-adv-x="893" 
d="M292 489c181 0 291 -83 291 -238c0 -157 -118 -251 -292 -251h-197v744h120v-255h78zM679 744h120v-744h-120v744zM296 105c102 0 166 52 166 142s-63 138 -167 138h-81v-280h82z" />
    <glyph glyph-name="uni0409" unicode="&#x409;" horiz-adv-x="1013" 
d="M688 489c182 0 292 -80 292 -236s-119 -250 -293 -250h-193v631h-237v-298c0 -233 -76 -336 -251 -336v105c94 0 134 69 134 229v410h470v-255h78zM693 107c102 0 166 53 166 143s-63 135 -167 135h-82v-278h83z" />
    <glyph glyph-name="uni040A" unicode="&#x40a;" horiz-adv-x="1063" 
d="M745 457c180 0 286 -72 286 -221s-109 -236 -285 -236h-204v348h-328v-348h-120v744h120v-287h328v287h116v-287h87zM748 102c102 0 164 45 164 130c0 86 -61 123 -165 123h-89v-253h90z" />
    <glyph glyph-name="uni042D" unicode="&#x42d;" horiz-adv-x="691" 
d="M264 758c208 0 378 -143 378 -386c0 -242 -171 -385 -382 -385c-76 0 -143 15 -208 46v118c64 -37 126 -54 198 -54c140 0 250 78 268 228h-356v101h355c-19 145 -128 220 -264 220c-78 0 -142 -16 -201 -51v116c65 31 131 47 212 47z" />
    <glyph glyph-name="uni0408" unicode="&#x408;" horiz-adv-x="476" 
d="M28 161c30 -34 71 -62 125 -62c71 0 116 46 116 136v509h120v-526c0 -134 -81 -230 -219 -230c-53 0 -106 18 -142 49v124z" />
    <glyph glyph-name="uni040B" unicode="&#x40b;" horiz-adv-x="765" 
d="M490 462c142 0 227 -69 227 -222v-240h-120v211c0 99 -41 140 -134 140c-54 0 -105 -10 -144 -26v-325h-120v634h-177v110h177v1h120v-1h267v-108h-267v-201c50 17 106 27 171 27z" />
    <glyph glyph-name="uni042E" unicode="&#x42e;" horiz-adv-x="1092" 
d="M684 757c205 0 359 -160 359 -384c0 -226 -154 -386 -359 -386c-189 0 -334 136 -357 332h-113v-319h-120v744h120v-318h113c22 196 168 331 357 331zM684 97c140 0 239 114 239 276c0 160 -100 274 -239 274s-239 -113 -239 -274c0 -162 100 -276 239 -276z" />
    <glyph glyph-name="uni042F" unicode="&#x42f;" horiz-adv-x="650" 
d="M335 744h221v-744h-120v324l-262 -324h-148l256 289c-171 20 -223 126 -223 226c0 146 106 229 276 229zM339 383h97v251h-100c-104 0 -156 -45 -156 -124c0 -84 58 -127 159 -127z" />
    <glyph glyph-name="uni0402" unicode="&#x402;" horiz-adv-x="753" 
d="M485 459c138 0 235 -79 235 -225c0 -139 -89 -234 -237 -234h-23v102h10c79 0 127 45 127 123c0 86 -53 127 -139 127c-51 0 -100 -10 -140 -27v-325h-120v634h-176v110h562v-108h-266v-204c51 18 105 27 167 27z" />
    <glyph glyph-name="uni0414.BUL" horiz-adv-x="809" 
d="M708 110h82v-280h-111v170h-549v-170h-110v280h82l235 634h137zM405 621l-181 -511h361z" />
    <glyph glyph-name="uni041B.BUL" horiz-adv-x="705" 
d="M11 0l273 744h136l275 -744h-126l-217 616l-216 -616h-125z" />
    <glyph glyph-name="uni0409.BUL" horiz-adv-x="972" 
d="M647 489c182 0 291 -83 291 -238c0 -157 -118 -251 -292 -251h-193v640h-7l-328 -640h-128l381 744h198v-255h78zM652 105c102 0 166 52 166 142s-64 138 -167 138h-82v-280h83z" />
    <glyph glyph-name="uni0430" unicode="&#x430;" horiz-adv-x="669" 
d="M290 -13c-125 0 -245 113 -245 285c0 174 120 287 245 287c80 0 150 -40 189 -107l13 94h98v-546h-98l-13 94c-39 -67 -109 -107 -189 -107zM320 95c87 0 155 73 155 178c0 104 -68 178 -155 178c-89 0 -157 -74 -157 -178c0 -105 68 -178 157 -178z" />
    <glyph glyph-name="uni0431" unicode="&#x431;" horiz-adv-x="655" 
d="M365 529c146 0 244 -116 244 -269c0 -159 -110 -273 -269 -273c-176 0 -281 125 -280 348c0 273 93 382 267 429c72 20 165 33 244 45v-110c-67 -9 -156 -24 -216 -38c-114 -29 -173 -94 -186 -238c43 67 117 106 196 106zM336 92c93 0 158 69 158 168
c0 97 -63 167 -155 167c-94 0 -162 -69 -162 -162c0 -100 66 -173 159 -173z" />
    <glyph glyph-name="uni0432" unicode="&#x432;" horiz-adv-x="564" 
d="M415 280c62 -18 102 -67 102 -130c0 -92 -76 -150 -198 -150h-241v546h234c117 0 188 -55 188 -144c0 -56 -33 -103 -85 -122zM193 459v-143h104c56 0 91 25 91 74c0 48 -34 69 -95 69h-100zM299 86c65 0 103 24 103 77c0 49 -41 75 -104 75h-105v-152h106z" />
    <glyph glyph-name="uni0433" unicode="&#x433;" horiz-adv-x="433" 
d="M78 0v546h336v-99h-218v-447h-118z" />
    <glyph glyph-name="uni0434" unicode="&#x434;" horiz-adv-x="648" 
d="M531 99h82v-227h-106v128h-381v-128h-105v227h59c33 47 52 112 52 203v244h399v-447zM246 300c0 -92 -26 -163 -47 -201h215v349h-168v-148z" />
    <glyph glyph-name="uni0435" unicode="&#x435;" horiz-adv-x="597" 
d="M554 283c0 -17 -1 -32 -3 -46h-393c17 -96 90 -152 186 -152c62 0 123 22 178 65v-106c-56 -38 -120 -57 -190 -57c-179 0 -287 116 -287 284c0 175 122 288 268 288c132 0 241 -95 241 -276zM158 316h284c-3 97 -62 145 -130 145c-74 0 -140 -55 -154 -145z" />
    <glyph glyph-name="uni0451" unicode="&#x451;" horiz-adv-x="597" 
d="M205 641c-34 0 -62 27 -62 61c0 33 28 61 62 61s62 -28 62 -61c0 -34 -28 -61 -62 -61zM420 641c-35 0 -62 27 -62 61c0 33 27 61 62 61s62 -28 62 -61c0 -34 -27 -61 -62 -61zM554 283c0 -17 -1 -32 -3 -46h-393c17 -96 90 -152 186 -152c62 0 123 22 178 65v-106
c-56 -38 -120 -57 -190 -57c-179 0 -287 116 -287 284c0 175 122 288 268 288c132 0 241 -95 241 -276zM158 316h284c-3 97 -62 145 -130 145c-74 0 -140 -55 -154 -145z" />
    <glyph glyph-name="uni0436" unicode="&#x436;" horiz-adv-x="801" 
d="M791 0h-139l-191 267v-267h-116v268l-192 -268h-138l215 283l-209 263h136l188 -253v253h116v-252l187 252h136l-208 -263z" />
    <glyph glyph-name="uni0437" unicode="&#x437;" horiz-adv-x="503" 
d="M352 282c62 -19 104 -68 104 -133c0 -95 -84 -162 -220 -162c-73 0 -135 18 -189 53v115c48 -39 113 -69 186 -69c66 0 106 29 106 75s-42 73 -117 73h-84v86h86c65 0 101 31 101 76c0 42 -37 63 -101 63c-57 0 -122 -18 -166 -52v107c46 29 113 45 176 45
c132 0 206 -57 206 -148c0 -62 -39 -110 -88 -129z" />
    <glyph glyph-name="uni0438" unicode="&#x438;" horiz-adv-x="626" 
d="M78 0v545h110v-372h2l247 372h111v-545h-111v369h-1l-242 -369h-116z" />
    <glyph glyph-name="uni0439" unicode="&#x439;" horiz-adv-x="626" 
d="M485 790c1 -110 -78 -163 -173 -163s-175 53 -174 163h92c1 -56 26 -94 82 -94s81 38 81 94h92zM78 0v545h110v-372h2l247 372h111v-545h-111v369h-1l-242 -369h-116z" />
    <glyph glyph-name="uni043A" unicode="&#x43a;" horiz-adv-x="553" 
d="M544 0h-141l-207 271v-271h-118v546h118v-255l203 255h138l-220 -263z" />
    <glyph glyph-name="uni043B" unicode="&#x43b;" horiz-adv-x="588" 
d="M18 -5l1 103c66 0 94 41 94 153v295h396v-546h-118v446h-162v-207c0 -169 -67 -244 -211 -244z" />
    <glyph glyph-name="uni043C" unicode="&#x43c;" horiz-adv-x="740" 
d="M52 0l59 545h128l131 -373h2l132 373h124l61 -545h-113l-31 372h-3l-129 -364h-88l-128 366h-3l-30 -374h-112z" />
    <glyph glyph-name="uni043D" unicode="&#x43d;" horiz-adv-x="618" 
d="M78 0v546h118v-223h226v223h118v-546h-118v223h-226v-223h-118z" />
    <glyph glyph-name="uni043E" unicode="&#x43e;" horiz-adv-x="643" 
d="M322 -13c-158 0 -278 120 -278 286s121 286 278 286c158 0 277 -120 277 -286s-119 -286 -277 -286zM322 95c81 0 158 65 158 178s-77 178 -158 178s-159 -65 -159 -178s78 -178 159 -178z" />
    <glyph glyph-name="uni043F" unicode="&#x43f;" horiz-adv-x="610" 
d="M78 0v546h454v-546h-118v446h-218v-446h-118z" />
    <glyph glyph-name="uni0440" unicode="&#x440;" horiz-adv-x="670" 
d="M78 -210v756h98l13 -94c39 67 109 107 187 107c129 0 248 -112 248 -286c0 -175 -117 -286 -245 -286c-74 0 -147 39 -183 102v-299h-118zM348 95c89 0 157 73 157 179c0 104 -68 177 -156 177s-155 -73 -155 -178s67 -178 154 -178z" />
    <glyph glyph-name="uni0441" unicode="&#x441;" horiz-adv-x="529" 
d="M163 273c0 -111 82 -178 174 -178c44 0 96 9 142 43v-113c-42 -24 -96 -38 -155 -38c-159 0 -280 122 -280 287c0 163 121 285 280 285c56 0 110 -11 155 -39v-114c-46 32 -90 45 -143 45c-91 0 -173 -68 -173 -178z" />
    <glyph glyph-name="uni0442" unicode="&#x442;" horiz-adv-x="480" 
d="M181 0v446h-161v100h441v-100h-162v-446h-118z" />
    <glyph glyph-name="uni0443" unicode="&#x443;" horiz-adv-x="562" 
d="M546 546l-297 -756h-119l94 228l-205 528h128l137 -394h2l138 394h122z" />
    <glyph glyph-name="uni0444" unicode="&#x444;" horiz-adv-x="785" 
d="M741 273c0 -172 -132 -285 -292 -285v-198h-113v198c-160 0 -292 113 -292 285c0 171 131 284 292 284v244h113v-244c161 0 292 -113 292 -284zM159 273c0 -110 75 -187 177 -188v375c-102 -1 -177 -78 -177 -187zM449 85c102 1 177 78 177 188c0 109 -75 186 -177 187
v-375z" />
    <glyph glyph-name="uni0445" unicode="&#x445;" horiz-adv-x="551" 
d="M529 546l-185 -268l191 -278h-134l-126 194h-1l-127 -194h-129l189 273l-187 273h131l124 -193h2l124 193h128z" />
    <glyph glyph-name="uni0447" unicode="&#x447;" horiz-adv-x="551" 
d="M355 546h118v-546h-118v206c-39 -13 -84 -22 -132 -22c-120 0 -181 61 -181 178v184h118v-158c0 -71 30 -101 98 -101c36 0 71 7 97 18v241z" />
    <glyph glyph-name="uni0446" unicode="&#x446;" horiz-adv-x="641" 
d="M525 99h82v-227h-105v128h-424v546h118v-447h211v447h118v-447z" />
    <glyph glyph-name="uni0448" unicode="&#x448;" horiz-adv-x="850" 
d="M654 545h118v-545h-694v545h118v-446h171v446h116v-446h171v446z" />
    <glyph glyph-name="uni0449" unicode="&#x449;" horiz-adv-x="884" 
d="M769 99h82v-227h-106v128h-667v545h118v-446h169v446h117v-446h169v446h118v-446z" />
    <glyph glyph-name="uni045F" unicode="&#x45f;" horiz-adv-x="604" 
d="M525 545v-545h-171v-128h-106v128h-170v545h118v-446h211v446h118z" />
    <glyph glyph-name="uni044C" unicode="&#x44c;" horiz-adv-x="525" 
d="M297 366c120 0 199 -75 199 -181s-91 -185 -213 -185h-205v546h118v-180h101zM279 89c61 0 101 41 101 96s-35 93 -95 93h-89v-189h83z" />
    <glyph glyph-name="uni044A" unicode="&#x44a;" horiz-adv-x="609" 
d="M379 366c120 0 201 -75 201 -181s-91 -185 -213 -185h-202v446h-144v100h262v-180h96zM363 89c61 0 101 41 101 96s-35 93 -95 93h-86v-189h80z" />
    <glyph glyph-name="uni044B" unicode="&#x44b;" horiz-adv-x="761" 
d="M291 366c120 0 200 -75 200 -181s-91 -185 -213 -185h-200v546h118v-180h95zM564 546h118v-546h-118v546zM273 89c61 0 101 41 101 96s-35 93 -95 93h-83v-189h77z" />
    <glyph glyph-name="uni0459" unicode="&#x459;" horiz-adv-x="829" 
d="M601 366c120 0 199 -75 199 -181s-91 -185 -213 -185h-197v446h-162l1 -203c1 -168 -66 -243 -210 -243l1 103c66 0 95 41 94 153l-1 290h392v-180h96zM582 89c61 0 101 41 101 96s-34 93 -95 93h-83v-189h77z" />
    <glyph glyph-name="uni045A" unicode="&#x45a;" horiz-adv-x="852" 
d="M626 344c120 0 198 -64 198 -168c0 -103 -91 -176 -213 -176h-197v247h-218v-247h-118v546h118v-202h218v202h115v-202h97zM608 87c61 0 101 33 101 88c0 56 -35 82 -95 82h-85v-170h79z" />
    <glyph glyph-name="uni044D" unicode="&#x44d;" horiz-adv-x="542" 
d="M213 559c163 0 284 -113 284 -286c0 -175 -122 -285 -284 -285c-56 0 -119 9 -165 35v100c49 -29 108 -37 152 -37c96 0 166 51 180 146h-245v88h244c-15 91 -83 140 -177 140c-45 0 -103 -8 -154 -37v100c48 27 112 36 165 36z" />
    <glyph glyph-name="uni0458" unicode="&#x458;" horiz-adv-x="275" 
d="M138 652c-39 0 -69 29 -69 67c0 39 30 68 69 68s69 -29 69 -68c0 -38 -30 -67 -69 -67zM-23 -210c68 74 102 153 102 284v472h118v-464c0 -120 -23 -211 -86 -292h-134z" />
    <glyph glyph-name="uni045B" unicode="&#x45b;" horiz-adv-x="617" 
d="M349 551c119 0 196 -68 196 -196v-355h-118v319c0 84 -37 124 -110 124c-66 0 -121 -39 -121 -117v-326h-118v629h-78v86h78v86h118v-86h153v-86h-153v-151h1c31 43 88 73 152 73z" />
    <glyph glyph-name="uni044E" unicode="&#x44e;" horiz-adv-x="868" 
d="M552 557c148 0 271 -110 271 -284s-124 -285 -271 -285c-132 0 -246 90 -268 236h-88v-224h-118v546h118v-225h88c21 146 135 236 268 236zM552 96c88 0 153 72 153 177c0 106 -65 176 -153 176c-87 0 -153 -71 -153 -176s66 -177 153 -177z" />
    <glyph glyph-name="uni044F" unicode="&#x44f;" horiz-adv-x="552" 
d="M268 546h206v-546h-118v231l-186 -231h-139l180 199c-109 16 -160 90 -160 171c0 100 73 176 217 176zM263 277h93v172h-92c-66 0 -99 -34 -99 -86c0 -58 35 -86 98 -86z" />
    <glyph glyph-name="uni0452" unicode="&#x452;" horiz-adv-x="617" 
d="M349 551c119 0 196 -68 196 -196v-273c0 -120 -23 -211 -86 -292h-135c69 74 103 153 103 284v245c0 84 -37 124 -110 124c-66 0 -121 -39 -121 -117v-326h-118v629h-78v86h78v86h118v-86h153v-86h-153v-151h1c31 43 88 73 152 73z" />
    <glyph glyph-name="uni0432.BUL" horiz-adv-x="651" 
d="M433 437c106 -29 175 -109 175 -211c0 -136 -107 -239 -267 -239c-172 0 -272 103 -272 285v280c0 158 96 256 248 256c140 0 234 -85 236 -195c2 -78 -41 -145 -120 -176zM316 707c-84 0 -129 -52 -129 -149v-88h107c87 0 145 52 145 129c-1 62 -50 108 -123 108z
M340 92c88 0 150 58 150 145c0 83 -76 145 -185 144h-118v-117c0 -109 55 -172 153 -172z" />
    <glyph glyph-name="uni0433.BUL" horiz-adv-x="500" 
d="M448 393c0 -97 -81 -129 -170 -155c-75 -23 -122 -38 -122 -83c0 -40 38 -68 105 -68c79 0 142 33 187 74v-116c-50 -38 -118 -58 -191 -58c-135 0 -216 66 -216 169c0 112 96 141 182 164c69 20 110 35 110 76c0 38 -34 62 -96 62c-63 0 -125 -22 -164 -53v108
c40 28 105 46 168 46c129 0 207 -71 207 -166z" />
    <glyph glyph-name="uni0434.BUL" horiz-adv-x="666" 
d="M292 558c77 0 147 -40 185 -102l13 90h98v-492c0 -180 -127 -277 -283 -277c-74 0 -148 25 -205 66v119c56 -49 128 -79 197 -79c97 0 173 62 173 155v70c-37 -59 -103 -98 -180 -98c-128 0 -245 110 -245 274c0 161 119 274 247 274zM318 451c-88 0 -155 -73 -155 -168
s67 -167 155 -167s155 73 155 170c0 95 -67 165 -155 165z" />
    <glyph glyph-name="uni0436.BUL" horiz-adv-x="801" 
d="M791 0h-139l-191 267v-267h-116v268l-192 -268h-138l215 283l-209 263h136l188 -253v508h116v-507l187 252h136l-208 -263z" />
    <glyph glyph-name="uni0437.BUL" horiz-adv-x="519" 
d="M226 -223c-78 0 -144 20 -189 52v114c41 -35 110 -60 177 -60c90 0 141 49 141 137c0 81 -57 128 -146 128h-125v94h127c79 0 134 41 134 108c0 68 -48 103 -132 103c-60 0 -130 -20 -172 -49v109c47 27 120 46 193 46c136 0 227 -79 227 -194c0 -88 -51 -146 -112 -167
h1c71 -22 123 -93 123 -192c0 -139 -105 -229 -247 -229z" />
    <glyph glyph-name="uni0438.BUL" horiz-adv-x="613" 
d="M259 -12c-115 0 -186 70 -186 190v367h118v-338c0 -74 40 -114 107 -114s119 42 119 114v338h118v-545h-92l-12 90h-2c-30 -63 -92 -102 -170 -102z" />
    <glyph glyph-name="uni0439.BUL" horiz-adv-x="613" 
d="M480 790c1 -110 -78 -163 -173 -163s-175 53 -174 163h92c1 -56 26 -94 82 -94s81 38 81 94h92zM259 -12c-115 0 -186 70 -186 190v367h118v-338c0 -74 40 -114 107 -114s119 42 119 114v338h118v-545h-92l-12 90h-2c-30 -63 -92 -102 -170 -102z" />
    <glyph glyph-name="uni043A.BUL" horiz-adv-x="547" 
d="M539 0h-133l-210 274v-274h-118v744h118v-457l205 258h128l-215 -262z" />
    <glyph glyph-name="uni043B.BUL" horiz-adv-x="584" 
d="M355 546l211 -546h-126l-149 418h-3l-149 -418h-121l211 546h126z" />
    <glyph glyph-name="uni043F.BUL" horiz-adv-x="618" 
d="M351 559c119 0 194 -76 194 -196v-363h-118v325c0 84 -38 124 -111 124c-68 0 -120 -50 -120 -119v-330h-118v546h91l13 -81h3c31 51 90 94 166 94z" />
    <glyph glyph-name="uni0442.BUL" horiz-adv-x="890" 
d="M643 559c119 0 174 -80 174 -196v-363h-118v342c0 70 -27 107 -92 107c-64 0 -101 -50 -101 -105v-344h-118v342c0 70 -27 107 -92 107c-66 0 -100 -53 -100 -111v-338h-118v546h91l13 -79h3c28 51 77 92 148 92c78 0 126 -36 153 -95c33 57 85 95 157 95z" />
    <glyph glyph-name="uni0446.BUL" horiz-adv-x="650" 
d="M535 99h82v-227h-105v128h-68l-13 80h-3c-31 -51 -88 -93 -164 -93c-118 0 -192 76 -192 196v363h118v-325c0 -84 37 -125 109 -125c68 0 118 51 118 120v330h118v-447z" />
    <glyph glyph-name="uni0448.BUL" horiz-adv-x="881" 
d="M245 -13c-119 0 -172 79 -172 196v363h118v-342c0 -71 25 -108 89 -108s99 50 99 106v344h118v-342c0 -71 25 -108 89 -108c65 0 99 54 99 112v338h118v-546h-92l-12 78h-3c-28 -50 -76 -91 -146 -91c-77 0 -124 36 -151 95c-32 -58 -83 -95 -154 -95z" />
    <glyph glyph-name="uni0449.BUL" horiz-adv-x="920" 
d="M804 99h83v-227h-106v128h-68l-13 78h-3c-27 -50 -76 -91 -146 -91c-77 0 -124 36 -151 95c-33 -58 -84 -95 -155 -95c-119 0 -172 79 -172 196v363h118v-342c0 -71 25 -108 89 -108s100 50 100 106v344h118v-342c0 -71 25 -108 89 -108c66 0 99 54 99 112v338h118v-447z
" />
    <glyph glyph-name="uni044C.BUL" horiz-adv-x="543" 
d="M293 378c145 0 217 -67 217 -192c0 -115 -84 -201 -218 -201c-149 0 -219 68 -219 196v365h118v-168h102zM291 77c64 0 106 42 106 108c0 69 -37 104 -114 104h-92v-116c0 -69 33 -96 100 -96z" />
    <glyph glyph-name="uni044A.BUL" horiz-adv-x="632" 
d="M383 378c144 0 217 -67 217 -192c0 -115 -84 -201 -218 -201c-149 0 -219 68 -219 196v265h-144v100h262v-168h102zM381 77c64 0 106 42 106 108c0 69 -38 104 -114 104h-92v-116c0 -69 33 -96 100 -96z" />
    <glyph glyph-name="uni044E.BUL" horiz-adv-x="874" 
d="M558 557c148 0 271 -109 271 -284s-123 -285 -271 -285c-131 0 -246 89 -267 234h-95v-222h-118v801h118v-479h94c21 146 136 235 268 235zM558 96c88 0 153 71 153 177c0 107 -65 176 -153 176c-87 0 -153 -70 -153 -176c0 -105 66 -177 153 -177z" />
    <glyph glyph-name="uni0431.SRB" horiz-adv-x="630" 
d="M376 523c137 -79 211 -159 211 -283c0 -146 -111 -254 -278 -254c-155 0 -266 96 -266 243c0 113 78 215 194 256c-79 50 -119 97 -119 164c0 98 83 159 222 159c62 0 133 -17 196 -39v-103c-72 29 -136 42 -187 42c-63 0 -108 -20 -108 -66c0 -38 27 -58 135 -119z
M313 92c92 0 156 61 156 149c0 77 -42 133 -145 191c-99 -35 -164 -115 -164 -197c0 -87 60 -143 153 -143z" />
    <glyph glyph-name="uni0434.ss01" horiz-adv-x="670" 
d="M574 99h71v-227h-105v128h-410v-128h-105v227h71l176 447h126zM331 428l-119 -329h241l-119 329h-3z" />
    <glyph glyph-name="uni0459.ss01" horiz-adv-x="794" 
d="M566 366c120 0 199 -75 199 -181s-91 -185 -213 -185h-197v443h-6l-227 -443h-122l282 546h189v-180h95zM547 89c61 0 102 41 102 96s-35 93 -95 93h-83v-189h76z" />
    <glyph glyph-name="uni0434.BUL.sc" horiz-adv-x="675" 
d="M572 107h79v-243h-99l-1 136h-428v-136h-98v243h80l165 489h137zM339 499l-127 -392h253z" />
    <glyph glyph-name="uni043B.BUL.sc" horiz-adv-x="579" 
d="M21 0l200 596h137l200 -596h-114l-154 490l-155 -490h-114z" />
    <glyph glyph-name="uni0459.BUL.sc" horiz-adv-x="818" 
d="M544 401c156 0 237 -71 237 -193c0 -125 -94 -209 -239 -209h-172v508h-5l-250 -507h-118l301 596h184v-195h62zM544 98c77 0 123 40 123 107c0 63 -44 97 -123 97h-62v-204h62z" />
    <glyph glyph-name="uni0430.sc" horiz-adv-x="587" 
d="M453 0l-51 158h-218l-51 -158h-114l206 596h137l205 -596h-114zM213 247h161l-79 247h-2z" />
    <glyph glyph-name="uni0431.sc" horiz-adv-x="551" 
d="M272 372c151 0 234 -57 234 -177c0 -121 -87 -196 -232 -196h-188v597h380v-98h-266v-126h72zM269 90c76 0 122 36 122 100s-43 92 -122 92h-69v-192h69z" />
    <glyph glyph-name="uni0432.sc" horiz-adv-x="563" 
d="M412 306c67 -23 102 -71 102 -140c0 -97 -76 -166 -218 -166h-210v596h200c134 0 207 -61 207 -159c0 -61 -29 -106 -81 -131zM200 504v-161h83c61 -1 100 31 100 82c0 50 -36 79 -101 79h-82zM289 93c70 0 111 32 111 86c0 52 -40 83 -111 83h-89v-169h89z" />
    <glyph glyph-name="uni0433.sc" horiz-adv-x="456" 
d="M86 0v596h342v-107h-227v-489h-115z" />
    <glyph glyph-name="uni0434.sc" horiz-adv-x="662" 
d="M541 101h80v-237h-101v136h-396v-136h-100v237h63c30 44 54 101 54 225v270h400v-495zM252 322c0 -99 -18 -168 -48 -221h224v397h-176v-176z" />
    <glyph glyph-name="uni0435.sc" horiz-adv-x="501" 
d="M86 0v596h353v-99h-238v-150h219v-89h-219v-159h238v-99h-353z" />
    <glyph glyph-name="uni0451.sc" horiz-adv-x="501" 
d="M154 692c-34 0 -62 27 -62 61c0 33 28 61 62 61s62 -28 62 -61c0 -34 -28 -61 -62 -61zM369 692c-35 0 -62 27 -62 61c0 33 27 61 62 61s62 -28 62 -61c0 -34 -27 -61 -62 -61zM86 0v596h353v-99h-238v-150h219v-89h-219v-159h238v-99h-353z" />
    <glyph glyph-name="uni0436.sc" horiz-adv-x="822" 
d="M804 0h-129l-207 301v-301h-113v301l-207 -301h-130l223 312l-220 284h127l207 -276v276h113v-276l207 276h126l-219 -284z" />
    <glyph glyph-name="uni0437.sc" horiz-adv-x="502" 
d="M343 307c65 -19 104 -72 104 -141c0 -103 -86 -179 -216 -179c-63 0 -132 17 -179 48v115c49 -40 109 -61 161 -61c70 0 117 36 117 90c0 50 -38 79 -115 79h-87v90h91c71 0 106 32 106 82c0 46 -42 75 -109 75c-55 0 -107 -12 -155 -40v109c45 23 106 34 170 34
c130 0 208 -66 208 -161c0 -65 -38 -120 -96 -140z" />
    <glyph glyph-name="uni0438.sc" horiz-adv-x="669" 
d="M86 596h108v-426l274 426h115v-596h-108v429l-278 -429h-111v596z" />
    <glyph glyph-name="uni0439.sc" horiz-adv-x="669" 
d="M503 841c1 -110 -78 -163 -173 -163s-175 53 -174 163h92c1 -56 26 -94 82 -94s81 38 81 94h92zM86 596h108v-426l274 426h115v-596h-108v429l-278 -429h-111v596z" />
    <glyph glyph-name="uni043A.sc" horiz-adv-x="566" 
d="M549 0h-133l-215 300v-300h-115v596h115v-275l215 275h130l-227 -284z" />
    <glyph glyph-name="uni043B.sc" horiz-adv-x="614" 
d="M19 -5v101c76 0 107 46 107 166v334h402v-596h-115v496h-174v-233c0 -190 -65 -268 -220 -268z" />
    <glyph glyph-name="uni043C.sc" horiz-adv-x="807" 
d="M213 444l-55 -444h-110l88 596h129l138 -440h2l137 440h129l88 -596h-111l-56 444h-2l-140 -444h-98l-136 444h-3z" />
    <glyph glyph-name="uni043D.sc" horiz-adv-x="666" 
d="M466 0v246h-265v-246h-115v596h115v-243h265v243h114v-596h-114z" />
    <glyph glyph-name="uni043E.sc" horiz-adv-x="705" 
d="M352 608c164 0 304 -125 304 -310s-140 -310 -304 -310s-303 125 -303 310s139 310 303 310zM352 500c-96 0 -186 -76 -186 -203c0 -126 91 -201 186 -201s187 75 187 201c0 127 -92 203 -187 203z" />
    <glyph glyph-name="uni043F.sc" horiz-adv-x="651" 
d="M451 0v496h-250v-496h-115v596h479v-596h-114z" />
    <glyph glyph-name="uni0440.sc" horiz-adv-x="534" 
d="M86 596h158c161 0 253 -81 253 -205c0 -122 -88 -215 -248 -215h-48v-176h-115v596zM253 275c87 0 130 48 130 113c0 63 -44 105 -130 105h-52v-218h52z" />
    <glyph glyph-name="uni0441.sc" horiz-adv-x="530" 
d="M484 15c-42 -19 -92 -27 -138 -27c-156 0 -297 117 -297 310c0 192 141 310 297 310c49 0 99 -9 138 -28v-108c-41 19 -78 28 -121 28c-120 0 -198 -85 -198 -202c0 -118 78 -202 198 -202c43 0 80 9 121 27v-108z" />
    <glyph glyph-name="uni0442.sc" horiz-adv-x="536" 
d="M210 0v489h-182v107h480v-107h-182v-489h-116z" />
    <glyph glyph-name="uni0443.sc" horiz-adv-x="560" 
d="M443 596h113l-187 -426c-55 -127 -130 -176 -256 -176v99c63 0 106 19 136 66l-243 437h124l176 -339z" />
    <glyph glyph-name="uni0444.sc" horiz-adv-x="753" 
d="M430 567c161 0 279 -105 279 -261s-118 -262 -279 -262v-59h-107v59c-161 0 -278 106 -278 262s117 261 278 261v59h107v-59zM154 306c0 -98 66 -168 169 -168v335c-103 0 -169 -70 -169 -167zM430 138c103 0 170 70 170 168c0 97 -67 167 -170 167v-335z" />
    <glyph glyph-name="uni0445.sc" horiz-adv-x="567" 
d="M541 596l-187 -296l192 -300h-129l-135 222l-133 -222h-126l190 299l-189 297h128l132 -219l131 219h126z" />
    <glyph glyph-name="uni0447.sc" horiz-adv-x="570" 
d="M370 596h114v-596h-114v235c-40 -14 -87 -23 -139 -23c-115 0 -183 62 -183 181v203h115v-180c0 -70 35 -99 103 -99c39 0 76 7 104 18v261z" />
    <glyph glyph-name="uni0446.sc" horiz-adv-x="672" 
d="M551 101h80v-237h-102v136h-443v596h115v-495h235v495h115v-495z" />
    <glyph glyph-name="uni0448.sc" horiz-adv-x="864" 
d="M664 596h114v-596h-692v596h113v-495h177v495h112v-495h176v495z" />
    <glyph glyph-name="uni0449.sc" horiz-adv-x="896" 
d="M775 101h80v-237h-101v136h-668v596h113v-495h175v495h113v-495h175v495h113v-495z" />
    <glyph glyph-name="uni045F.sc" horiz-adv-x="637" 
d="M551 596v-596h-182v-136h-101v136h-182v596h115v-495h235v495h115z" />
    <glyph glyph-name="uni044C.sc" horiz-adv-x="544" 
d="M269 401c156 0 238 -71 238 -193c0 -125 -94 -209 -240 -209h-181v597h115v-195h68zM269 98c77 0 123 40 123 107c0 63 -44 97 -123 97h-68v-204h68z" />
    <glyph glyph-name="uni044A.sc" horiz-adv-x="646" 
d="M371 401c156 0 238 -71 238 -193c0 -125 -94 -209 -240 -209h-178v490h-163v107h277v-195h66zM371 98c77 0 123 40 123 107c0 63 -44 97 -123 97h-66v-204h66z" />
    <glyph glyph-name="uni044B.sc" horiz-adv-x="771" 
d="M262 401c156 0 238 -71 238 -193c0 -125 -94 -209 -240 -209h-174v597h115v-195h61zM571 596h114v-596h-114v596zM262 98c78 0 123 40 123 107c0 63 -43 97 -123 97h-61v-204h61z" />
    <glyph glyph-name="uni0459.sc" horiz-adv-x="859" 
d="M585 401c156 0 238 -71 238 -193c0 -125 -94 -209 -240 -209h-171v497h-174v-235c0 -190 -65 -267 -220 -267v101c77 0 107 45 107 165v336h398v-195h62zM585 98c78 0 123 40 123 107c0 63 -43 97 -123 97h-62v-204h62z" />
    <glyph glyph-name="uni045A.sc" horiz-adv-x="898" 
d="M625 377c156 0 238 -64 238 -181c0 -118 -94 -197 -240 -197h-176v273h-246v-272h-115v596h115v-219h246v219h111v-219h67zM626 94c78 0 123 35 123 98c0 60 -43 87 -123 87h-68v-185h68z" />
    <glyph glyph-name="uni044D.sc" horiz-adv-x="582" 
d="M226 608c172 0 307 -119 307 -310s-135 -310 -307 -310c-61 0 -116 12 -173 35v110c58 -31 106 -42 162 -42c117 0 190 64 204 165h-273v89h273c-16 97 -89 160 -203 160c-57 0 -111 -12 -163 -39v108c56 23 111 34 173 34z" />
    <glyph glyph-name="uni0458.sc" horiz-adv-x="388" 
d="M30 113c22 -12 41 -17 63 -17c63 0 101 41 101 120v380h114v-390c0 -130 -74 -216 -199 -216c-30 0 -55 6 -79 15v108z" />
    <glyph glyph-name="uni045B.sc" horiz-adv-x="651" 
d="M420 370c117 0 183 -59 183 -178v-192h-114v173c0 69 -33 97 -100 97c-39 0 -79 -9 -106 -20v-250h-115v489h-139v107h471v-104h-217v-146c39 14 86 24 137 24z" />
    <glyph glyph-name="uni044E.sc" horiz-adv-x="925" 
d="M581 608c164 0 294 -125 294 -310s-130 -310 -294 -310c-147 0 -266 100 -289 254h-91v-242h-115v596h115v-250h90c20 158 141 262 290 262zM581 94c99 0 181 76 181 204s-83 204 -181 204s-180 -76 -180 -204s81 -204 180 -204z" />
    <glyph glyph-name="uni044F.sc" horiz-adv-x="558" 
d="M289 596h183v-596h-115v250l-189 -250h-135l187 223c-126 22 -163 106 -163 179c0 131 93 194 232 194zM290 304h67v189h-68c-77 0 -116 -32 -116 -97c0 -63 43 -92 117 -92z" />
    <glyph glyph-name="uni0452.sc" horiz-adv-x="647" 
d="M417 366c115 0 193 -64 193 -179c0 -111 -81 -187 -196 -187h-24v88h12c52 0 94 35 94 93c0 59 -39 87 -102 87c-41 0 -82 -8 -111 -19v-249h-115v489h-139v107h474v-104h-220v-148c39 13 83 22 134 22z" />
    <glyph glyph-name="Alpha" unicode="&#x391;" horiz-adv-x="730" 
d="M722 0h-127l-79 209h-303l-79 -209h-125l287 744h137zM364 616l-115 -304h231z" />
    <glyph glyph-name="Beta" unicode="&#x392;" horiz-adv-x="661" 
d="M476 384c89 -28 135 -92 135 -178c0 -111 -85 -206 -258 -206h-259v744h246c163 0 248 -85 248 -195c0 -86 -48 -141 -112 -165zM213 640v-215h125c87 0 135 47 135 110c0 64 -48 105 -130 105h-130zM346 105c96 0 147 48 147 115c0 71 -59 113 -142 113h-138v-228h133z
" />
    <glyph glyph-name="Gamma" unicode="&#x393;" horiz-adv-x="527" 
d="M94 0v744h412v-110h-292v-634h-120z" />
    <glyph glyph-name="uni0394" unicode="&#x394;" horiz-adv-x="728" 
d="M9 0l287 744h137l286 -744h-710zM170 102h388l-194 516z" />
    <glyph glyph-name="Epsilon" unicode="&#x395;" horiz-adv-x="589" 
d="M94 0v744h431v-109h-311v-205h286v-103h-286v-218h311v-109h-431z" />
    <glyph glyph-name="Zeta" unicode="&#x396;" horiz-adv-x="601" 
d="M580 744l-373 -634h348v-110h-536l373 634h-342v110h530z" />
    <glyph glyph-name="Eta" unicode="&#x397;" horiz-adv-x="787" 
d="M573 0v320h-359v-320h-120v744h120v-313h359v313h120v-744h-120z" />
    <glyph glyph-name="Theta" unicode="&#x398;" horiz-adv-x="852" 
d="M427 -16c-217 0 -379 165 -379 388c0 222 162 388 379 388c215 0 377 -166 377 -388c0 -223 -162 -388 -377 -388zM427 93c132 0 258 103 258 279s-126 279 -258 279c-135 0 -260 -103 -260 -279c0 -178 126 -279 260 -279zM262 326v97h327v-97h-327z" />
    <glyph glyph-name="Iota" unicode="&#x399;" horiz-adv-x="308" 
d="M94 0v744h120v-744h-120z" />
    <glyph glyph-name="Kappa" unicode="&#x39a;" horiz-adv-x="682" 
d="M680 0h-149l-317 361v-361h-120v744h120v-358l316 358h144l-329 -368z" />
    <glyph glyph-name="Lambda" unicode="&#x39b;" horiz-adv-x="705" 
d="M10 0l273 744h137l275 -744h-127l-217 616l-214 -616h-127z" />
    <glyph glyph-name="Mu" unicode="&#x39c;" horiz-adv-x="974" 
d="M242 573l-80 -573h-116l112 744h143l188 -563h1l183 563h143l111 -744h-117l-79 577h-3l-189 -577h-105l-189 573h-3z" />
    <glyph glyph-name="Nu" unicode="&#x39d;" horiz-adv-x="798" 
d="M704 744v-744h-112l-382 553h-1v-553h-115v744h118l375 -543h1v543h116z" />
    <glyph glyph-name="Xi" unicode="&#x39e;" horiz-adv-x="646" 
d="M52 744h543v-111h-543v111zM110 429h427v-107h-427v107zM52 111h543v-111h-543v111z" />
    <glyph glyph-name="Omicron" unicode="&#x39f;" horiz-adv-x="848" 
d="M424 -16c-215 0 -376 165 -376 388c0 222 161 388 376 388s375 -166 375 -388c0 -223 -160 -388 -375 -388zM424 96c130 0 253 101 253 276s-123 277 -253 277c-132 0 -254 -102 -254 -277c0 -176 124 -276 254 -276z" />
    <glyph glyph-name="Pi" unicode="&#x3a0;" horiz-adv-x="762" 
d="M549 0v634h-335v-634h-120v744h574v-744h-119z" />
    <glyph glyph-name="Rho" unicode="&#x3a1;" horiz-adv-x="628" 
d="M94 0v744h197c187 0 303 -94 303 -249c0 -151 -112 -259 -298 -259h-82v-236h-120zM302 345c104 0 171 54 171 146c0 93 -67 143 -171 143h-88v-289h88z" />
    <glyph glyph-name="Sigma" unicode="&#x3a3;" horiz-adv-x="600" 
d="M204 110h353v-110h-534l204 374l-198 370h518v-110h-334v-1l139 -257l-148 -264v-2z" />
    <glyph glyph-name="Tau" unicode="&#x3a4;" horiz-adv-x="619" 
d="M250 0v634h-229v110h577v-110h-229v-634h-119z" />
    <glyph glyph-name="Upsilon" unicode="&#x3a5;" horiz-adv-x="678" 
d="M280 0v307l-275 437h134l201 -328h2l199 328h130l-273 -436v-308h-118z" />
    <glyph glyph-name="Phi" unicode="&#x3a6;" horiz-adv-x="874" 
d="M495 720c186 0 334 -139 334 -338s-148 -339 -334 -339v-70h-116v70c-186 0 -334 140 -334 339c0 198 148 338 334 338v70h116v-70zM379 148v467c-128 0 -220 -99 -220 -233s92 -234 220 -234zM495 148c129 0 220 100 220 234s-91 233 -220 233v-467z" />
    <glyph glyph-name="Chi" unicode="&#x3a7;" horiz-adv-x="675" 
d="M13 0l249 374l-246 370h138l186 -283l182 283h136l-245 -369l250 -375h-138l-189 286l-186 -286h-137z" />
    <glyph glyph-name="Psi" unicode="&#x3a8;" horiz-adv-x="853" 
d="M677 744h119v-284c0 -181 -120 -299 -310 -299v-161h-119v161c-190 0 -310 118 -310 299v284h119v-283c0 -121 70 -191 191 -191v474h119v-474c121 0 191 70 191 191v283z" />
    <glyph glyph-name="uni03A9" unicode="&#x3a9;" horiz-adv-x="865" 
d="M647 97h169v-97h-315v87c89 55 171 163 171 298c1 154 -100 263 -240 263c-141 0 -240 -109 -239 -263c0 -135 81 -243 170 -298v-87h-315v97h169c-77 58 -147 162 -148 305c-1 209 151 358 363 358s363 -149 363 -358c0 -143 -70 -247 -148 -305z" />
    <glyph glyph-name="Alphatonos" unicode="&#x386;" horiz-adv-x="765" 
d="M110 747h113l-73 -228h-84zM758 0h-127l-79 209h-303l-79 -209h-125l287 744h137zM400 616l-115 -304h231z" />
    <glyph glyph-name="Epsilontonos" unicode="&#x388;" horiz-adv-x="727" 
d="M56 747h113l-73 -228h-84zM233 0v744h431v-109h-311v-205h286v-103h-286v-218h311v-109h-431z" />
    <glyph glyph-name="Etatonos" unicode="&#x389;" horiz-adv-x="926" 
d="M56 747h113l-73 -228h-84zM712 0v320h-359v-320h-120v744h120v-313h359v313h120v-744h-120z" />
    <glyph glyph-name="Iotatonos" unicode="&#x38a;" horiz-adv-x="446" 
d="M56 747h113l-73 -228h-84zM233 0v744h120v-744h-120z" />
    <glyph glyph-name="Omicrontonos" unicode="&#x38c;" horiz-adv-x="948" 
d="M523 -16c-215 0 -376 165 -376 388c0 222 161 388 376 388s375 -166 375 -388c0 -223 -160 -388 -375 -388zM70 747h113l-73 -228h-84zM523 96c130 0 253 101 253 276s-123 277 -253 277c-132 0 -254 -102 -254 -277c0 -176 124 -276 254 -276z" />
    <glyph glyph-name="Upsilontonos" unicode="&#x38e;" horiz-adv-x="889" 
d="M79 747h113l-73 -228h-84zM491 0v307l-275 437h134l201 -328h2l199 328h130l-273 -436v-308h-118z" />
    <glyph glyph-name="Omegatonos" unicode="&#x38f;" horiz-adv-x="956" 
d="M738 97h169v-97h-315v87c89 55 171 163 171 298c1 154 -100 263 -240 263c-141 0 -240 -109 -239 -263c0 -135 81 -243 170 -298v-87h-315v97h169c-77 58 -147 162 -148 305c-1 209 151 358 363 358s363 -149 363 -358c0 -143 -70 -247 -148 -305zM65 747h113l-73 -228
h-84z" />
    <glyph glyph-name="Iotadieresis" unicode="&#x3aa;" horiz-adv-x="308" 
d="M47 840c-34 0 -62 27 -62 61c0 33 28 61 62 61s62 -28 62 -61c0 -34 -28 -61 -62 -61zM262 840c-35 0 -62 27 -62 61c0 33 27 61 62 61s62 -28 62 -61c0 -34 -27 -61 -62 -61zM94 0v744h120v-744h-120z" />
    <glyph glyph-name="Upsilondieresis" unicode="&#x3ab;" horiz-adv-x="678" 
d="M236 840c-34 0 -62 27 -62 61c0 33 28 61 62 61s62 -28 62 -61c0 -34 -28 -61 -62 -61zM451 840c-35 0 -62 27 -62 61c0 33 27 61 62 61s62 -28 62 -61c0 -34 -27 -61 -62 -61zM280 0v307l-275 437h134l201 -328h2l199 328h130l-273 -436v-308h-118z" />
    <glyph glyph-name="alpha" unicode="&#x3b1;" horiz-adv-x="689" 
d="M627 92c8 0 18 1 24 3v-98c-12 -4 -32 -6 -49 -6c-69 0 -115 32 -132 93c-44 -65 -111 -97 -181 -97c-132 0 -244 113 -244 285c0 171 112 287 240 287c71 0 140 -35 181 -106h1l12 93h98v-396c0 -44 16 -58 50 -58zM314 95c83 0 147 73 147 178c0 104 -64 178 -147 178
c-86 0 -150 -74 -150 -178c0 -105 64 -178 150 -178z" />
    <glyph glyph-name="beta" unicode="&#x3b2;" horiz-adv-x="664" 
d="M447 434c108 -31 175 -113 175 -221c0 -127 -99 -225 -235 -225c-85 0 -162 37 -194 77v-275h-117v762c0 154 100 256 253 256c139 0 233 -80 233 -199c0 -78 -45 -144 -115 -175zM353 91c91 0 152 56 152 141c0 88 -67 145 -170 145h-45v90h32c79 0 128 50 128 126
c0 72 -45 114 -122 114c-82 0 -135 -56 -135 -143v-410c36 -39 98 -63 160 -63z" />
    <glyph glyph-name="gamma" unicode="&#x3b3;" horiz-adv-x="586" 
d="M543 546c0 -175 -85 -388 -200 -528v-228h-118v215l-215 541h126l153 -422h2c67 86 136 262 136 422h116z" />
    <glyph glyph-name="delta" unicode="&#x3b4;" horiz-adv-x="630" 
d="M376 523c137 -79 211 -159 211 -283c0 -146 -111 -254 -278 -254c-155 0 -266 96 -266 243c0 113 78 215 194 256c-79 50 -119 97 -119 164c0 98 83 159 222 159c62 0 133 -17 196 -39v-103c-72 29 -136 42 -187 42c-63 0 -108 -20 -108 -66c0 -38 27 -58 135 -119z
M313 92c92 0 156 61 156 149c0 77 -42 133 -145 191c-99 -35 -164 -115 -164 -197c0 -87 60 -143 153 -143z" />
    <glyph glyph-name="epsilon" unicode="&#x3b5;" horiz-adv-x="525" 
d="M302 85c66 0 124 13 177 37v-99c-51 -21 -124 -36 -197 -36c-150 0 -235 58 -235 159c0 61 46 114 108 134c-58 18 -93 69 -93 126c0 96 82 152 220 152c67 0 145 -15 191 -36v-97c-47 21 -118 36 -176 36c-76 0 -117 -23 -117 -68c0 -44 40 -73 102 -73h118v-86h-117
c-67 0 -116 -28 -116 -76s46 -73 135 -73z" />
    <glyph glyph-name="zeta" unicode="&#x3b6;" horiz-adv-x="492" 
d="M484 732c-194 -186 -319 -372 -319 -475c0 -57 22 -85 97 -118l119 -51c66 -28 100 -74 100 -134c0 -53 -19 -104 -61 -164h-131c48 60 70 106 70 143c0 31 -20 52 -67 71l-102 43c-103 42 -147 101 -147 195c0 115 85 255 276 457h-240v102h405v-69z" />
    <glyph glyph-name="eta" unicode="&#x3b7;" horiz-adv-x="642" 
d="M377 559c118 0 193 -76 193 -196v-573h-118v535c0 84 -38 124 -110 124c-69 0 -121 -50 -121 -119v-330h-118v396c0 44 -15 58 -49 58c-9 0 -18 -1 -25 -3v98c13 3 33 5 50 5c68 0 113 -31 131 -89c32 52 91 94 167 94z" />
    <glyph glyph-name="theta" unicode="&#x3b8;" horiz-adv-x="661" 
d="M331 805c166 0 277 -147 277 -407c0 -263 -110 -412 -277 -412c-166 0 -277 149 -277 412c0 260 112 407 277 407zM331 700c-96 0 -157 -86 -167 -252h333c-10 166 -71 252 -166 252zM331 91c97 0 157 89 166 263h-333c9 -173 70 -263 167 -263z" />
    <glyph glyph-name="iota" unicode="&#x3b9;" horiz-adv-x="351" 
d="M273 -9c-123 0 -199 63 -199 199v356h118v-348c0 -72 33 -104 107 -104c16 0 31 2 47 5v-100c-25 -6 -47 -8 -73 -8z" />
    <glyph glyph-name="kappa" unicode="&#x3ba;" horiz-adv-x="602" 
d="M451 0l-154 241l-103 -121v-120h-118v546h118v-292l251 292h134l-199 -230l210 -316h-139z" />
    <glyph glyph-name="lambda" unicode="&#x3bb;" horiz-adv-x="588" 
d="M565 0h-120l-148 407h-3l-155 -407h-125l226 539l-38 99c-17 45 -46 65 -92 65c-14 0 -27 -2 -40 -5v99c23 5 45 7 65 7c82 0 135 -36 165 -114z" />
    <glyph glyph-name="uni03BC" unicode="&#x3bc;" horiz-adv-x="648" 
d="M596 92c8 0 17 1 24 3v-98c-12 -4 -30 -6 -47 -6c-63 0 -106 29 -125 85c-25 -49 -78 -87 -142 -87c-55 0 -103 24 -131 65l22 -264h-121v756h118v-329c0 -76 44 -119 116 -119c71 0 116 40 116 123v325h118v-396c0 -44 17 -58 52 -58z" />
    <glyph glyph-name="nu" unicode="&#x3bd;" horiz-adv-x="584" 
d="M219 0l-208 546h127l151 -434h2c72 94 134 280 134 434h117c0 -183 -90 -406 -212 -546h-111z" />
    <glyph glyph-name="xi" unicode="&#x3be;" horiz-adv-x="527" 
d="M340 699c-101 0 -158 -39 -158 -109c0 -69 52 -111 139 -111h110l-1 -98h-103c-98 0 -163 -49 -163 -123c0 -53 26 -84 93 -113l133 -57c65 -28 100 -74 100 -133c0 -52 -20 -105 -61 -165h-131c48 61 70 106 70 143c0 31 -20 52 -67 71l-107 45
c-105 43 -151 101 -151 187c0 88 55 162 142 196c-74 34 -117 97 -117 173c0 123 99 200 258 200c63 0 136 -14 179 -34v-108c-44 21 -110 36 -165 36z" />
    <glyph glyph-name="omicron" unicode="&#x3bf;" horiz-adv-x="643" 
d="M322 -13c-158 0 -278 120 -278 286s121 286 278 286c158 0 277 -120 277 -286s-119 -286 -277 -286zM322 95c81 0 158 65 158 178s-77 178 -158 178s-159 -65 -159 -178s78 -178 159 -178z" />
    <glyph glyph-name="rho" unicode="&#x3c1;" horiz-adv-x="653" 
d="M64 -210v450c0 198 103 319 273 319c156 0 271 -121 271 -287c0 -162 -107 -284 -244 -285c-75 0 -147 39 -180 98h-2v-295h-118zM336 95c89 0 154 75 154 179c0 101 -66 177 -155 177s-152 -76 -152 -183c0 -98 66 -173 153 -173z" />
    <glyph glyph-name="uni03C2" unicode="&#x3c2;" horiz-adv-x="517" 
d="M282 -210c49 63 70 107 70 143c0 30 -18 50 -67 71l-87 38c-104 47 -154 123 -154 232c0 166 117 285 279 285c60 0 113 -14 155 -39v-114c-42 31 -87 45 -141 45c-102 0 -175 -74 -175 -175c0 -66 29 -110 100 -139l112 -49c65 -29 100 -75 100 -134
c0 -52 -21 -105 -61 -164h-131z" />
    <glyph glyph-name="sigma" unicode="&#x3c3;" horiz-adv-x="672" 
d="M660 546v-101h-163c61 -46 93 -113 93 -192c0 -152 -115 -265 -271 -265c-158 0 -275 118 -275 279s117 279 275 279h341zM319 95c89 0 156 73 156 175c0 98 -66 171 -156 171s-156 -73 -156 -173s67 -173 156 -173z" />
    <glyph glyph-name="tau" unicode="&#x3c4;" horiz-adv-x="547" 
d="M518 445h-213v-240c0 -81 41 -111 116 -111c17 0 35 2 50 5v-100c-21 -5 -49 -8 -76 -8c-131 0 -208 64 -208 200v254h-168v101h499v-101z" />
    <glyph glyph-name="upsilon" unicode="&#x3c5;" horiz-adv-x="608" 
d="M304 -13c-148 0 -234 83 -234 225v334h118v-329c0 -81 41 -123 119 -123c87 0 131 62 131 184c0 91 -22 187 -62 268h122c37 -73 58 -172 58 -273c0 -180 -93 -286 -252 -286z" />
    <glyph glyph-name="phi" unicode="&#x3c6;" horiz-adv-x="796" 
d="M751 273c0 -173 -124 -284 -295 -285v-198h-115v198c-171 1 -296 112 -296 285c0 172 124 283 296 284v153h115v-153c171 -1 295 -112 295 -284zM161 273c0 -115 71 -185 180 -186v371c-109 -1 -180 -71 -180 -185zM456 87c108 1 179 71 179 186c0 114 -71 184 -179 185
v-371z" />
    <glyph glyph-name="chi" unicode="&#x3c7;" horiz-adv-x="531" 
d="M528 -210h-124l-145 274l-126 -274h-118l189 378l-201 378h125l148 -280l128 280h117l-190 -384z" />
    <glyph glyph-name="psi" unicode="&#x3c8;" horiz-adv-x="787" 
d="M735 284c0 -183 -108 -295 -282 -297v-202h-114v202c-174 1 -269 88 -269 244v315h116v-314c0 -94 48 -138 153 -139v617h114v-617c106 2 166 71 166 193c0 93 -17 181 -52 260h121c31 -78 47 -170 47 -262z" />
    <glyph glyph-name="omega" unicode="&#x3c9;" horiz-adv-x="862" 
d="M738 546c46 -79 74 -189 74 -290c0 -167 -78 -268 -209 -268c-80 0 -139 42 -172 121c-33 -79 -92 -121 -172 -121c-130 0 -209 101 -209 268c0 102 28 212 74 290h122c-48 -81 -78 -192 -78 -292c0 -104 34 -158 101 -158c65 0 103 56 103 150v173h118v-173
c0 -95 38 -150 104 -150s100 54 100 158c0 100 -30 211 -77 292h121z" />
    <glyph glyph-name="iotatonos" unicode="&#x3af;" horiz-adv-x="351" 
d="M152 861h111l-93 -228h-82zM273 -9c-123 0 -199 63 -199 199v356h118v-348c0 -72 33 -104 107 -104c16 0 31 2 47 5v-100c-25 -6 -47 -8 -73 -8z" />
    <glyph glyph-name="iotadieresis" unicode="&#x3ca;" horiz-adv-x="351" 
d="M35 641c-34 0 -62 27 -62 61c0 33 28 61 62 61s62 -28 62 -61c0 -34 -28 -61 -62 -61zM250 641c-35 0 -62 27 -62 61c0 33 27 61 62 61s62 -28 62 -61c0 -34 -27 -61 -62 -61zM273 -9c-123 0 -199 63 -199 199v356h118v-348c0 -72 33 -104 107 -104c16 0 31 2 47 5v-100
c-25 -6 -47 -8 -73 -8z" />
    <glyph glyph-name="iotadieresistonos" unicode="&#x390;" horiz-adv-x="351" 
d="M74 633l64 228h109l-92 -228h-81zM1 645c-30 0 -54 24 -54 53s24 53 54 53s54 -24 54 -53s-24 -53 -54 -53zM276 645c-30 0 -54 24 -54 53s24 53 54 53s54 -24 54 -53s-24 -53 -54 -53zM273 -9c-123 0 -199 63 -199 199v356h118v-348c0 -72 33 -104 107 -104
c16 0 31 2 47 5v-100c-25 -6 -47 -8 -73 -8z" />
    <glyph glyph-name="upsilontonos" unicode="&#x3cd;" horiz-adv-x="608" 
d="M311 861h111l-93 -228h-82zM304 -13c-148 0 -234 83 -234 225v334h118v-329c0 -81 41 -123 119 -123c87 0 131 62 131 184c0 91 -22 187 -62 268h122c37 -73 58 -172 58 -273c0 -180 -93 -286 -252 -286z" />
    <glyph glyph-name="upsilondieresis" unicode="&#x3cb;" horiz-adv-x="608" 
d="M188 641c-34 0 -62 27 -62 61c0 33 28 61 62 61s62 -28 62 -61c0 -34 -28 -61 -62 -61zM403 641c-35 0 -62 27 -62 61c0 33 27 61 62 61s62 -28 62 -61c0 -34 -27 -61 -62 -61zM304 -13c-148 0 -234 83 -234 225v334h118v-329c0 -81 41 -123 119 -123
c87 0 131 62 131 184c0 91 -22 187 -62 268h122c37 -73 58 -172 58 -273c0 -180 -93 -286 -252 -286z" />
    <glyph glyph-name="upsilondieresistonos" unicode="&#x3b0;" horiz-adv-x="608" 
d="M234 633l64 228h109l-92 -228h-81zM161 645c-30 0 -54 24 -54 53s24 53 54 53s54 -24 54 -53s-24 -53 -54 -53zM436 645c-30 0 -54 24 -54 53s24 53 54 53s54 -24 54 -53s-24 -53 -54 -53zM304 -13c-148 0 -234 83 -234 225v334h118v-329c0 -81 41 -123 119 -123
c87 0 131 62 131 184c0 91 -22 187 -62 268h122c37 -73 58 -172 58 -273c0 -180 -93 -286 -252 -286z" />
    <glyph glyph-name="omicrontonos" unicode="&#x3cc;" horiz-adv-x="643" 
d="M330 861h111l-93 -228h-82zM322 -13c-158 0 -278 120 -278 286s121 286 278 286c158 0 277 -120 277 -286s-119 -286 -277 -286zM322 95c81 0 158 65 158 178s-77 178 -158 178s-159 -65 -159 -178s78 -178 159 -178z" />
    <glyph glyph-name="omegatonos" unicode="&#x3ce;" horiz-adv-x="862" 
d="M556 861l-93 -228h-82l64 228h111zM738 546c46 -79 74 -189 74 -290c0 -167 -78 -268 -209 -268c-80 0 -139 42 -172 121c-33 -79 -92 -121 -172 -121c-130 0 -209 101 -209 268c0 102 28 212 74 290h122c-48 -81 -78 -192 -78 -292c0 -104 34 -158 101 -158
c65 0 103 56 103 150v173h118v-173c0 -95 38 -150 104 -150s100 54 100 158c0 100 -30 211 -77 292h121z" />
    <glyph glyph-name="alphatonos" unicode="&#x3ac;" horiz-adv-x="689" 
d="M472 861l-93 -228h-82l64 228h111zM627 92c8 0 18 1 24 3v-98c-12 -4 -32 -6 -49 -6c-69 0 -115 32 -132 93c-44 -65 -111 -97 -181 -97c-132 0 -244 113 -244 285c0 171 112 287 240 287c71 0 140 -35 181 -106h1l12 93h98v-396c0 -44 16 -58 50 -58zM314 95
c83 0 147 73 147 178c0 104 -64 178 -147 178c-86 0 -150 -74 -150 -178c0 -105 64 -178 150 -178z" />
    <glyph glyph-name="epsilontonos" unicode="&#x3ad;" horiz-adv-x="525" 
d="M404 861l-93 -228h-82l64 228h111zM302 85c66 0 124 13 177 37v-99c-51 -21 -124 -36 -197 -36c-150 0 -235 58 -235 159c0 61 46 114 108 134c-58 18 -93 69 -93 126c0 96 82 152 220 152c67 0 145 -15 191 -36v-97c-47 21 -118 36 -176 36c-76 0 -117 -23 -117 -68
c0 -44 40 -73 102 -73h118v-86h-117c-67 0 -116 -28 -116 -76s46 -73 135 -73z" />
    <glyph glyph-name="etatonos" unicode="&#x3ae;" horiz-adv-x="642" 
d="M445 861l-93 -228h-82l64 228h111zM377 559c118 0 193 -76 193 -196v-573h-118v535c0 84 -38 124 -110 124c-69 0 -121 -50 -121 -119v-330h-118v396c0 44 -15 58 -49 58c-9 0 -18 -1 -25 -3v98c13 3 33 5 50 5c68 0 113 -31 131 -89c32 52 91 94 167 94z" />
    <glyph glyph-name="iotadieresistonos.001" horiz-adv-x="351" 
d="M103 633l64 228h109l-92 -228h-81zM30 645c-30 0 -54 24 -54 53s24 53 54 53s54 -24 54 -53s-24 -53 -54 -53zM305 645c-30 0 -54 24 -54 53s24 53 54 53s54 -24 54 -53s-24 -53 -54 -53zM273 -9c-123 0 -199 63 -199 199v356h118v-348c0 -72 33 -104 107 -104
c16 0 31 2 47 5v-100c-25 -6 -47 -8 -73 -8z" />
    <glyph glyph-name="alpha.sc" horiz-adv-x="587" 
d="M453 0l-51 158h-218l-51 -158h-114l206 596h137l205 -596h-114zM213 247h161l-79 247h-2z" />
    <glyph glyph-name="beta.sc" horiz-adv-x="563" 
d="M412 306c67 -23 102 -71 102 -140c0 -97 -76 -166 -218 -166h-210v596h200c134 0 207 -61 207 -159c0 -61 -29 -106 -81 -131zM200 504v-161h83c61 -1 100 31 100 82c0 50 -36 79 -101 79h-82zM289 93c70 0 111 32 111 86c0 52 -40 83 -111 83h-89v-169h89z" />
    <glyph glyph-name="gamma.sc" horiz-adv-x="458" 
d="M86 0v596h344v-107h-229v-489h-115z" />
    <glyph glyph-name="delta.sc" horiz-adv-x="588" 
d="M363 596l206 -596h-550l207 596h137zM163 91h263l-130 404h-2z" />
    <glyph glyph-name="epsilon.sc" horiz-adv-x="501" 
d="M86 0v596h353v-99h-238v-150h219v-89h-219v-159h238v-99h-353z" />
    <glyph glyph-name="zeta.sc" horiz-adv-x="526" 
d="M497 596l-294 -490h275v-106h-453l293 490h-265v106h444z" />
    <glyph glyph-name="eta.sc" horiz-adv-x="666" 
d="M466 0v246h-265v-246h-115v596h115v-243h265v243h114v-596h-114z" />
    <glyph glyph-name="theta.sc" horiz-adv-x="708" 
d="M353 -12c-164 0 -304 125 -304 310s140 310 304 310c165 0 306 -125 306 -310s-141 -310 -306 -310zM353 93c100 0 193 76 193 204c0 129 -93 206 -193 206c-99 0 -192 -77 -192 -206c0 -128 93 -204 192 -204zM235 255v88h237v-88h-237z" />
    <glyph glyph-name="iota.sc" horiz-adv-x="287" 
d="M86 0v596h115v-596h-115z" />
    <glyph glyph-name="kappa.sc" horiz-adv-x="566" 
d="M549 0h-133l-215 300v-300h-115v596h115v-275l215 275h130l-227 -284z" />
    <glyph glyph-name="lambda.sc" horiz-adv-x="576" 
d="M20 0l200 596h137l199 -596h-114l-152 493h-2l-154 -493h-114z" />
    <glyph glyph-name="uni03BC.sc" horiz-adv-x="807" 
d="M213 444l-55 -444h-110l88 596h129l138 -440h2l137 440h129l88 -596h-111l-56 444h-2l-140 -444h-98l-136 444h-3z" />
    <glyph glyph-name="nu.sc" horiz-adv-x="669" 
d="M583 596v-596h-111l-278 429v-429h-108v596h115l274 -426v426h108z" />
    <glyph glyph-name="xi.sc" horiz-adv-x="556" 
d="M53 494v102h450v-102h-450zM103 255v92h350v-92h-350zM53 0v103h450v-103h-450z" />
    <glyph glyph-name="omicron.sc" horiz-adv-x="705" 
d="M352 608c164 0 304 -125 304 -310s-140 -310 -304 -310s-303 125 -303 310s139 310 303 310zM352 500c-96 0 -186 -76 -186 -203c0 -126 91 -201 186 -201s187 75 187 201c0 127 -92 203 -187 203z" />
    <glyph glyph-name="pi.sc" horiz-adv-x="651" 
d="M451 0v496h-250v-496h-115v596h479v-596h-114z" />
    <glyph glyph-name="rho.sc" horiz-adv-x="534" 
d="M86 596h158c161 0 253 -81 253 -205c0 -122 -88 -215 -248 -215h-48v-176h-115v596zM253 275c87 0 130 48 130 113c0 63 -44 105 -130 105h-52v-218h52z" />
    <glyph glyph-name="sigma.sc" horiz-adv-x="518" 
d="M197 101h275v-101h-444l165 299l-160 297h431v-100h-260v-1l105 -193l-112 -199v-2z" />
    <glyph glyph-name="tau.sc" horiz-adv-x="536" 
d="M210 0v489h-182v107h480v-107h-182v-489h-116z" />
    <glyph glyph-name="upsilon.sc" horiz-adv-x="583" 
d="M570 596l-221 -354v-242h-115v242l-221 354h130l152 -253h1l149 253h125z" />
    <glyph glyph-name="phi.sc" horiz-adv-x="746" 
d="M426 574c160 0 275 -110 275 -268s-115 -269 -275 -269v-60h-107v60c-159 0 -274 111 -274 269s115 268 274 268v61h107v-61zM154 306c0 -104 66 -178 165 -178v355c-99 0 -165 -74 -165 -177zM426 128c99 0 166 74 166 178c0 103 -67 177 -166 177v-355z" />
    <glyph glyph-name="chi.sc" horiz-adv-x="567" 
d="M541 596l-187 -296l192 -300h-129l-135 222l-133 -222h-126l190 299l-189 297h128l132 -219l131 219h126z" />
    <glyph glyph-name="psi.sc" horiz-adv-x="738" 
d="M570 596h112v-225c0 -154 -110 -247 -257 -247v-124h-112v124c-147 0 -257 93 -257 247v225h112v-233c0 -82 54 -135 145 -135v368h112v-368c90 0 145 53 145 135v233z" />
    <glyph glyph-name="omega.sc" horiz-adv-x="730" 
d="M561 89h119v-89h-259v69c66 48 125 127 126 237c1 115 -76 193 -182 193s-183 -77 -182 -193c0 -110 60 -189 126 -237v-69h-258v89h119c-53 47 -103 127 -103 231c0 166 123 288 298 288c174 0 298 -122 298 -288c0 -104 -50 -184 -102 -231z" />
    <glyph glyph-name="iotatonos.sc" horiz-adv-x="287" 
d="M86 0v596h115v-596h-115z" />
    <glyph glyph-name="iotadieresis.sc" horiz-adv-x="287" 
d="M37 692c-34 0 -62 27 -62 61c0 33 28 61 62 61s62 -28 62 -61c0 -34 -28 -61 -62 -61zM252 692c-35 0 -62 27 -62 61c0 33 27 61 62 61s62 -28 62 -61c0 -34 -27 -61 -62 -61zM86 0v596h115v-596h-115z" />
    <glyph glyph-name="upsilontonos.sc" horiz-adv-x="583" 
d="M570 596l-221 -354v-242h-115v242l-221 354h130l152 -253h1l149 253h125z" />
    <glyph glyph-name="upsilondieresis.sc" horiz-adv-x="583" 
d="M184 692c-34 0 -62 27 -62 61c0 33 28 61 62 61s62 -28 62 -61c0 -34 -28 -61 -62 -61zM399 692c-35 0 -62 27 -62 61c0 33 27 61 62 61s62 -28 62 -61c0 -34 -27 -61 -62 -61zM570 596l-221 -354v-242h-115v242l-221 354h130l152 -253h1l149 253h125z" />
    <glyph glyph-name="omicrontonos.sc" horiz-adv-x="705" 
d="M352 608c164 0 304 -125 304 -310s-140 -310 -304 -310s-303 125 -303 310s139 310 303 310zM352 500c-96 0 -186 -76 -186 -203c0 -126 91 -201 186 -201s187 75 187 201c0 127 -92 203 -187 203z" />
    <glyph glyph-name="omegatonos.sc" horiz-adv-x="730" 
d="M561 89h119v-89h-259v69c66 48 125 127 126 237c1 115 -76 193 -182 193s-183 -77 -182 -193c0 -110 60 -189 126 -237v-69h-258v89h119c-53 47 -103 127 -103 231c0 166 123 288 298 288c174 0 298 -122 298 -288c0 -104 -50 -184 -102 -231z" />
    <glyph glyph-name="alphatonos.sc" horiz-adv-x="587" 
d="M453 0l-51 158h-218l-51 -158h-114l206 596h137l205 -596h-114zM213 247h161l-79 247h-2z" />
    <glyph glyph-name="epsilontonos.sc" horiz-adv-x="501" 
d="M86 0v596h353v-99h-238v-150h219v-89h-219v-159h238v-99h-353z" />
    <glyph glyph-name="etatonos.sc" horiz-adv-x="666" 
d="M466 0v246h-265v-246h-115v596h115v-243h265v243h114v-596h-114z" />
    <glyph glyph-name="one.ss01" horiz-adv-x="556" 
d="M527 109v-109h-463v109h175v478l-177 -74v121l285 115h10v-640h170z" />
    <glyph glyph-name="one.osf.ss01" horiz-adv-x="483" 
d="M447 103v-103h-378v103h134v303l-141 -51v109l250 92h9v-453h126z" />
    <glyph glyph-name="zero.sc" horiz-adv-x="590" 
d="M295 -10c-133 0 -240 119 -240 309s107 307 240 307s240 -117 240 -307s-106 -309 -240 -309zM295 98c69 0 128 74 128 201s-59 199 -128 199s-128 -72 -128 -199s59 -201 128 -201z" />
    <glyph glyph-name="one.sc" horiz-adv-x="366" 
d="M153 0v453l-115 -45v108l219 83h9v-599h-113z" />
    <glyph glyph-name="two.sc" horiz-adv-x="511" 
d="M460 101v-101h-427c254 287 284 327 284 395c0 57 -42 99 -112 99c-55 0 -105 -27 -139 -61v117c39 32 96 53 164 53c123 0 206 -80 206 -190c0 -95 -69 -173 -193 -312h217z" />
    <glyph glyph-name="three.sc" horiz-adv-x="499" 
d="M73 565c37 25 94 41 153 41c125 0 200 -73 200 -161c0 -60 -35 -113 -90 -136v-3c56 -17 109 -63 109 -139c0 -92 -76 -177 -218 -177c-67 0 -124 20 -172 51v109c43 -35 97 -58 159 -58c73 0 117 33 117 85c0 53 -45 84 -140 84l-59 1v87h59c87 -1 122 34 122 79
c0 47 -40 76 -106 76c-50 0 -103 -17 -134 -37v98z" />
    <glyph glyph-name="four.sc" horiz-adv-x="560" 
d="M520 226v-89h-99v-137h-111v137h-277v71l278 388h110v-370h99zM149 226h161l-1 232h-1l-159 -230v-2z" />
    <glyph glyph-name="five.sc" horiz-adv-x="496" 
d="M417 596v-101h-206l-25 -128c14 4 37 7 58 7c115 0 201 -74 201 -185c0 -112 -86 -199 -228 -199c-65 0 -123 19 -167 51v114c48 -45 108 -63 160 -63c73 0 122 37 122 95c0 56 -48 101 -137 101c-47 0 -77 -11 -102 -19l-13 9l53 318h284z" />
    <glyph glyph-name="six.sc" horiz-adv-x="541" 
d="M295 406c115 0 201 -84 201 -199c0 -123 -92 -217 -224 -217c-130 0 -222 92 -222 214c0 68 29 126 76 181l181 211h137l-169 -191c6 1 13 1 20 1zM274 94c65 0 110 49 110 113s-49 113 -116 113c-26 0 -48 -6 -69 -17c-29 -35 -38 -67 -38 -95c0 -64 47 -114 113 -114z
" />
    <glyph glyph-name="seven.sc" horiz-adv-x="486" 
d="M50 596h429l-309 -596h-120l259 490h-259v106z" />
    <glyph glyph-name="eight.sc" horiz-adv-x="553" 
d="M277 606c124 0 204 -74 204 -163c0 -66 -37 -111 -88 -134v-2c70 -28 106 -80 106 -143c0 -95 -85 -174 -222 -174c-138 0 -222 79 -222 174c0 63 36 115 105 143v2c-51 22 -87 68 -87 134c0 89 79 163 204 163zM179 429c0 -45 39 -83 98 -83c58 0 98 38 98 83
s-40 82 -98 82c-59 0 -98 -37 -98 -82zM277 263c-66 0 -111 -41 -111 -92c0 -47 45 -86 111 -86c65 0 110 39 110 86c0 51 -45 92 -110 92z" />
    <glyph glyph-name="nine.sc" horiz-adv-x="541" 
d="M269 606c130 0 222 -92 222 -214c0 -68 -28 -125 -76 -180l-180 -212h-138l170 192c-7 -1 -14 -1 -21 -1c-114 0 -201 84 -201 198c0 123 93 217 224 217zM342 293c30 36 38 67 38 96c0 64 -46 114 -112 114s-111 -49 -111 -114c0 -64 49 -113 116 -113c26 0 48 7 69 17z
" />
    <glyph glyph-name="one.sc.ss01" horiz-adv-x="467" 
d="M436 101v-101h-375v101h136v348l-137 -54v107l240 97h10v-498h126z" />
    <glyph glyph-name="colon.tf" 
d="M340 331c-41 0 -73 31 -73 72c0 42 32 73 73 73s73 -31 73 -73c0 -41 -32 -72 -73 -72zM340 -5c-41 0 -73 31 -73 72c0 42 32 73 73 73s73 -31 73 -73c0 -41 -32 -72 -73 -72z" />
    <glyph glyph-name="comma.tf" 
d="M231 -133c23 77 42 154 42 237v48h108v-41c0 -80 -34 -174 -64 -244h-86z" />
    <glyph glyph-name="numbersign.tf" 
d="M660 447h-131l-24 -151h123l-1 -92h-136l-33 -204h-105l33 204h-148l-33 -204h-104l33 204h-115v92h129l24 151h-120v92h135l33 205h105l-33 -205h148l33 205h104l-33 -205h117zM401 296l24 151h-148l-24 -151h148z" />
    <glyph glyph-name="period.tf" 
d="M340 -5c-41 0 -73 31 -73 72c0 42 32 73 73 73s73 -31 73 -73c0 -41 -32 -72 -73 -72z" />
    <glyph glyph-name="semicolon.tf" 
d="M337 331c-41 0 -73 31 -73 72c0 42 32 73 73 73s73 -31 73 -73c0 -41 -32 -72 -73 -72zM251 -133c23 77 42 154 42 237v48h108v-41c0 -80 -34 -174 -64 -244h-86z" />
    </font>
</defs>
</svg>
