<?xml version="1.0" standalone="no"?>
<!DOCTYPE svg PUBLIC "-//W3C//DTD SVG 1.1//EN" "http://www.w3.org/Graphics/SVG/1.1/DTD/svg11.dtd" >
<svg xmlns="http://www.w3.org/2000/svg" xmlns:xlink="http://www.w3.org/1999/xlink" version="1.1">
<metadata>
Created by FontForge 20190801 at Wed Jul  5 12:52:21 2017
 By Jimmy Wärting
Copyright 2015 \(c\) Newlyn Works Limited
</metadata>
<defs>
<font id="HeroNew-Light" horiz-adv-x="680" >
  <font-face 
    font-family="Hero New Light"
    font-weight="300"
    font-stretch="normal"
    units-per-em="1000"
    panose-1="2 0 4 0 0 0 0 0 0 0"
    ascent="800"
    descent="-200"
    x-height="536"
    cap-height="743"
    bbox="-190 -268 1265 1050"
    underline-thickness="50"
    underline-position="-100"
    stemh="65"
    stemv="68"
    unicode-range="U+000D-FB02"
  />
<missing-glyph horiz-adv-x="703" 
d="M620 742v-742h-537v742h537zM515 680h-327l164 -254zM148 633v-524l168 262zM556 633l-169 -262l169 -262v524zM352 316l-164 -253h327z" />
    <glyph glyph-name="fi" unicode="fi" horiz-adv-x="625" 
d="M115 0v475h-79v61h78v91c0 107 74 176 173 176c28 0 59 -6 84 -15v-67c-19 8 -54 15 -80 15c-70 0 -109 -37 -109 -121v-79h160v-61h-159v-475h-68zM499 677c-27 0 -46 19 -46 46c0 26 19 45 46 45c28 0 47 -19 47 -45c0 -27 -19 -46 -47 -46zM465 0v536h68v-536h-68z
" />
    <glyph glyph-name="fl" unicode="fl" horiz-adv-x="627" 
d="M115 0v475h-79v61h78v91c0 107 74 176 173 176c28 0 59 -6 84 -15v-67c-19 8 -54 15 -80 15c-70 0 -109 -37 -109 -121v-79h160v-61h-159v-475h-68zM467 0v798h68v-798h-68z" />
    <glyph glyph-name=".notdef" horiz-adv-x="703" 
d="M620 742v-742h-537v742h537zM515 680h-327l164 -254zM148 633v-524l168 262zM556 633l-169 -262l169 -262v524zM352 316l-164 -253h327z" />
    <glyph glyph-name="NULL" horiz-adv-x="0" 
 />
    <glyph glyph-name="CR" unicode="&#xd;" horiz-adv-x="294" 
 />
    <glyph glyph-name="space" unicode=" " horiz-adv-x="281" 
 />
    <glyph glyph-name="uni00A0" unicode="&#xa0;" horiz-adv-x="281" 
 />
    <glyph glyph-name="A" unicode="A" horiz-adv-x="699" 
d="M685 0h-75l-95 241h-332l-95 -241h-74l297 743h76zM349 662l-141 -355h282z" />
    <glyph glyph-name="B" unicode="B" horiz-adv-x="639" 
d="M441 385c91 -29 138 -94 138 -182c0 -111 -84 -203 -250 -203h-220v743h208c155 0 236 -81 236 -190c0 -90 -48 -144 -112 -168zM177 678v-266h141c106 0 166 57 166 136c0 83 -61 130 -157 130h-150zM330 65c116 0 179 59 179 142c0 91 -75 141 -173 141h-159v-283h153z
" />
    <glyph glyph-name="C" unicode="C" horiz-adv-x="665" 
d="M617 36c-46 -27 -109 -50 -194 -50c-189 0 -364 147 -364 387c0 238 175 384 364 384c85 0 149 -23 194 -50v-75c-58 35 -114 59 -195 59c-143 0 -292 -116 -292 -319c0 -201 149 -319 292 -319c81 0 137 24 195 60v-77z" />
    <glyph glyph-name="D" unicode="D" horiz-adv-x="726" 
d="M275 743c239 0 392 -148 392 -371c0 -225 -159 -372 -392 -372h-166v743h166zM177 678v-613h101c184 0 318 111 318 306c0 198 -134 307 -316 307h-103z" />
    <glyph glyph-name="E" unicode="E" horiz-adv-x="568" 
d="M109 0v743h387v-65h-319v-266h297v-64h-297v-283h319v-65h-387z" />
    <glyph glyph-name="F" unicode="F" horiz-adv-x="558" 
d="M109 0v743h391v-65h-323v-283h309v-65h-309v-330h-68z" />
    <glyph glyph-name="G" unicode="G" horiz-adv-x="722" 
d="M130 372c0 -190 129 -318 290 -318c68 0 111 12 160 35v313h67v-357c-69 -38 -139 -59 -228 -59c-192 0 -360 152 -360 385s165 386 363 386c74 0 150 -19 209 -52v-77c-66 39 -133 60 -210 60c-159 0 -291 -127 -291 -316z" />
    <glyph glyph-name="H" unicode="H" horiz-adv-x="780" 
d="M602 0v346h-425v-346h-68v743h68v-332h425v332h69v-743h-69z" />
    <glyph glyph-name="I" unicode="I" horiz-adv-x="287" 
d="M109 0v743h68v-743h-68z" />
    <glyph glyph-name="J" unicode="J" horiz-adv-x="456" 
d="M31 122c30 -35 73 -67 132 -67c74 0 123 49 123 146v542h68v-553c0 -118 -73 -201 -188 -201c-50 0 -101 18 -135 51v82z" />
    <glyph glyph-name="K" unicode="K" horiz-adv-x="642" 
d="M631 0h-93l-361 368v-368h-68v743h68v-367l360 367h90l-367 -371z" />
    <glyph glyph-name="L" unicode="L" horiz-adv-x="536" 
d="M109 0v743h68v-678h336v-65h-404z" />
    <glyph glyph-name="M" unicode="M" horiz-adv-x="963" 
d="M224 636l-98 -636h-69l117 743h85l224 -641h1l218 641h88l116 -743h-70l-99 642h-2l-221 -642h-64l-224 636h-2z" />
    <glyph glyph-name="N" unicode="N" horiz-adv-x="789" 
d="M680 743v-743h-62l-440 632h-1v-632h-68v743h72l430 -621h1v621h68z" />
    <glyph glyph-name="O" unicode="O" horiz-adv-x="846" 
d="M424 -14c-211 0 -365 166 -365 385c0 218 154 386 365 386c210 0 363 -168 363 -386s-153 -385 -363 -385zM424 52c151 0 292 118 292 319c0 202 -141 320 -292 320c-153 0 -294 -118 -294 -320c0 -203 143 -319 294 -319z" />
    <glyph glyph-name="P" unicode="P" horiz-adv-x="598" 
d="M109 0v743h169c166 0 279 -86 279 -235c0 -151 -112 -242 -278 -242h-102v-266h-68zM283 332c127 0 204 65 204 175s-77 171 -204 171h-106v-346h106z" />
    <glyph glyph-name="Q" unicode="Q" horiz-adv-x="850" 
d="M802 -6l-49 -47l-109 113c-60 -47 -135 -74 -220 -74c-211 0 -365 166 -365 385c0 218 154 386 365 386c210 0 363 -168 363 -386c0 -104 -35 -196 -94 -265zM424 52c62 0 122 20 172 57l-152 157l49 47l152 -157c44 54 71 126 71 215c0 202 -141 320 -292 320
c-153 0 -294 -118 -294 -320c0 -203 143 -319 294 -319z" />
    <glyph glyph-name="R" unicode="R" horiz-adv-x="609" 
d="M276 316l298 -316h-93l-293 316h-11v-316h-68v743h184c169 0 250 -92 250 -213c0 -134 -97 -214 -258 -214h-9zM177 377h99c144 0 197 62 197 153s-63 148 -187 148h-109v-301z" />
    <glyph glyph-name="S" unicode="S" horiz-adv-x="557" 
d="M295 759c67 0 129 -22 171 -48v-78c-53 39 -116 59 -173 59c-79 0 -152 -40 -152 -124c0 -73 56 -108 166 -158c115 -54 197 -102 197 -215c0 -136 -112 -211 -237 -211c-85 0 -158 35 -202 70v85c51 -54 129 -88 203 -88c85 0 166 48 166 138c0 76 -56 113 -169 165
c-114 53 -194 96 -194 209c0 129 104 196 224 196z" />
    <glyph glyph-name="T" unicode="T" horiz-adv-x="595" 
d="M263 0v678h-240v65h549v-65h-240v-678h-69z" />
    <glyph glyph-name="U" unicode="U" horiz-adv-x="747" 
d="M370 -14c-167 0 -270 118 -270 290v467h68v-473c0 -133 78 -218 202 -218c125 0 209 85 209 220v471h68v-466c0 -173 -109 -291 -277 -291z" />
    <glyph glyph-name="V" unicode="V" horiz-adv-x="695" 
d="M681 743l-297 -743h-72l-299 743h74l262 -664l259 664h73z" />
    <glyph glyph-name="W" unicode="W" horiz-adv-x="1057" 
d="M738 0l-209 643l-210 -643h-73l-222 743h73l187 -648h1l209 648h70l211 -649h1l184 649h72l-220 -743h-74z" />
    <glyph glyph-name="X" unicode="X" horiz-adv-x="643" 
d="M22 0l258 374l-252 369h79l215 -316l216 316h77l-252 -367l259 -376h-79l-221 321l-222 -321h-78z" />
    <glyph glyph-name="Y" unicode="Y" horiz-adv-x="630" 
d="M283 0v320l-274 423h78l228 -358h1l226 358h77l-270 -422v-321h-66z" />
    <glyph glyph-name="Z" unicode="Z" horiz-adv-x="581" 
d="M554 743l-413 -678h389v-65h-506l414 678h-382v65h498z" />
    <glyph glyph-name="Aacute" unicode="&#xc1;" horiz-adv-x="699" 
d="M394 995h78l-135 -165h-61zM685 0h-75l-95 241h-332l-95 -241h-74l297 743h76zM349 662l-141 -355h282z" />
    <glyph glyph-name="Abreve" unicode="&#x102;" horiz-adv-x="699" 
d="M502 991c2 -89 -73 -142 -153 -142s-155 53 -154 142h60c1 -47 35 -86 94 -86s93 39 94 86h59zM685 0h-75l-95 241h-332l-95 -241h-74l297 743h76zM349 662l-141 -355h282z" />
    <glyph glyph-name="Acircumflex" unicode="&#xc2;" horiz-adv-x="699" 
d="M375 995l132 -165h-72l-86 114l-88 -114h-69l131 165h52zM685 0h-75l-95 241h-332l-95 -241h-74l297 743h76zM349 662l-141 -355h282z" />
    <glyph glyph-name="Adieresis" unicode="&#xc4;" horiz-adv-x="699" 
d="M251 856c-25 0 -46 20 -46 45s21 45 46 45c26 0 47 -20 47 -45s-21 -45 -47 -45zM447 856c-26 0 -46 20 -46 45s20 45 46 45s46 -20 46 -45s-20 -45 -46 -45zM685 0h-75l-95 241h-332l-95 -241h-74l297 743h76zM349 662l-141 -355h282z" />
    <glyph glyph-name="Agrave" unicode="&#xc0;" horiz-adv-x="699" 
d="M305 995l117 -165h-61l-135 165h79zM685 0h-75l-95 241h-332l-95 -241h-74l297 743h76zM349 662l-141 -355h282z" />
    <glyph glyph-name="Amacron" unicode="&#x100;" horiz-adv-x="699" 
d="M187 873v56h322v-56h-322zM685 0h-75l-95 241h-332l-95 -241h-74l297 743h76zM349 662l-141 -355h282z" />
    <glyph glyph-name="Aogonek" unicode="&#x104;" horiz-adv-x="699" 
d="M581 -109c0 -39 31 -60 68 -60c12 0 31 3 36 6v-52c-4 -2 -23 -6 -41 -6c-62 0 -121 34 -121 100c0 46 26 89 84 129l-92 233h-332l-95 -241h-74l297 743h76l298 -743c-65 -34 -104 -73 -104 -109zM208 307h282l-141 355z" />
    <glyph glyph-name="Aring" unicode="&#xc5;" horiz-adv-x="699" 
d="M349 1018c55 0 99 -41 99 -94s-44 -94 -99 -94s-100 41 -100 94s45 94 100 94zM349 976c-31 0 -54 -23 -54 -52s23 -52 54 -52s54 23 54 52s-23 52 -54 52zM685 0h-75l-95 241h-332l-95 -241h-74l297 743h76zM349 662l-141 -355h282z" />
    <glyph glyph-name="Atilde" unicode="&#xc3;" horiz-adv-x="699" 
d="M523 955c5 -81 -50 -111 -100 -111c-72 0 -93 61 -146 61c-37 0 -51 -32 -50 -58h-54c-4 81 50 111 101 111c72 0 93 -61 146 -61c37 0 51 31 50 58h53zM685 0h-75l-95 241h-332l-95 -241h-74l297 743h76zM349 662l-141 -355h282z" />
    <glyph glyph-name="AE" unicode="&#xc6;" horiz-adv-x="994" 
d="M922 678h-317v-266h296v-64h-296v-283h317v-65h-386v243h-294l-164 -243h-84l498 743h430v-65zM285 308h251v371h-1z" />
    <glyph glyph-name="Cacute" unicode="&#x106;" horiz-adv-x="665" 
d="M465 995h78l-135 -165h-61zM617 36c-46 -27 -109 -50 -194 -50c-189 0 -364 147 -364 387c0 238 175 384 364 384c85 0 149 -23 194 -50v-75c-58 35 -114 59 -195 59c-143 0 -292 -116 -292 -319c0 -201 149 -319 292 -319c81 0 137 24 195 60v-77z" />
    <glyph glyph-name="Ccaron" unicode="&#x10c;" horiz-adv-x="665" 
d="M577 995l-131 -165h-52l-132 165h71l87 -114l87 114h70zM617 36c-46 -27 -109 -50 -194 -50c-189 0 -364 147 -364 387c0 238 175 384 364 384c85 0 149 -23 194 -50v-75c-58 35 -114 59 -195 59c-143 0 -292 -116 -292 -319c0 -201 149 -319 292 -319
c81 0 137 24 195 60v-77z" />
    <glyph glyph-name="Ccedilla" unicode="&#xc7;" horiz-adv-x="665" 
d="M422 691c-143 0 -292 -116 -292 -319c0 -201 149 -319 292 -319c81 0 137 24 195 60v-77c-46 -27 -109 -50 -194 -50c-6 -65 -31 -112 -65 -154h-76c40 48 74 93 81 159c-164 27 -304 167 -304 382c0 238 175 384 364 384c85 0 149 -23 194 -50v-75
c-58 35 -114 59 -195 59z" />
    <glyph glyph-name="Cdotaccent" unicode="&#x10a;" horiz-adv-x="665" 
d="M419 856c-25 0 -46 20 -46 45s21 45 46 45c26 0 47 -20 47 -45s-21 -45 -47 -45zM617 36c-46 -27 -109 -50 -194 -50c-189 0 -364 147 -364 387c0 238 175 384 364 384c85 0 149 -23 194 -50v-75c-58 35 -114 59 -195 59c-143 0 -292 -116 -292 -319
c0 -201 149 -319 292 -319c81 0 137 24 195 60v-77z" />
    <glyph glyph-name="Eth" unicode="&#xd0;" horiz-adv-x="737" 
d="M285 743c239 0 392 -148 392 -371c0 -225 -159 -372 -392 -372h-166v346h-101v56h101v341h166zM288 65c184 0 318 111 318 306c0 198 -134 307 -316 307h-103v-276h209v-56h-209v-281h101z" />
    <glyph glyph-name="Dcaron" unicode="&#x10e;" horiz-adv-x="726" 
d="M509 995l-131 -165h-52l-132 165h71l87 -114l87 114h70zM275 743c239 0 392 -148 392 -371c0 -225 -159 -372 -392 -372h-166v743h166zM177 678v-613h101c184 0 318 111 318 306c0 198 -134 307 -316 307h-103z" />
    <glyph glyph-name="Dcroat" unicode="&#x110;" horiz-adv-x="737" 
d="M285 743c239 0 392 -148 392 -371c0 -225 -159 -372 -392 -372h-166v346h-101v56h101v341h166zM288 65c184 0 318 111 318 306c0 198 -134 307 -316 307h-103v-276h209v-56h-209v-281h101z" />
    <glyph glyph-name="Eacute" unicode="&#xc9;" horiz-adv-x="568" 
d="M348 995h78l-135 -165h-61zM109 0v743h387v-65h-319v-266h297v-64h-297v-283h319v-65h-387z" />
    <glyph glyph-name="Ecaron" unicode="&#x11a;" horiz-adv-x="568" 
d="M460 995l-131 -165h-52l-132 165h71l87 -114l87 114h70zM109 0v743h387v-65h-319v-266h297v-64h-297v-283h319v-65h-387z" />
    <glyph glyph-name="Ecircumflex" unicode="&#xca;" horiz-adv-x="568" 
d="M329 995l132 -165h-72l-86 114l-88 -114h-69l131 165h52zM109 0v743h387v-65h-319v-266h297v-64h-297v-283h319v-65h-387z" />
    <glyph glyph-name="Edieresis" unicode="&#xcb;" horiz-adv-x="568" 
d="M205 856c-25 0 -46 20 -46 45s21 45 46 45c26 0 47 -20 47 -45s-21 -45 -47 -45zM401 856c-26 0 -46 20 -46 45s20 45 46 45s46 -20 46 -45s-20 -45 -46 -45zM109 0v743h387v-65h-319v-266h297v-64h-297v-283h319v-65h-387z" />
    <glyph glyph-name="Edotaccent" unicode="&#x116;" horiz-adv-x="568" 
d="M302 856c-25 0 -46 20 -46 45s21 45 46 45c26 0 47 -20 47 -45s-21 -45 -47 -45zM109 0v743h387v-65h-319v-266h297v-64h-297v-283h319v-65h-387z" />
    <glyph glyph-name="Egrave" unicode="&#xc8;" horiz-adv-x="568" 
d="M259 995l117 -165h-61l-135 165h79zM109 0v743h387v-65h-319v-266h297v-64h-297v-283h319v-65h-387z" />
    <glyph glyph-name="Emacron" unicode="&#x112;" horiz-adv-x="568" 
d="M141 873v56h322v-56h-322zM109 0v743h387v-65h-319v-266h297v-64h-297v-283h319v-65h-387z" />
    <glyph glyph-name="Eogonek" unicode="&#x118;" horiz-adv-x="568" 
d="M496 678h-319v-266h297v-64h-297v-283h319v-65h-1c-65 -34 -104 -73 -104 -109c0 -39 31 -60 68 -60c12 0 31 3 36 6v-52c-4 -2 -23 -6 -41 -6c-62 0 -121 34 -121 100c0 43 23 83 72 121h-296v743h387v-65z" />
    <glyph glyph-name="Gbreve" unicode="&#x11e;" horiz-adv-x="722" 
d="M567 991c2 -89 -73 -142 -153 -142s-155 53 -154 142h60c1 -47 35 -86 94 -86s93 39 94 86h59zM130 372c0 -190 129 -318 290 -318c68 0 111 12 160 35v313h67v-357c-69 -38 -139 -59 -228 -59c-192 0 -360 152 -360 385s165 386 363 386c74 0 150 -19 209 -52v-77
c-66 39 -133 60 -210 60c-159 0 -291 -127 -291 -316z" />
    <glyph glyph-name="uni0122" unicode="&#x122;" horiz-adv-x="722" 
d="M130 372c0 -190 129 -318 290 -318c68 0 111 12 160 35v313h67v-357c-69 -38 -139 -59 -228 -59c-192 0 -360 152 -360 385s165 386 363 386c74 0 150 -19 209 -52v-77c-66 39 -133 60 -210 60c-159 0 -291 -127 -291 -316zM429 -79c11 -60 -2 -127 -37 -189h-49
c26 64 33 131 19 189h67z" />
    <glyph glyph-name="Gdotaccent" unicode="&#x120;" horiz-adv-x="722" 
d="M413 856c-25 0 -46 20 -46 45s21 45 46 45c26 0 47 -20 47 -45s-21 -45 -47 -45zM130 372c0 -190 129 -318 290 -318c68 0 111 12 160 35v313h67v-357c-69 -38 -139 -59 -228 -59c-192 0 -360 152 -360 385s165 386 363 386c74 0 150 -19 209 -52v-77
c-66 39 -133 60 -210 60c-159 0 -291 -127 -291 -316z" />
    <glyph glyph-name="Hbar" unicode="&#x126;" horiz-adv-x="783" 
d="M738 599v-56h-64v-543h-69v346h-425v-346h-68v543h-79v56h79v144h68v-144h425v144h69v-144h64zM605 411v132h-425v-132h425z" />
    <glyph glyph-name="IJ" unicode="&#x132;" horiz-adv-x="743" 
d="M109 0v743h68v-743h-68zM317 122c30 -35 73 -67 132 -67c74 0 123 49 123 146v542h68v-553c0 -118 -73 -201 -188 -201c-50 0 -101 18 -135 51v82z" />
    <glyph glyph-name="Iacute" unicode="&#xcd;" horiz-adv-x="287" 
d="M188 995h78l-135 -165h-61zM109 0v743h68v-743h-68z" />
    <glyph glyph-name="Icircumflex" unicode="&#xce;" horiz-adv-x="287" 
d="M169 995l132 -165h-72l-86 114l-88 -114h-69l131 165h52zM109 0v743h68v-743h-68z" />
    <glyph glyph-name="Idieresis" unicode="&#xcf;" horiz-adv-x="287" 
d="M45 856c-25 0 -46 20 -46 45s21 45 46 45c26 0 47 -20 47 -45s-21 -45 -47 -45zM241 856c-26 0 -46 20 -46 45s20 45 46 45s46 -20 46 -45s-20 -45 -46 -45zM109 0v743h68v-743h-68z" />
    <glyph glyph-name="Idotaccent" unicode="&#x130;" horiz-adv-x="287" 
d="M142 856c-25 0 -46 20 -46 45s21 45 46 45c26 0 47 -20 47 -45s-21 -45 -47 -45zM109 0v743h68v-743h-68z" />
    <glyph glyph-name="Igrave" unicode="&#xcc;" horiz-adv-x="287" 
d="M99 995l117 -165h-61l-135 165h79zM109 0v743h68v-743h-68z" />
    <glyph glyph-name="Imacron" unicode="&#x12a;" horiz-adv-x="287" 
d="M-19 873v56h322v-56h-322zM109 0v743h68v-743h-68z" />
    <glyph glyph-name="Iogonek" unicode="&#x12e;" horiz-adv-x="287" 
d="M177 0c-65 -34 -104 -73 -104 -109c0 -39 31 -60 68 -60c12 0 31 3 36 6v-52c-4 -2 -23 -6 -41 -6c-62 0 -121 34 -121 100c0 49 29 93 94 137v727h68v-743z" />
    <glyph glyph-name="uni0136" unicode="&#x136;" horiz-adv-x="642" 
d="M260 372l371 -372h-93l-361 368v-368h-68v743h68v-367l360 367h90zM305 -79h67c11 -60 -2 -127 -37 -189h-49c26 64 33 131 19 189z" />
    <glyph glyph-name="Lacute" unicode="&#x139;" horiz-adv-x="536" 
d="M188 995h78l-135 -165h-61zM109 0v743h68v-678h336v-65h-404z" />
    <glyph glyph-name="Lcaron" unicode="&#x13d;" horiz-adv-x="537" 
d="M256 619c3 21 12 52 12 103c0 31 -5 54 -11 76h66c3 -14 6 -33 6 -52c0 -30 -2 -65 -25 -127h-48zM109 0v743h68v-678h336v-65h-404z" />
    <glyph glyph-name="uni013B" unicode="&#x13b;" horiz-adv-x="536" 
d="M109 0v743h68v-678h336v-65h-404zM342 -79c11 -60 -2 -127 -37 -189h-49c26 64 33 131 19 189h67z" />
    <glyph glyph-name="Ldot" unicode="&#x13f;" horiz-adv-x="559" 
d="M109 0v743h68v-678h336v-65h-404zM413 327c-30 0 -52 22 -52 52c0 31 22 53 52 53s52 -22 52 -53c0 -30 -22 -52 -52 -52z" />
    <glyph glyph-name="Lslash" unicode="&#x141;" horiz-adv-x="552" 
d="M192 65h336v-65h-404v269l-98 -57v70l98 57v404h68v-365l188 109v-70l-188 -109v-243z" />
    <glyph glyph-name="Nacute" unicode="&#x143;" horiz-adv-x="789" 
d="M445 995h78l-135 -165h-61zM680 743v-743h-62l-440 632h-1v-632h-68v743h72l430 -621h1v621h68z" />
    <glyph glyph-name="Ncaron" unicode="&#x147;" horiz-adv-x="789" 
d="M557 995l-131 -165h-52l-132 165h71l87 -114l87 114h70zM680 743v-743h-62l-440 632h-1v-632h-68v743h72l430 -621h1v621h68z" />
    <glyph glyph-name="uni0145" unicode="&#x145;" horiz-adv-x="789" 
d="M680 743v-743h-62l-440 632h-1v-632h-68v743h72l430 -621h1v621h68zM429 -79c11 -60 -2 -127 -37 -189h-49c26 64 33 131 19 189h67z" />
    <glyph glyph-name="Eng" unicode="&#x14a;" horiz-adv-x="795" 
d="M685 743v-763c0 -118 -72 -201 -188 -201c-50 0 -101 18 -135 51v82c30 -35 74 -67 132 -67c75 0 124 49 124 146v18l-440 625h-1v-634h-68v743h72l436 -623h1v623h67z" />
    <glyph glyph-name="Ntilde" unicode="&#xd1;" horiz-adv-x="789" 
d="M574 955c5 -81 -50 -111 -100 -111c-72 0 -93 61 -146 61c-37 0 -51 -32 -50 -58h-54c-4 81 50 111 101 111c72 0 93 -61 146 -61c37 0 51 31 50 58h53zM680 743v-743h-62l-440 632h-1v-632h-68v743h72l430 -621h1v621h68z" />
    <glyph glyph-name="Oacute" unicode="&#xd3;" horiz-adv-x="846" 
d="M469 995h78l-135 -165h-61zM424 -14c-211 0 -365 166 -365 385c0 218 154 386 365 386c210 0 363 -168 363 -386s-153 -385 -363 -385zM424 52c151 0 292 118 292 319c0 202 -141 320 -292 320c-153 0 -294 -118 -294 -320c0 -203 143 -319 294 -319z" />
    <glyph glyph-name="Ocircumflex" unicode="&#xd4;" horiz-adv-x="846" 
d="M450 995l132 -165h-72l-86 114l-88 -114h-69l131 165h52zM424 -14c-211 0 -365 166 -365 385c0 218 154 386 365 386c210 0 363 -168 363 -386s-153 -385 -363 -385zM424 52c151 0 292 118 292 319c0 202 -141 320 -292 320c-153 0 -294 -118 -294 -320
c0 -203 143 -319 294 -319z" />
    <glyph glyph-name="Odieresis" unicode="&#xd6;" horiz-adv-x="846" 
d="M326 856c-25 0 -46 20 -46 45s21 45 46 45c26 0 47 -20 47 -45s-21 -45 -47 -45zM522 856c-26 0 -46 20 -46 45s20 45 46 45s46 -20 46 -45s-20 -45 -46 -45zM424 -14c-211 0 -365 166 -365 385c0 218 154 386 365 386c210 0 363 -168 363 -386s-153 -385 -363 -385z
M424 52c151 0 292 118 292 319c0 202 -141 320 -292 320c-153 0 -294 -118 -294 -320c0 -203 143 -319 294 -319z" />
    <glyph glyph-name="Ograve" unicode="&#xd2;" horiz-adv-x="846" 
d="M380 995l117 -165h-61l-135 165h79zM424 -14c-211 0 -365 166 -365 385c0 218 154 386 365 386c210 0 363 -168 363 -386s-153 -385 -363 -385zM424 52c151 0 292 118 292 319c0 202 -141 320 -292 320c-153 0 -294 -118 -294 -320c0 -203 143 -319 294 -319z" />
    <glyph glyph-name="Ohungarumlaut" unicode="&#x150;" horiz-adv-x="846" 
d="M509 995l-168 -165h-65l150 165h83zM670 995l-168 -165h-64l149 165h83zM424 -14c-211 0 -365 166 -365 385c0 218 154 386 365 386c210 0 363 -168 363 -386s-153 -385 -363 -385zM424 52c151 0 292 118 292 319c0 202 -141 320 -292 320c-153 0 -294 -118 -294 -320
c0 -203 143 -319 294 -319z" />
    <glyph glyph-name="Omacron" unicode="&#x14c;" horiz-adv-x="846" 
d="M262 873v56h322v-56h-322zM424 -14c-211 0 -365 166 -365 385c0 218 154 386 365 386c210 0 363 -168 363 -386s-153 -385 -363 -385zM424 52c151 0 292 118 292 319c0 202 -141 320 -292 320c-153 0 -294 -118 -294 -320c0 -203 143 -319 294 -319z" />
    <glyph glyph-name="Oslash" unicode="&#xd8;" horiz-adv-x="852" 
d="M704 628c55 -68 87 -157 87 -257c0 -218 -153 -385 -363 -385c-98 0 -183 35 -247 95l-84 -88l-40 36l88 92c-52 66 -82 153 -82 250c0 218 153 386 365 386c94 0 176 -33 239 -90l78 82l38 -38zM134 371c0 -81 23 -148 59 -199l426 446c-52 47 -121 73 -191 73
c-154 0 -294 -118 -294 -320zM428 52c151 0 292 118 292 319c0 84 -25 154 -64 207l-427 -447c54 -52 125 -79 199 -79z" />
    <glyph glyph-name="Otilde" unicode="&#xd5;" horiz-adv-x="846" 
d="M598 955c5 -81 -50 -111 -100 -111c-72 0 -93 61 -146 61c-37 0 -51 -32 -50 -58h-54c-4 81 50 111 101 111c72 0 93 -61 146 -61c37 0 51 31 50 58h53zM424 -14c-211 0 -365 166 -365 385c0 218 154 386 365 386c210 0 363 -168 363 -386s-153 -385 -363 -385zM424 52
c151 0 292 118 292 319c0 202 -141 320 -292 320c-153 0 -294 -118 -294 -320c0 -203 143 -319 294 -319z" />
    <glyph glyph-name="OE" unicode="&#x152;" horiz-adv-x="983" 
d="M911 743v-65h-317v-266h296v-64h-296v-283h317v-65l-382 1c-33 -10 -69 -15 -105 -15c-211 0 -365 166 -365 385c0 218 154 386 365 386c36 0 72 -5 105 -14h382zM526 672c-33 12 -67 19 -102 19c-153 0 -294 -118 -294 -320c0 -203 143 -319 294 -319c35 0 69 7 102 19
v601z" />
    <glyph glyph-name="Thorn" unicode="&#xde;" horiz-adv-x="617" 
d="M109 0v743h68v-125h126c154 0 271 -80 271 -234c0 -156 -116 -242 -270 -242h-127v-142h-68zM307 207c120 0 196 72 196 176c0 105 -75 169 -195 169h-131v-345h130z" />
    <glyph glyph-name="Racute" unicode="&#x154;" horiz-adv-x="609" 
d="M433 995l-135 -165h-61l118 165h78zM276 316l298 -316h-93l-293 316h-11v-316h-68v743h184c169 0 250 -92 250 -213c0 -134 -97 -214 -258 -214h-9zM177 377h99c144 0 197 62 197 153s-63 148 -187 148h-109v-301z" />
    <glyph glyph-name="Rcaron" unicode="&#x158;" horiz-adv-x="609" 
d="M336 830h-52l-132 165h71l87 -114l87 114h70zM276 316l298 -316h-93l-293 316h-11v-316h-68v743h184c169 0 250 -92 250 -213c0 -134 -97 -214 -258 -214h-9zM177 377h99c144 0 197 62 197 153s-63 148 -187 148h-109v-301z" />
    <glyph glyph-name="uni0156" unicode="&#x156;" horiz-adv-x="609" 
d="M276 316l298 -316h-93l-293 316h-11v-316h-68v743h184c169 0 250 -92 250 -213c0 -134 -97 -214 -258 -214h-9zM177 377h99c144 0 197 62 197 153s-63 148 -187 148h-109v-301zM284 -79h67c11 -60 -2 -127 -37 -189h-49c26 64 33 131 19 189z" />
    <glyph glyph-name="Sacute" unicode="&#x15a;" horiz-adv-x="557" 
d="M334 995h78l-135 -165h-61zM295 759c67 0 129 -22 171 -48v-78c-53 39 -116 59 -173 59c-79 0 -152 -40 -152 -124c0 -73 56 -108 166 -158c115 -54 197 -102 197 -215c0 -136 -112 -211 -237 -211c-85 0 -158 35 -202 70v85c51 -54 129 -88 203 -88c85 0 166 48 166 138
c0 76 -56 113 -169 165c-114 53 -194 96 -194 209c0 129 104 196 224 196z" />
    <glyph glyph-name="Scaron" unicode="&#x160;" horiz-adv-x="557" 
d="M446 995l-131 -165h-52l-132 165h71l87 -114l87 114h70zM295 759c67 0 129 -22 171 -48v-78c-53 39 -116 59 -173 59c-79 0 -152 -40 -152 -124c0 -73 56 -108 166 -158c115 -54 197 -102 197 -215c0 -136 -112 -211 -237 -211c-85 0 -158 35 -202 70v85
c51 -54 129 -88 203 -88c85 0 166 48 166 138c0 76 -56 113 -169 165c-114 53 -194 96 -194 209c0 129 104 196 224 196z" />
    <glyph glyph-name="uni015E" unicode="&#x15e;" horiz-adv-x="557" 
d="M504 195c0 -123 -91 -196 -201 -209c-6 -65 -31 -112 -65 -154h-76c38 47 72 90 81 153c-75 6 -138 37 -178 69v85c51 -54 129 -88 203 -88c85 0 166 48 166 138c0 76 -56 113 -169 165c-114 53 -194 96 -194 209c0 129 104 196 224 196c67 0 129 -22 171 -48v-78
c-53 39 -116 59 -173 59c-79 0 -152 -40 -152 -124c0 -73 56 -108 166 -158c115 -54 197 -102 197 -215z" />
    <glyph glyph-name="uni0218" unicode="&#x218;" horiz-adv-x="557" 
d="M295 759c67 0 129 -22 171 -48v-78c-53 39 -116 59 -173 59c-79 0 -152 -40 -152 -124c0 -73 56 -108 166 -158c115 -54 197 -102 197 -215c0 -136 -112 -211 -237 -211c-85 0 -158 35 -202 70v85c51 -54 129 -88 203 -88c85 0 166 48 166 138c0 76 -56 113 -169 165
c-114 53 -194 96 -194 209c0 129 104 196 224 196zM306 -79c11 -60 -2 -127 -37 -189h-49c26 64 33 131 19 189h67z" />
    <glyph glyph-name="uni1E9E" unicode="&#x1e9e;" horiz-adv-x="739" 
d="M463 411c133 0 227 -82 227 -203c0 -112 -80 -220 -238 -220c-80 0 -147 27 -196 72v84c48 -53 118 -91 194 -91c108 0 171 76 171 158c0 85 -68 149 -180 149h-99l214 279c-35 26 -85 52 -160 52c-129 0 -228 -84 -228 -229v-462h-68v470c0 174 127 287 300 287
c101 0 183 -40 243 -98l-190 -248h10z" />
    <glyph glyph-name="Tbar" unicode="&#x166;" horiz-adv-x="613" 
d="M581 678h-240v-281h150v-62h-150v-335h-69v335h-149v62h149v281h-240v65h549v-65z" />
    <glyph glyph-name="Tcaron" unicode="&#x164;" horiz-adv-x="595" 
d="M454 995l-131 -165h-52l-132 165h71l87 -114l87 114h70zM263 0v678h-240v65h549v-65h-240v-678h-69z" />
    <glyph glyph-name="uni0162" unicode="&#x162;" horiz-adv-x="595" 
d="M23 743h549v-65h-240v-678h-4c-4 -73 -30 -123 -67 -168h-76c41 51 77 97 82 168h-4v678h-240v65z" />
    <glyph glyph-name="uni021A" unicode="&#x21a;" horiz-adv-x="595" 
d="M263 0v678h-240v65h549v-65h-240v-678h-69zM329 -79c11 -60 -2 -127 -37 -189h-49c26 64 33 131 19 189h67z" />
    <glyph glyph-name="Uacute" unicode="&#xda;" horiz-adv-x="747" 
d="M419 995h78l-135 -165h-61zM370 -14c-167 0 -270 118 -270 290v467h68v-473c0 -133 78 -218 202 -218c125 0 209 85 209 220v471h68v-466c0 -173 -109 -291 -277 -291z" />
    <glyph glyph-name="Ucircumflex" unicode="&#xdb;" horiz-adv-x="747" 
d="M400 995l132 -165h-72l-86 114l-88 -114h-69l131 165h52zM370 -14c-167 0 -270 118 -270 290v467h68v-473c0 -133 78 -218 202 -218c125 0 209 85 209 220v471h68v-466c0 -173 -109 -291 -277 -291z" />
    <glyph glyph-name="Udieresis" unicode="&#xdc;" horiz-adv-x="747" 
d="M276 856c-25 0 -46 20 -46 45s21 45 46 45c26 0 47 -20 47 -45s-21 -45 -47 -45zM472 856c-26 0 -46 20 -46 45s20 45 46 45s46 -20 46 -45s-20 -45 -46 -45zM370 -14c-167 0 -270 118 -270 290v467h68v-473c0 -133 78 -218 202 -218c125 0 209 85 209 220v471h68v-466
c0 -173 -109 -291 -277 -291z" />
    <glyph glyph-name="Ugrave" unicode="&#xd9;" horiz-adv-x="747" 
d="M330 995l117 -165h-61l-135 165h79zM370 -14c-167 0 -270 118 -270 290v467h68v-473c0 -133 78 -218 202 -218c125 0 209 85 209 220v471h68v-466c0 -173 -109 -291 -277 -291z" />
    <glyph glyph-name="Uhungarumlaut" unicode="&#x170;" horiz-adv-x="747" 
d="M459 995l-168 -165h-65l150 165h83zM620 995l-168 -165h-64l149 165h83zM370 -14c-167 0 -270 118 -270 290v467h68v-473c0 -133 78 -218 202 -218c125 0 209 85 209 220v471h68v-466c0 -173 -109 -291 -277 -291z" />
    <glyph glyph-name="Umacron" unicode="&#x16a;" horiz-adv-x="747" 
d="M212 873v56h322v-56h-322zM370 -14c-167 0 -270 118 -270 290v467h68v-473c0 -133 78 -218 202 -218c125 0 209 85 209 220v471h68v-466c0 -173 -109 -291 -277 -291z" />
    <glyph glyph-name="Uogonek" unicode="&#x172;" horiz-adv-x="747" 
d="M579 743h68v-466c0 -91 -31 -179 -108 -239c-79 -62 -120 -106 -120 -146c0 -41 30 -59 68 -59c13 0 31 3 36 6v-52c-5 -3 -30 -6 -42 -6c-68 0 -119 38 -119 101c0 37 18 73 54 107c-14 -2 -30 -3 -46 -3c-167 0 -270 118 -270 290v467h68v-473c0 -133 78 -218 202 -218
c125 0 209 85 209 220v471z" />
    <glyph glyph-name="Uring" unicode="&#x16e;" horiz-adv-x="747" 
d="M374 1018c55 0 99 -41 99 -94s-44 -94 -99 -94s-100 41 -100 94s45 94 100 94zM374 976c-31 0 -54 -23 -54 -52s23 -52 54 -52s54 23 54 52s-23 52 -54 52zM370 -14c-167 0 -270 118 -270 290v467h68v-473c0 -133 78 -218 202 -218c125 0 209 85 209 220v471h68v-466
c0 -173 -109 -291 -277 -291z" />
    <glyph glyph-name="Wacute" unicode="&#x1e82;" horiz-adv-x="1057" 
d="M574 995h78l-135 -165h-61zM738 0l-209 643l-210 -643h-73l-222 743h73l187 -648h1l209 648h70l211 -649h1l184 649h72l-220 -743h-74z" />
    <glyph glyph-name="Wcircumflex" unicode="&#x174;" horiz-adv-x="1057" 
d="M555 995l132 -165h-72l-86 114l-88 -114h-69l131 165h52zM738 0l-209 643l-210 -643h-73l-222 743h73l187 -648h1l209 648h70l211 -649h1l184 649h72l-220 -743h-74z" />
    <glyph glyph-name="Wdieresis" unicode="&#x1e84;" horiz-adv-x="1057" 
d="M431 856c-25 0 -46 20 -46 45s21 45 46 45c26 0 47 -20 47 -45s-21 -45 -47 -45zM627 856c-26 0 -46 20 -46 45s20 45 46 45s46 -20 46 -45s-20 -45 -46 -45zM738 0l-209 643l-210 -643h-73l-222 743h73l187 -648h1l209 648h70l211 -649h1l184 649h72l-220 -743h-74z" />
    <glyph glyph-name="Wgrave" unicode="&#x1e80;" horiz-adv-x="1057" 
d="M485 995l117 -165h-61l-135 165h79zM738 0l-209 643l-210 -643h-73l-222 743h73l187 -648h1l209 648h70l211 -649h1l184 649h72l-220 -743h-74z" />
    <glyph glyph-name="Yacute" unicode="&#xdd;" horiz-adv-x="630" 
d="M359 995h78l-135 -165h-61zM283 0v320l-274 423h78l228 -358h1l226 358h77l-270 -422v-321h-66z" />
    <glyph glyph-name="Ycircumflex" unicode="&#x176;" horiz-adv-x="630" 
d="M340 995l132 -165h-72l-86 114l-88 -114h-69l131 165h52zM283 0v320l-274 423h78l228 -358h1l226 358h77l-270 -422v-321h-66z" />
    <glyph glyph-name="Ydieresis" unicode="&#x178;" horiz-adv-x="630" 
d="M216 856c-25 0 -46 20 -46 45s21 45 46 45c26 0 47 -20 47 -45s-21 -45 -47 -45zM412 856c-26 0 -46 20 -46 45s20 45 46 45s46 -20 46 -45s-20 -45 -46 -45zM283 0v320l-274 423h78l228 -358h1l226 358h77l-270 -422v-321h-66z" />
    <glyph glyph-name="Ygrave" unicode="&#x1ef2;" horiz-adv-x="630" 
d="M270 995l117 -165h-61l-135 165h79zM283 0v320l-274 423h78l228 -358h1l226 358h77l-270 -422v-321h-66z" />
    <glyph glyph-name="Zacute" unicode="&#x179;" horiz-adv-x="581" 
d="M344 995h78l-135 -165h-61zM554 743l-413 -678h389v-65h-506l414 678h-382v65h498z" />
    <glyph glyph-name="Zcaron" unicode="&#x17d;" horiz-adv-x="581" 
d="M456 995l-131 -165h-52l-132 165h71l87 -114l87 114h70zM554 743l-413 -678h389v-65h-506l414 678h-382v65h498z" />
    <glyph glyph-name="Zdotaccent" unicode="&#x17b;" horiz-adv-x="581" 
d="M298 856c-25 0 -46 20 -46 45s21 45 46 45c26 0 47 -20 47 -45s-21 -45 -47 -45zM554 743l-413 -678h389v-65h-506l414 678h-382v65h498z" />
    <glyph glyph-name="a" unicode="a" horiz-adv-x="649" 
d="M299 -11c-127 0 -245 108 -245 279c0 172 118 279 245 279c76 0 154 -37 197 -116l9 105h55v-536h-55l-9 105c-43 -79 -121 -116 -197 -116zM308 54c103 0 186 87 186 215c0 126 -83 213 -186 213c-104 0 -186 -85 -186 -214c0 -128 82 -214 186 -214z" />
    <glyph glyph-name="b" unicode="b" horiz-adv-x="650" 
d="M158 798v-362c38 73 116 111 192 111c127 0 245 -107 245 -279c0 -171 -119 -279 -246 -279c-76 0 -153 37 -196 116l-9 -105h-54v798h68zM341 482c-103 0 -185 -87 -185 -213c0 -128 82 -215 185 -215c104 0 186 86 186 214c0 129 -82 214 -186 214z" />
    <glyph glyph-name="c" unicode="c" horiz-adv-x="520" 
d="M122 269c0 -136 97 -215 198 -215c45 0 101 10 146 45v-74c-38 -22 -87 -36 -146 -36c-153 0 -266 121 -266 280c0 156 113 278 266 278c56 0 104 -10 146 -38v-74c-45 34 -89 47 -147 47c-100 0 -197 -80 -197 -213z" />
    <glyph glyph-name="d" unicode="d" horiz-adv-x="650" 
d="M300 -11c-127 0 -245 108 -245 279c0 172 118 279 245 279c76 0 154 -38 193 -110v361h68v-798h-55l-9 105c-43 -79 -121 -116 -197 -116zM309 54c103 0 186 87 186 215c0 126 -83 213 -186 213c-104 0 -186 -85 -186 -214c0 -128 82 -214 186 -214z" />
    <glyph glyph-name="e" unicode="e" horiz-adv-x="586" 
d="M534 279c0 -14 -1 -25 -2 -36h-409c11 -117 88 -190 197 -190c62 0 127 23 185 76v-76c-55 -43 -118 -64 -188 -64c-159 0 -262 110 -262 277c0 175 120 281 254 281c124 0 225 -92 225 -268zM124 302h344c-3 126 -80 182 -160 182c-91 0 -172 -69 -184 -182z" />
    <glyph glyph-name="f" unicode="f" horiz-adv-x="359" 
d="M115 0v475h-79v61h78v91c0 107 74 176 173 176c28 0 59 -6 84 -15v-67c-19 8 -54 15 -80 15c-70 0 -109 -37 -109 -121v-79h160v-61h-159v-475h-68z" />
    <glyph glyph-name="g" unicode="g" horiz-adv-x="649" 
d="M299 546c76 0 154 -35 197 -108l9 98h54v-501c0 -172 -123 -256 -250 -256c-72 0 -144 26 -199 68v80c56 -52 124 -81 199 -81c96 0 182 68 182 175v93c-42 -68 -116 -106 -192 -106c-127 0 -245 108 -245 269s118 269 245 269zM308 481c-104 0 -186 -86 -186 -205
c0 -117 82 -204 186 -204c103 0 186 88 186 209c0 118 -83 200 -186 200z" />
    <glyph glyph-name="h" unicode="h" horiz-adv-x="596" 
d="M158 798v-331h1c31 49 90 80 157 80c119 0 196 -66 196 -194v-353h-68v327c0 104 -45 155 -137 155c-78 0 -149 -45 -149 -145v-337h-68v798h68z" />
    <glyph glyph-name="i" unicode="i" horiz-adv-x="253" 
d="M126 677c-27 0 -46 19 -46 46c0 26 19 45 46 45c28 0 47 -19 47 -45c0 -27 -19 -46 -47 -46zM92 0v536h68v-536h-68z" />
    <glyph glyph-name="j" unicode="j" horiz-adv-x="254" 
d="M127 677c-27 0 -46 19 -46 46c0 26 19 45 46 45c28 0 47 -19 47 -45c0 -27 -19 -46 -47 -46zM-6 -210c65 67 99 147 99 275v471h68v-472c0 -118 -23 -200 -82 -274h-85z" />
    <glyph glyph-name="k" unicode="k" horiz-adv-x="521" 
d="M511 0h-91l-262 277v-277h-68v798h68v-511l252 249h92l-261 -254z" />
    <glyph glyph-name="l" unicode="l" horiz-adv-x="253" 
d="M92 0v798h68v-798h-68z" />
    <glyph glyph-name="m" unicode="m" horiz-adv-x="851" 
d="M598 547c117 0 169 -78 169 -188v-359h-68v351c0 83 -34 129 -113 129c-78 0 -124 -64 -124 -132v-348h-68v351c0 83 -34 129 -112 129c-81 0 -124 -67 -124 -137v-343h-68v536h52l9 -81h2c26 53 77 92 142 92c77 0 124 -34 149 -95c30 57 81 95 154 95z" />
    <glyph glyph-name="n" unicode="n" horiz-adv-x="595" 
d="M319 547c116 0 193 -76 193 -193v-354h-68v325c0 105 -48 155 -138 155c-83 0 -148 -62 -148 -149v-331h-68v536h52l9 -83h2c30 50 89 94 166 94z" />
    <glyph glyph-name="o" unicode="o" horiz-adv-x="631" 
d="M316 -11c-151 0 -262 119 -262 279c0 159 111 279 262 279c150 0 261 -120 261 -279s-111 -279 -261 -279zM316 54c99 0 193 78 193 214s-94 214 -193 214c-100 0 -194 -78 -194 -214c0 -137 95 -214 194 -214z" />
    <glyph glyph-name="p" unicode="p" horiz-adv-x="650" 
d="M90 -210v746h54l9 -105c43 79 120 116 196 116c128 0 246 -108 246 -278c0 -173 -118 -280 -246 -280c-75 0 -154 40 -191 110v-309h-68zM341 54c104 0 186 85 186 215c0 127 -82 213 -186 213c-103 0 -185 -87 -185 -214s82 -214 185 -214z" />
    <glyph glyph-name="q" unicode="q" horiz-adv-x="649" 
d="M299 547c76 0 154 -37 197 -116l9 105h55v-746h-68v310c-39 -73 -117 -111 -193 -111c-127 0 -245 108 -245 279c0 172 118 279 245 279zM308 482c-104 0 -186 -85 -186 -214c0 -128 82 -214 186 -214s186 87 186 214s-82 214 -186 214z" />
    <glyph glyph-name="r" unicode="r" horiz-adv-x="361" 
d="M90 0v536h54l8 -87h1c37 71 108 93 156 93c13 0 24 -1 34 -2v-66c-11 2 -23 3 -35 3c-74 0 -150 -49 -150 -156v-321h-68z" />
    <glyph glyph-name="s" unicode="s" horiz-adv-x="483" 
d="M248 547c60 0 121 -18 158 -47v-75c-38 34 -95 58 -159 58c-74 0 -116 -34 -116 -83c0 -56 51 -74 128 -98c80 -25 174 -50 174 -157c0 -95 -74 -156 -191 -156c-66 0 -132 20 -183 63v81c41 -44 105 -80 182 -80c79 0 125 38 125 91c0 60 -55 79 -135 104
c-90 28 -168 54 -168 147c0 88 72 152 185 152z" />
    <glyph glyph-name="t" unicode="t" horiz-adv-x="372" 
d="M177 662v-126h157v-61h-157v-292c0 -90 51 -127 122 -127c15 0 31 2 48 5v-61c-6 -1 -29 -5 -57 -5c-106 0 -181 64 -181 185v295h-81v61h83v126h66z" />
    <glyph glyph-name="u" unicode="u" horiz-adv-x="589" 
d="M292 -11c-131 0 -209 87 -209 213v334h68v-337c0 -90 54 -145 141 -145c88 0 146 55 146 146v336h68v-334c0 -126 -82 -213 -214 -213z" />
    <glyph glyph-name="v" unicode="v" horiz-adv-x="521" 
d="M224 0l-195 536h72l160 -457h3l159 457h71l-195 -536h-75z" />
    <glyph glyph-name="w" unicode="w" horiz-adv-x="837" 
d="M570 0l-150 446h-3l-149 -446h-77l-155 536h70l125 -456h2l149 456h74l150 -456h2l126 456h67l-154 -536h-77z" />
    <glyph glyph-name="x" unicode="x" horiz-adv-x="510" 
d="M478 536l-184 -264l190 -272h-78l-150 219h-1l-151 -219h-76l188 269l-186 267h77l147 -215h2l147 215h75z" />
    <glyph glyph-name="y" unicode="y" horiz-adv-x="521" 
d="M495 536l-290 -746h-71l93 231l-199 515h75l159 -428h2l159 428h72z" />
    <glyph glyph-name="z" unicode="z" horiz-adv-x="491" 
d="M464 536l-325 -472h296v-64h-411l325 472h-289v64h404z" />
    <glyph glyph-name="aacute" unicode="&#xe1;" horiz-adv-x="649" 
d="M378 788h78l-135 -165h-61zM299 -11c-127 0 -245 108 -245 279c0 172 118 279 245 279c76 0 154 -37 197 -116l9 105h55v-536h-55l-9 105c-43 -79 -121 -116 -197 -116zM308 54c103 0 186 87 186 215c0 126 -83 213 -186 213c-104 0 -186 -85 -186 -214
c0 -128 82 -214 186 -214z" />
    <glyph glyph-name="abreve" unicode="&#x103;" horiz-adv-x="649" 
d="M486 784c2 -89 -73 -142 -153 -142s-155 53 -154 142h60c1 -47 35 -86 94 -86s93 39 94 86h59zM299 -11c-127 0 -245 108 -245 279c0 172 118 279 245 279c76 0 154 -37 197 -116l9 105h55v-536h-55l-9 105c-43 -79 -121 -116 -197 -116zM308 54c103 0 186 87 186 215
c0 126 -83 213 -186 213c-104 0 -186 -85 -186 -214c0 -128 82 -214 186 -214z" />
    <glyph glyph-name="acircumflex" unicode="&#xe2;" horiz-adv-x="649" 
d="M359 788l132 -165h-72l-86 114l-88 -114h-69l131 165h52zM299 -11c-127 0 -245 108 -245 279c0 172 118 279 245 279c76 0 154 -37 197 -116l9 105h55v-536h-55l-9 105c-43 -79 -121 -116 -197 -116zM308 54c103 0 186 87 186 215c0 126 -83 213 -186 213
c-104 0 -186 -85 -186 -214c0 -128 82 -214 186 -214z" />
    <glyph glyph-name="adieresis" unicode="&#xe4;" horiz-adv-x="649" 
d="M235 649c-25 0 -46 20 -46 45s21 45 46 45c26 0 47 -20 47 -45s-21 -45 -47 -45zM431 649c-26 0 -46 20 -46 45s20 45 46 45s46 -20 46 -45s-20 -45 -46 -45zM299 -11c-127 0 -245 108 -245 279c0 172 118 279 245 279c76 0 154 -37 197 -116l9 105h55v-536h-55l-9 105
c-43 -79 -121 -116 -197 -116zM308 54c103 0 186 87 186 215c0 126 -83 213 -186 213c-104 0 -186 -85 -186 -214c0 -128 82 -214 186 -214z" />
    <glyph glyph-name="agrave" unicode="&#xe0;" horiz-adv-x="649" 
d="M289 788l117 -165h-61l-135 165h79zM299 -11c-127 0 -245 108 -245 279c0 172 118 279 245 279c76 0 154 -37 197 -116l9 105h55v-536h-55l-9 105c-43 -79 -121 -116 -197 -116zM308 54c103 0 186 87 186 215c0 126 -83 213 -186 213c-104 0 -186 -85 -186 -214
c0 -128 82 -214 186 -214z" />
    <glyph glyph-name="amacron" unicode="&#x101;" horiz-adv-x="649" 
d="M171 666v56h322v-56h-322zM299 -11c-127 0 -245 108 -245 279c0 172 118 279 245 279c76 0 154 -37 197 -116l9 105h55v-536h-55l-9 105c-43 -79 -121 -116 -197 -116zM308 54c103 0 186 87 186 215c0 126 -83 213 -186 213c-104 0 -186 -85 -186 -214
c0 -128 82 -214 186 -214z" />
    <glyph glyph-name="aogonek" unicode="&#x105;" horiz-adv-x="649" 
d="M560 0c-65 -34 -104 -73 -104 -109c0 -39 31 -60 68 -60c12 0 31 3 36 6v-52c-4 -2 -23 -6 -41 -6c-62 0 -121 34 -121 100c0 52 32 98 105 144l-7 82c-43 -79 -121 -116 -197 -116c-127 0 -245 108 -245 279c0 172 118 279 245 279c76 0 154 -37 197 -116l9 105h55v-536
zM308 54c103 0 186 87 186 215c0 126 -83 213 -186 213c-104 0 -186 -85 -186 -214c0 -128 82 -214 186 -214z" />
    <glyph glyph-name="aring" unicode="&#xe5;" horiz-adv-x="649" 
d="M333 811c55 0 99 -41 99 -94s-44 -94 -99 -94s-100 41 -100 94s45 94 100 94zM333 769c-31 0 -54 -23 -54 -52s23 -52 54 -52s54 23 54 52s-23 52 -54 52zM299 -11c-127 0 -245 108 -245 279c0 172 118 279 245 279c76 0 154 -37 197 -116l9 105h55v-536h-55l-9 105
c-43 -79 -121 -116 -197 -116zM308 54c103 0 186 87 186 215c0 126 -83 213 -186 213c-104 0 -186 -85 -186 -214c0 -128 82 -214 186 -214z" />
    <glyph glyph-name="atilde" unicode="&#xe3;" horiz-adv-x="649" 
d="M507 748c5 -81 -50 -111 -100 -111c-72 0 -93 61 -146 61c-37 0 -51 -32 -50 -58h-54c-4 81 50 111 101 111c72 0 93 -61 146 -61c37 0 51 31 50 58h53zM299 -11c-127 0 -245 108 -245 279c0 172 118 279 245 279c76 0 154 -37 197 -116l9 105h55v-536h-55l-9 105
c-43 -79 -121 -116 -197 -116zM308 54c103 0 186 87 186 215c0 126 -83 213 -186 213c-104 0 -186 -85 -186 -214c0 -128 82 -214 186 -214z" />
    <glyph glyph-name="ae" unicode="&#xe6;" horiz-adv-x="940" 
d="M888 279c0 -14 -1 -25 -2 -36h-409c8 -117 88 -190 197 -190c62 0 127 23 185 76v-76c-55 -43 -118 -64 -188 -64c-101 0 -178 46 -219 122c-37 -70 -112 -122 -214 -122c-110 0 -193 66 -193 166c0 88 65 170 211 170c56 0 113 -11 159 -20v48c0 78 -52 130 -145 130
c-70 0 -138 -30 -179 -66v72c45 34 109 58 184 58c100 0 162 -45 187 -110c46 71 120 110 202 110c123 0 224 -92 224 -268zM478 302h344c-3 126 -80 182 -160 182c-91 0 -169 -69 -184 -182zM248 50c89 0 167 63 167 151v48c-47 14 -98 19 -146 19
c-105 0 -157 -47 -157 -110c0 -66 57 -108 136 -108z" />
    <glyph glyph-name="cacute" unicode="&#x107;" horiz-adv-x="520" 
d="M351 788h78l-135 -165h-61zM122 269c0 -136 97 -215 198 -215c45 0 101 10 146 45v-74c-38 -22 -87 -36 -146 -36c-153 0 -266 121 -266 280c0 156 113 278 266 278c56 0 104 -10 146 -38v-74c-45 34 -89 47 -147 47c-100 0 -197 -80 -197 -213z" />
    <glyph glyph-name="ccaron" unicode="&#x10d;" horiz-adv-x="520" 
d="M463 788l-131 -165h-52l-132 165h71l87 -114l87 114h70zM122 269c0 -136 97 -215 198 -215c45 0 101 10 146 45v-74c-38 -22 -87 -36 -146 -36c-153 0 -266 121 -266 280c0 156 113 278 266 278c56 0 104 -10 146 -38v-74c-45 34 -89 47 -147 47
c-100 0 -197 -80 -197 -213z" />
    <glyph glyph-name="ccedilla" unicode="&#xe7;" horiz-adv-x="520" 
d="M319 482c-100 0 -197 -80 -197 -213c0 -136 97 -215 198 -215c45 0 101 10 146 45v-74c-35 -20 -78 -33 -130 -36c-6 -67 -31 -114 -66 -157h-76c40 49 74 94 82 161c-130 20 -222 133 -222 276c0 156 113 278 266 278c56 0 104 -10 146 -38v-74c-45 34 -89 47 -147 47z
" />
    <glyph glyph-name="cdotaccent" unicode="&#x10b;" horiz-adv-x="520" 
d="M305 649c-25 0 -46 20 -46 45s21 45 46 45c26 0 47 -20 47 -45s-21 -45 -47 -45zM122 269c0 -136 97 -215 198 -215c45 0 101 10 146 45v-74c-38 -22 -87 -36 -146 -36c-153 0 -266 121 -266 280c0 156 113 278 266 278c56 0 104 -10 146 -38v-74c-45 34 -89 47 -147 47
c-100 0 -197 -80 -197 -213z" />
    <glyph glyph-name="eth" unicode="&#xf0;" horiz-adv-x="634" 
d="M389 701c115 -139 188 -269 188 -421c0 -171 -111 -291 -261 -291c-151 0 -262 119 -262 278s110 279 257 279c67 0 115 -30 149 -65l2 1c-15 37 -59 106 -129 189l-99 -52l-21 40l90 47c-26 30 -55 61 -87 92h89c19 -21 37 -41 55 -62l99 53l22 -39zM316 54
c99 0 193 79 193 218c0 132 -94 210 -193 210c-100 0 -194 -78 -194 -214c0 -137 95 -214 194 -214z" />
    <glyph glyph-name="dcaron" unicode="&#x10f;" horiz-adv-x="656" 
d="M300 -11c-127 0 -245 108 -245 279c0 172 118 279 245 279c76 0 154 -38 193 -110v361h68v-798h-55l-9 105c-43 -79 -121 -116 -197 -116zM639 619c3 21 12 52 12 103c0 31 -5 54 -11 76h66c3 -14 6 -33 6 -52c0 -30 -2 -65 -25 -127h-48zM309 54c103 0 186 87 186 215
c0 126 -83 213 -186 213c-104 0 -186 -85 -186 -214c0 -128 82 -214 186 -214z" />
    <glyph glyph-name="dcroat" unicode="&#x111;" horiz-adv-x="650" 
d="M639 698v-60h-78v-638h-55l-9 105c-43 -79 -121 -116 -197 -116c-127 0 -245 108 -245 279c0 172 118 279 245 279c76 0 154 -38 193 -110v201h-161v60h161v100h68v-100h78zM309 54c103 0 186 87 186 215c0 126 -83 213 -186 213c-104 0 -186 -85 -186 -214
c0 -128 82 -214 186 -214z" />
    <glyph glyph-name="eacute" unicode="&#xe9;" horiz-adv-x="586" 
d="M431 788l-135 -165h-61l118 165h78zM534 279c0 -14 -1 -25 -2 -36h-409c11 -117 88 -190 197 -190c62 0 127 23 185 76v-76c-55 -43 -118 -64 -188 -64c-159 0 -262 110 -262 277c0 175 120 281 254 281c124 0 225 -92 225 -268zM124 302h344c-3 126 -80 182 -160 182
c-91 0 -172 -69 -184 -182z" />
    <glyph glyph-name="ecaron" unicode="&#x11b;" horiz-adv-x="586" 
d="M334 623h-52l-132 165h71l87 -114l87 114h70zM534 279c0 -14 -1 -25 -2 -36h-409c11 -117 88 -190 197 -190c62 0 127 23 185 76v-76c-55 -43 -118 -64 -188 -64c-159 0 -262 110 -262 277c0 175 120 281 254 281c124 0 225 -92 225 -268zM124 302h344
c-3 126 -80 182 -160 182c-91 0 -172 -69 -184 -182z" />
    <glyph glyph-name="ecircumflex" unicode="&#xea;" horiz-adv-x="586" 
d="M308 737l-88 -114h-69l131 165h52l132 -165h-72zM534 279c0 -14 -1 -25 -2 -36h-409c11 -117 88 -190 197 -190c62 0 127 23 185 76v-76c-55 -43 -118 -64 -188 -64c-159 0 -262 110 -262 277c0 175 120 281 254 281c124 0 225 -92 225 -268zM124 302h344
c-3 126 -80 182 -160 182c-91 0 -172 -69 -184 -182z" />
    <glyph glyph-name="edieresis" unicode="&#xeb;" horiz-adv-x="586" 
d="M210 649c-25 0 -46 20 -46 45s21 45 46 45c26 0 47 -20 47 -45s-21 -45 -47 -45zM406 649c-26 0 -46 20 -46 45s20 45 46 45s46 -20 46 -45s-20 -45 -46 -45zM534 279c0 -14 -1 -25 -2 -36h-409c11 -117 88 -190 197 -190c62 0 127 23 185 76v-76
c-55 -43 -118 -64 -188 -64c-159 0 -262 110 -262 277c0 175 120 281 254 281c124 0 225 -92 225 -268zM124 302h344c-3 126 -80 182 -160 182c-91 0 -172 -69 -184 -182z" />
    <glyph glyph-name="edotaccent" unicode="&#x117;" horiz-adv-x="586" 
d="M307 649c-25 0 -46 20 -46 45s21 45 46 45c26 0 47 -20 47 -45s-21 -45 -47 -45zM534 279c0 -14 -1 -25 -2 -36h-409c11 -117 88 -190 197 -190c62 0 127 23 185 76v-76c-55 -43 -118 -64 -188 -64c-159 0 -262 110 -262 277c0 175 120 281 254 281
c124 0 225 -92 225 -268zM124 302h344c-3 126 -80 182 -160 182c-91 0 -172 -69 -184 -182z" />
    <glyph glyph-name="egrave" unicode="&#xe8;" horiz-adv-x="586" 
d="M381 623h-61l-135 165h79zM534 279c0 -14 -1 -25 -2 -36h-409c11 -117 88 -190 197 -190c62 0 127 23 185 76v-76c-55 -43 -118 -64 -188 -64c-159 0 -262 110 -262 277c0 175 120 281 254 281c124 0 225 -92 225 -268zM124 302h344c-3 126 -80 182 -160 182
c-91 0 -172 -69 -184 -182z" />
    <glyph glyph-name="emacron" unicode="&#x113;" horiz-adv-x="586" 
d="M468 722v-56h-322v56h322zM534 279c0 -14 -1 -25 -2 -36h-409c11 -117 88 -190 197 -190c62 0 127 23 185 76v-76c-55 -43 -118 -64 -188 -64c-159 0 -262 110 -262 277c0 175 120 281 254 281c124 0 225 -92 225 -268zM124 302h344c-3 126 -80 182 -160 182
c-91 0 -172 -69 -184 -182z" />
    <glyph glyph-name="eogonek" unicode="&#x119;" horiz-adv-x="586" 
d="M534 279c0 -14 -1 -25 -2 -36h-409c8 -117 88 -190 197 -190c62 0 127 23 185 76v-76c-82 -61 -140 -115 -140 -162c0 -39 31 -60 68 -60c12 0 31 3 36 6v-52c-4 -2 -23 -6 -42 -6c-61 0 -120 34 -120 100c0 39 19 76 59 114c-16 -3 -32 -4 -49 -4
c-159 0 -262 110 -262 277c0 175 120 281 254 281c124 0 225 -92 225 -268zM124 302h344c-3 126 -80 182 -160 182c-91 0 -169 -69 -184 -182z" />
    <glyph glyph-name="gbreve" unicode="&#x11f;" horiz-adv-x="649" 
d="M489 784c2 -89 -73 -142 -153 -142s-155 53 -154 142h60c1 -47 35 -86 94 -86s93 39 94 86h59zM299 546c76 0 154 -35 197 -108l9 98h54v-501c0 -172 -123 -256 -250 -256c-72 0 -144 26 -199 68v80c56 -52 124 -81 199 -81c96 0 182 68 182 175v93
c-42 -68 -116 -106 -192 -106c-127 0 -245 108 -245 269s118 269 245 269zM308 481c-104 0 -186 -86 -186 -205c0 -117 82 -204 186 -204c103 0 186 88 186 209c0 118 -83 200 -186 200z" />
    <glyph glyph-name="uni0123" unicode="&#x123;" horiz-adv-x="649" 
d="M304 615c-11 60 2 127 37 189h49c-26 -64 -33 -131 -19 -189h-67zM299 546c76 0 154 -35 197 -108l9 98h54v-501c0 -172 -123 -256 -250 -256c-72 0 -144 26 -199 68v80c56 -52 124 -81 199 -81c96 0 182 68 182 175v93c-42 -68 -116 -106 -192 -106
c-127 0 -245 108 -245 269s118 269 245 269zM308 481c-104 0 -186 -86 -186 -205c0 -117 82 -204 186 -204c103 0 186 88 186 209c0 118 -83 200 -186 200z" />
    <glyph glyph-name="gdotaccent" unicode="&#x121;" horiz-adv-x="649" 
d="M335 649c-25 0 -46 20 -46 45s21 45 46 45c26 0 47 -20 47 -45s-21 -45 -47 -45zM299 546c76 0 154 -35 197 -108l9 98h54v-501c0 -172 -123 -256 -250 -256c-72 0 -144 26 -199 68v80c56 -52 124 -81 199 -81c96 0 182 68 182 175v93c-42 -68 -116 -106 -192 -106
c-127 0 -245 108 -245 269s118 269 245 269zM308 481c-104 0 -186 -86 -186 -205c0 -117 82 -204 186 -204c103 0 186 88 186 209c0 118 -83 200 -186 200z" />
    <glyph glyph-name="hbar" unicode="&#x127;" horiz-adv-x="596" 
d="M316 547c119 0 196 -66 196 -194v-353h-68v327c0 104 -45 155 -137 155c-78 0 -149 -45 -149 -145v-337h-68v638h-79v60h79v100h68v-100h160v-60h-160v-171h1c31 49 90 80 157 80z" />
    <glyph glyph-name="dotlessi" unicode="&#x131;" horiz-adv-x="253" 
d="M92 0v536h68v-536h-68z" />
    <glyph glyph-name="ij" unicode="&#x133;" horiz-adv-x="509" 
d="M126 677c-27 0 -46 19 -46 46c0 26 19 45 46 45c28 0 47 -19 47 -45c0 -27 -19 -46 -47 -46zM383 677c-27 0 -46 19 -46 46c0 26 19 45 46 45c28 0 47 -19 47 -45c0 -27 -19 -46 -47 -46zM92 0v536h68v-536h-68zM250 -210c65 67 99 147 99 275v471h68v-472
c0 -118 -23 -200 -82 -274h-85z" />
    <glyph glyph-name="iacute" unicode="&#xed;" horiz-adv-x="253" 
d="M199 813h78l-135 -165h-61zM92 0v536h68v-536h-68z" />
    <glyph glyph-name="icircumflex" unicode="&#xee;" horiz-adv-x="253" 
d="M153 813l132 -165h-72l-86 114l-88 -114h-69l131 165h52zM92 0v536h68v-536h-68z" />
    <glyph glyph-name="idieresis" unicode="&#xef;" horiz-adv-x="253" 
d="M30 674c-25 0 -46 20 -46 45s21 45 46 45c26 0 47 -20 47 -45s-21 -45 -47 -45zM226 674c-26 0 -46 20 -46 45s20 45 46 45s46 -20 46 -45s-20 -45 -46 -45zM92 0v536h68v-536h-68z" />
    <glyph glyph-name="i.loclTRK" horiz-adv-x="253" 
d="M126 677c-27 0 -46 19 -46 46c0 26 19 45 46 45c28 0 47 -19 47 -45c0 -27 -19 -46 -47 -46zM92 0v536h68v-536h-68z" />
    <glyph glyph-name="igrave" unicode="&#xec;" horiz-adv-x="253" 
d="M82 813l117 -165h-61l-135 165h79zM92 0v536h68v-536h-68z" />
    <glyph glyph-name="imacron" unicode="&#x12b;" horiz-adv-x="253" 
d="M-34 691v56h322v-56h-322zM92 0v536h68v-536h-68z" />
    <glyph glyph-name="iogonek" unicode="&#x12f;" horiz-adv-x="254" 
d="M127 768c28 0 47 -19 47 -45c0 -27 -19 -46 -47 -46c-27 0 -46 19 -46 46c0 26 19 45 46 45zM93 16v520h68v-536c-65 -34 -104 -73 -104 -109c0 -39 31 -60 68 -60c12 0 31 3 36 6v-52c-4 -2 -23 -6 -41 -6c-62 0 -121 34 -121 100c0 49 29 93 94 137z" />
    <glyph glyph-name="uni0137" unicode="&#x137;" horiz-adv-x="521" 
d="M241 282l270 -282h-91l-262 277v-277h-68v798h68v-511l252 249h92zM235 -79h67c11 -60 -2 -127 -37 -189h-49c26 64 33 131 19 189z" />
    <glyph glyph-name="lacute" unicode="&#x13a;" horiz-adv-x="253" 
d="M171 1050h78l-135 -165h-61zM92 0v798h68v-798h-68z" />
    <glyph glyph-name="lcaron" unicode="&#x13e;" horiz-adv-x="255" 
d="M92 0v798h68v-798h-68zM239 619c3 21 12 52 12 103c0 31 -5 54 -11 76h66c3 -14 6 -33 6 -52c0 -30 -2 -65 -25 -127h-48z" />
    <glyph glyph-name="uni013C" unicode="&#x13c;" horiz-adv-x="253" 
d="M92 0v798h68v-798h-68zM158 -79c11 -60 -2 -127 -37 -189h-49c26 64 33 131 19 189h67z" />
    <glyph glyph-name="ldot" unicode="&#x140;" horiz-adv-x="346" 
d="M92 0v798h68v-798h-68zM299 347c-30 0 -52 22 -52 52c0 31 22 53 52 53s52 -22 52 -53c0 -30 -22 -52 -52 -52z" />
    <glyph glyph-name="lslash" unicode="&#x142;" horiz-adv-x="378" 
d="M352 545v-73l-124 -75v-397h-68v356l-124 -75v75l124 74v368h68v-327z" />
    <glyph glyph-name="nacute" unicode="&#x144;" horiz-adv-x="595" 
d="M350 788h78l-135 -165h-61zM319 547c116 0 193 -76 193 -193v-354h-68v325c0 105 -48 155 -138 155c-83 0 -148 -62 -148 -149v-331h-68v536h52l9 -83h2c30 50 89 94 166 94z" />
    <glyph glyph-name="ncaron" unicode="&#x148;" horiz-adv-x="595" 
d="M462 788l-131 -165h-52l-132 165h71l87 -114l87 114h70zM319 547c116 0 193 -76 193 -193v-354h-68v325c0 105 -48 155 -138 155c-83 0 -148 -62 -148 -149v-331h-68v536h52l9 -83h2c30 50 89 94 166 94z" />
    <glyph glyph-name="uni0146" unicode="&#x146;" horiz-adv-x="595" 
d="M319 547c116 0 193 -76 193 -193v-354h-68v325c0 105 -48 155 -138 155c-83 0 -148 -62 -148 -149v-331h-68v536h52l9 -83h2c30 50 89 94 166 94zM332 -79c11 -60 -2 -127 -37 -189h-49c26 64 33 131 19 189h67z" />
    <glyph glyph-name="eng" unicode="&#x14b;" horiz-adv-x="595" 
d="M512 354v-290c0 -118 -24 -200 -83 -274h-84c65 67 99 147 99 275v260c0 105 -48 155 -138 155c-83 0 -148 -62 -148 -149v-331h-68v536h52l9 -83h2c30 50 89 94 166 94c116 0 193 -76 193 -193z" />
    <glyph glyph-name="ntilde" unicode="&#xf1;" horiz-adv-x="595" 
d="M479 748c5 -81 -50 -111 -100 -111c-72 0 -93 61 -146 61c-37 0 -51 -32 -50 -58h-54c-4 81 50 111 101 111c72 0 93 -61 146 -61c37 0 51 31 50 58h53zM319 547c116 0 193 -76 193 -193v-354h-68v325c0 105 -48 155 -138 155c-83 0 -148 -62 -148 -149v-331h-68v536h52
l9 -83h2c30 50 89 94 166 94z" />
    <glyph glyph-name="oacute" unicode="&#xf3;" horiz-adv-x="631" 
d="M361 788h78l-135 -165h-61zM316 -11c-151 0 -262 119 -262 279c0 159 111 279 262 279c150 0 261 -120 261 -279s-111 -279 -261 -279zM316 54c99 0 193 78 193 214s-94 214 -193 214c-100 0 -194 -78 -194 -214c0 -137 95 -214 194 -214z" />
    <glyph glyph-name="ocircumflex" unicode="&#xf4;" horiz-adv-x="631" 
d="M342 788l132 -165h-72l-86 114l-88 -114h-69l131 165h52zM316 -11c-151 0 -262 119 -262 279c0 159 111 279 262 279c150 0 261 -120 261 -279s-111 -279 -261 -279zM316 54c99 0 193 78 193 214s-94 214 -193 214c-100 0 -194 -78 -194 -214c0 -137 95 -214 194 -214z
" />
    <glyph glyph-name="odieresis" unicode="&#xf6;" horiz-adv-x="631" 
d="M218 649c-25 0 -46 20 -46 45s21 45 46 45c26 0 47 -20 47 -45s-21 -45 -47 -45zM414 649c-26 0 -46 20 -46 45s20 45 46 45s46 -20 46 -45s-20 -45 -46 -45zM316 -11c-151 0 -262 119 -262 279c0 159 111 279 262 279c150 0 261 -120 261 -279s-111 -279 -261 -279z
M316 54c99 0 193 78 193 214s-94 214 -193 214c-100 0 -194 -78 -194 -214c0 -137 95 -214 194 -214z" />
    <glyph glyph-name="ograve" unicode="&#xf2;" horiz-adv-x="631" 
d="M272 788l117 -165h-61l-135 165h79zM316 -11c-151 0 -262 119 -262 279c0 159 111 279 262 279c150 0 261 -120 261 -279s-111 -279 -261 -279zM316 54c99 0 193 78 193 214s-94 214 -193 214c-100 0 -194 -78 -194 -214c0 -137 95 -214 194 -214z" />
    <glyph glyph-name="ohungarumlaut" unicode="&#x151;" horiz-adv-x="631" 
d="M401 788l-168 -165h-65l150 165h83zM562 788l-168 -165h-64l149 165h83zM316 -11c-151 0 -262 119 -262 279c0 159 111 279 262 279c150 0 261 -120 261 -279s-111 -279 -261 -279zM316 54c99 0 193 78 193 214s-94 214 -193 214c-100 0 -194 -78 -194 -214
c0 -137 95 -214 194 -214z" />
    <glyph glyph-name="omacron" unicode="&#x14d;" horiz-adv-x="631" 
d="M154 666v56h322v-56h-322zM316 -11c-151 0 -262 119 -262 279c0 159 111 279 262 279c150 0 261 -120 261 -279s-111 -279 -261 -279zM316 54c99 0 193 78 193 214s-94 214 -193 214c-100 0 -194 -78 -194 -214c0 -137 95 -214 194 -214z" />
    <glyph glyph-name="oslash" unicode="&#xf8;" horiz-adv-x="635" 
d="M587 505l-61 -64c34 -47 53 -106 53 -173c0 -159 -111 -279 -261 -279c-65 0 -122 22 -167 60l-53 -56l-37 35l55 57c-38 49 -60 112 -60 183c0 159 111 279 262 279c69 0 129 -25 174 -67l59 61zM123 268c0 -54 15 -99 39 -134l285 298c-36 33 -82 51 -129 51
c-101 0 -195 -78 -195 -215zM512 268c0 49 -12 91 -33 124l-282 -296c34 -28 77 -43 121 -43c99 0 194 79 194 215z" />
    <glyph glyph-name="otilde" unicode="&#xf5;" horiz-adv-x="631" 
d="M490 748c5 -81 -50 -111 -100 -111c-72 0 -93 61 -146 61c-37 0 -51 -32 -50 -58h-54c-4 81 50 111 101 111c72 0 93 -61 146 -61c37 0 51 31 50 58h53zM316 -11c-151 0 -262 119 -262 279c0 159 111 279 262 279c150 0 261 -120 261 -279s-111 -279 -261 -279zM316 54
c99 0 193 78 193 214s-94 214 -193 214c-100 0 -194 -78 -194 -214c0 -137 95 -214 194 -214z" />
    <glyph glyph-name="oe" unicode="&#x153;" horiz-adv-x="1037" 
d="M985 279c0 -14 -1 -25 -2 -36h-409c8 -117 88 -190 197 -190c62 0 127 23 185 76v-76c-55 -43 -118 -64 -188 -64c-104 0 -179 45 -229 132c-46 -77 -122 -132 -223 -132c-151 0 -262 119 -262 279c0 158 111 279 262 279c92 0 179 -55 223 -133c43 79 118 133 221 133
c123 0 225 -92 225 -268zM575 302h344c-3 126 -80 182 -160 182c-91 0 -169 -69 -184 -182zM316 54c99 0 193 78 193 214s-94 214 -193 214c-100 0 -194 -78 -194 -214c0 -137 95 -214 194 -214z" />
    <glyph glyph-name="thorn" unicode="&#xfe;" horiz-adv-x="650" 
d="M158 798v-362c37 71 116 108 191 108c128 0 246 -104 246 -275c0 -172 -118 -277 -246 -277c-75 0 -148 31 -191 110v-312h-68v1008h68zM338 481c-103 0 -182 -86 -182 -213s79 -213 182 -213c104 0 186 85 186 214c0 128 -82 212 -186 212z" />
    <glyph glyph-name="racute" unicode="&#x155;" horiz-adv-x="361" 
d="M270 788h78l-135 -165h-61zM90 0v536h54l8 -87h1c37 71 108 93 156 93c13 0 24 -1 34 -2v-66c-11 2 -23 3 -35 3c-74 0 -150 -49 -150 -156v-321h-68z" />
    <glyph glyph-name="rcaron" unicode="&#x159;" horiz-adv-x="361" 
d="M382 788l-131 -165h-52l-132 165h71l87 -114l87 114h70zM90 0v536h54l8 -87h1c37 71 108 93 156 93c13 0 24 -1 34 -2v-66c-11 2 -23 3 -35 3c-74 0 -150 -49 -150 -156v-321h-68z" />
    <glyph glyph-name="uni0157" unicode="&#x157;" horiz-adv-x="361" 
d="M90 0v536h54l8 -87h1c37 71 108 93 156 93c13 0 24 -1 34 -2v-66c-11 2 -23 3 -35 3c-74 0 -150 -49 -150 -156v-321h-68zM156 -79c11 -60 -2 -127 -37 -189h-49c26 64 33 131 19 189h67z" />
    <glyph glyph-name="sacute" unicode="&#x15b;" horiz-adv-x="483" 
d="M296 788h78l-135 -165h-61zM248 547c60 0 121 -18 158 -47v-75c-38 34 -95 58 -159 58c-74 0 -116 -34 -116 -83c0 -56 51 -74 128 -98c80 -25 174 -50 174 -157c0 -95 -74 -156 -191 -156c-66 0 -132 20 -183 63v81c41 -44 105 -80 182 -80c79 0 125 38 125 91
c0 60 -55 79 -135 104c-90 28 -168 54 -168 147c0 88 72 152 185 152z" />
    <glyph glyph-name="scaron" unicode="&#x161;" horiz-adv-x="483" 
d="M408 788l-131 -165h-52l-132 165h71l87 -114l87 114h70zM248 547c60 0 121 -18 158 -47v-75c-38 34 -95 58 -159 58c-74 0 -116 -34 -116 -83c0 -56 51 -74 128 -98c80 -25 174 -50 174 -157c0 -95 -74 -156 -191 -156c-66 0 -132 20 -183 63v81c41 -44 105 -80 182 -80
c79 0 125 38 125 91c0 60 -55 79 -135 104c-90 28 -168 54 -168 147c0 88 72 152 185 152z" />
    <glyph glyph-name="uni015F" unicode="&#x15f;" horiz-adv-x="483" 
d="M433 145c0 -87 -62 -146 -163 -155c-6 -67 -31 -115 -66 -158h-76c40 48 74 93 81 159c-54 5 -107 25 -150 61v81c41 -44 105 -80 182 -80c79 0 125 38 125 91c0 60 -55 79 -135 104c-90 28 -168 54 -168 147c0 88 72 152 185 152c60 0 121 -18 158 -47v-75
c-38 34 -95 58 -159 58c-74 0 -116 -34 -116 -83c0 -56 51 -74 128 -98c80 -25 174 -50 174 -157z" />
    <glyph glyph-name="uni0219" unicode="&#x219;" horiz-adv-x="483" 
d="M248 547c60 0 121 -18 158 -47v-75c-38 34 -95 58 -159 58c-74 0 -116 -34 -116 -83c0 -56 51 -74 128 -98c80 -25 174 -50 174 -157c0 -95 -74 -156 -191 -156c-66 0 -132 20 -183 63v81c41 -44 105 -80 182 -80c79 0 125 38 125 91c0 60 -55 79 -135 104
c-90 28 -168 54 -168 147c0 88 72 152 185 152zM272 -79c11 -60 -2 -127 -37 -189h-49c26 64 33 131 19 189h67z" />
    <glyph glyph-name="germandbls" unicode="&#xdf;" horiz-adv-x="637" 
d="M90 570c0 138 84 233 216 233c126 0 200 -87 200 -184c0 -74 -41 -136 -101 -162v-1c92 -20 180 -84 180 -220c0 -159 -120 -240 -261 -240c-27 0 -56 4 -77 9v65c20 -6 48 -10 76 -10c104 0 194 57 194 180c0 113 -79 172 -197 172h-58v60h25c93 0 151 55 151 136
c0 77 -56 131 -136 131c-84 0 -144 -59 -144 -163v-576h-68v570z" />
    <glyph glyph-name="tbar" unicode="&#x167;" horiz-adv-x="381" 
d="M305 56c15 0 31 2 48 5v-61c-6 -1 -29 -5 -57 -5c-106 0 -181 64 -181 185v72h-82v58h82v165h-81v61h83v126h66v-126h157v-61h-157v-165h156v-58h-156v-69c0 -90 51 -127 122 -127z" />
    <glyph glyph-name="tcaron" unicode="&#x165;" horiz-adv-x="372" 
d="M255 621c3 20 12 52 12 101c0 32 -5 55 -10 76h65c3 -14 6 -32 6 -51c0 -30 -1 -65 -24 -126h-49zM177 662v-126h157v-61h-157v-292c0 -90 51 -127 122 -127c15 0 31 2 48 5v-61c-6 -1 -29 -5 -57 -5c-106 0 -181 64 -181 185v295h-81v61h83v126h66z" />
    <glyph glyph-name="uni0163" unicode="&#x163;" horiz-adv-x="373" 
d="M299 56c15 0 31 2 48 5v-61c-6 -1 -29 -5 -57 -5c-7 0 -13 0 -20 1c-4 -71 -30 -120 -66 -164h-76c43 53 80 101 83 177c-62 25 -102 83 -102 171v295h-81v61h83v126h66v-126h157v-61h-157v-292c0 -90 51 -127 122 -127z" />
    <glyph glyph-name="uni021B" unicode="&#x21b;" horiz-adv-x="372" 
d="M177 662v-126h157v-61h-157v-292c0 -90 51 -127 122 -127c15 0 31 2 48 5v-61c-6 -1 -29 -5 -57 -5c-106 0 -181 64 -181 185v295h-81v61h83v126h66zM272 -79c11 -60 -2 -127 -37 -189h-49c26 64 33 131 19 189h67z" />
    <glyph glyph-name="uacute" unicode="&#xfa;" horiz-adv-x="589" 
d="M339 788h78l-135 -165h-61zM292 -11c-131 0 -209 87 -209 213v334h68v-337c0 -90 54 -145 141 -145c88 0 146 55 146 146v336h68v-334c0 -126 -82 -213 -214 -213z" />
    <glyph glyph-name="ucircumflex" unicode="&#xfb;" horiz-adv-x="589" 
d="M320 788l132 -165h-72l-86 114l-88 -114h-69l131 165h52zM292 -11c-131 0 -209 87 -209 213v334h68v-337c0 -90 54 -145 141 -145c88 0 146 55 146 146v336h68v-334c0 -126 -82 -213 -214 -213z" />
    <glyph glyph-name="udieresis" unicode="&#xfc;" horiz-adv-x="589" 
d="M196 649c-25 0 -46 20 -46 45s21 45 46 45c26 0 47 -20 47 -45s-21 -45 -47 -45zM392 649c-26 0 -46 20 -46 45s20 45 46 45s46 -20 46 -45s-20 -45 -46 -45zM292 -11c-131 0 -209 87 -209 213v334h68v-337c0 -90 54 -145 141 -145c88 0 146 55 146 146v336h68v-334
c0 -126 -82 -213 -214 -213z" />
    <glyph glyph-name="ugrave" unicode="&#xf9;" horiz-adv-x="589" 
d="M250 788l117 -165h-61l-135 165h79zM292 -11c-131 0 -209 87 -209 213v334h68v-337c0 -90 54 -145 141 -145c88 0 146 55 146 146v336h68v-334c0 -126 -82 -213 -214 -213z" />
    <glyph glyph-name="uhungarumlaut" unicode="&#x171;" horiz-adv-x="589" 
d="M379 788l-168 -165h-65l150 165h83zM540 788l-168 -165h-64l149 165h83zM292 -11c-131 0 -209 87 -209 213v334h68v-337c0 -90 54 -145 141 -145c88 0 146 55 146 146v336h68v-334c0 -126 -82 -213 -214 -213z" />
    <glyph glyph-name="umacron" unicode="&#x16b;" horiz-adv-x="589" 
d="M132 666v56h322v-56h-322zM292 -11c-131 0 -209 87 -209 213v334h68v-337c0 -90 54 -145 141 -145c88 0 146 55 146 146v336h68v-334c0 -126 -82 -213 -214 -213z" />
    <glyph glyph-name="uogonek" unicode="&#x173;" horiz-adv-x="589" 
d="M438 536h68v-334c0 -78 -32 -139 -84 -177c-73 -54 -110 -97 -110 -136c0 -40 31 -58 69 -58c12 0 31 3 36 6v-52c-5 -3 -29 -6 -43 -6c-61 0 -119 33 -119 101c0 37 20 75 58 110c-7 -1 -14 -1 -21 -1c-131 0 -209 87 -209 213v334h68v-337c0 -89 52 -145 141 -145
c88 0 146 55 146 146v336z" />
    <glyph glyph-name="uring" unicode="&#x16f;" horiz-adv-x="589" 
d="M294 811c55 0 99 -41 99 -94s-44 -94 -99 -94s-100 41 -100 94s45 94 100 94zM294 769c-31 0 -54 -23 -54 -52s23 -52 54 -52s54 23 54 52s-23 52 -54 52zM292 -11c-131 0 -209 87 -209 213v334h68v-337c0 -90 54 -145 141 -145c88 0 146 55 146 146v336h68v-334
c0 -126 -82 -213 -214 -213z" />
    <glyph glyph-name="wacute" unicode="&#x1e83;" horiz-adv-x="837" 
d="M463 788h78l-135 -165h-61zM570 0l-150 446h-3l-149 -446h-77l-155 536h70l125 -456h2l149 456h74l150 -456h2l126 456h67l-154 -536h-77z" />
    <glyph glyph-name="wcircumflex" unicode="&#x175;" horiz-adv-x="837" 
d="M444 788l132 -165h-72l-86 114l-88 -114h-69l131 165h52zM570 0l-150 446h-3l-149 -446h-77l-155 536h70l125 -456h2l149 456h74l150 -456h2l126 456h67l-154 -536h-77z" />
    <glyph glyph-name="wdieresis" unicode="&#x1e85;" horiz-adv-x="837" 
d="M320 649c-25 0 -46 20 -46 45s21 45 46 45c26 0 47 -20 47 -45s-21 -45 -47 -45zM516 649c-26 0 -46 20 -46 45s20 45 46 45s46 -20 46 -45s-20 -45 -46 -45zM570 0l-150 446h-3l-149 -446h-77l-155 536h70l125 -456h2l149 456h74l150 -456h2l126 456h67l-154 -536h-77z
" />
    <glyph glyph-name="wgrave" unicode="&#x1e81;" horiz-adv-x="837" 
d="M374 788l117 -165h-61l-135 165h79zM570 0l-150 446h-3l-149 -446h-77l-155 536h70l125 -456h2l149 456h74l150 -456h2l126 456h67l-154 -536h-77z" />
    <glyph glyph-name="yacute" unicode="&#xfd;" horiz-adv-x="521" 
d="M308 788h78l-135 -165h-61zM495 536l-290 -746h-71l93 231l-199 515h75l159 -428h2l159 428h72z" />
    <glyph glyph-name="ycircumflex" unicode="&#x177;" horiz-adv-x="521" 
d="M289 788l132 -165h-72l-86 114l-88 -114h-69l131 165h52zM495 536l-290 -746h-71l93 231l-199 515h75l159 -428h2l159 428h72z" />
    <glyph glyph-name="ydieresis" unicode="&#xff;" horiz-adv-x="521" 
d="M165 649c-25 0 -46 20 -46 45s21 45 46 45c26 0 47 -20 47 -45s-21 -45 -47 -45zM361 649c-26 0 -46 20 -46 45s20 45 46 45s46 -20 46 -45s-20 -45 -46 -45zM495 536l-290 -746h-71l93 231l-199 515h75l159 -428h2l159 428h72z" />
    <glyph glyph-name="ygrave" unicode="&#x1ef3;" horiz-adv-x="521" 
d="M219 788l117 -165h-61l-135 165h79zM495 536l-290 -746h-71l93 231l-199 515h75l159 -428h2l159 428h72z" />
    <glyph glyph-name="zacute" unicode="&#x17a;" horiz-adv-x="491" 
d="M300 788h78l-135 -165h-61zM464 536l-325 -472h296v-64h-411l325 472h-289v64h404z" />
    <glyph glyph-name="zcaron" unicode="&#x17e;" horiz-adv-x="491" 
d="M412 788l-131 -165h-52l-132 165h71l87 -114l87 114h70zM464 536l-325 -472h296v-64h-411l325 472h-289v64h404z" />
    <glyph glyph-name="zdotaccent" unicode="&#x17c;" horiz-adv-x="491" 
d="M254 649c-25 0 -46 20 -46 45s21 45 46 45c26 0 47 -20 47 -45s-21 -45 -47 -45zM464 536l-325 -472h296v-64h-411l325 472h-289v64h404z" />
    <glyph glyph-name="ordmasculine" unicode="&#xba;" horiz-adv-x="529" 
d="M265 753c120 0 210 -95 210 -224c0 -127 -90 -222 -210 -222c-122 0 -210 94 -210 222c0 129 89 224 210 224zM265 695c-76 0 -149 -61 -149 -166c0 -104 73 -163 149 -163s148 59 148 163c0 105 -72 166 -148 166z" />
    <glyph glyph-name="ordfeminine" unicode="&#xaa;" horiz-adv-x="548" 
d="M463 743v-427h-50l-9 81c-33 -60 -93 -90 -155 -90c-100 0 -194 87 -194 222c0 137 94 224 194 224c62 0 122 -30 155 -91l9 81h50zM260 695c-80 0 -143 -67 -143 -166c0 -97 63 -163 143 -163s142 67 142 164s-62 165 -142 165z" />
    <glyph glyph-name="ampersand" unicode="&#x26;" horiz-adv-x="745" 
d="M707 0h-86l-106 109c-59 -78 -127 -122 -221 -122c-131 0 -225 85 -225 205c0 107 73 162 165 207c-65 68 -106 124 -106 190c0 95 84 168 192 168c116 0 190 -82 190 -173c0 -100 -85 -156 -176 -200l174 -179l120 188h74l-151 -232zM320 695c-77 0 -125 -50 -125 -110
c0 -44 27 -84 98 -158c84 40 151 80 151 153c0 60 -43 115 -124 115zM295 51c66 0 127 31 178 101l-198 204c-78 -39 -138 -79 -138 -159c0 -86 65 -146 158 -146z" />
    <glyph glyph-name="period" unicode="." horiz-adv-x="244" 
d="M122 -4c-30 0 -52 22 -52 52c0 31 22 53 52 53s52 -22 52 -53c0 -30 -22 -52 -52 -52z" />
    <glyph glyph-name="comma" unicode="," horiz-adv-x="233" 
d="M42 -133c19 59 43 141 43 222v41h67v-40c0 -71 -34 -166 -57 -223h-53z" />
    <glyph glyph-name="colon" unicode=":" horiz-adv-x="260" 
d="M130 338c-30 0 -52 22 -52 52c0 31 22 53 52 53s52 -22 52 -53c0 -30 -22 -52 -52 -52zM130 -4c-30 0 -52 22 -52 52c0 31 22 53 52 53s52 -22 52 -53c0 -30 -22 -52 -52 -52z" />
    <glyph glyph-name="semicolon" unicode=";" horiz-adv-x="262" 
d="M130 338c-30 0 -52 22 -52 52c0 31 22 53 52 53s52 -22 52 -53c0 -30 -22 -52 -52 -52zM65 -133c19 59 43 141 43 222v41h67v-40c0 -71 -34 -166 -57 -223h-53z" />
    <glyph glyph-name="ellipsis" unicode="&#x2026;" horiz-adv-x="761" 
d="M122 -4c-30 0 -52 22 -52 52c0 31 22 53 52 53s52 -22 52 -53c0 -30 -22 -52 -52 -52zM380 -4c-30 0 -52 22 -52 52c0 31 22 53 52 53s52 -22 52 -53c0 -30 -22 -52 -52 -52zM639 -4c-30 0 -52 22 -52 52c0 31 22 53 52 53s52 -22 52 -53c0 -30 -22 -52 -52 -52z" />
    <glyph glyph-name="exclam" unicode="!" horiz-adv-x="249" 
d="M97 221l-10 522h74l-10 -522h-54zM125 -4c-30 0 -52 22 -52 52c0 31 22 53 52 53c31 0 53 -22 53 -53c0 -30 -22 -52 -53 -52z" />
    <glyph glyph-name="exclamdown" unicode="&#xa1;" horiz-adv-x="249" 
d="M178 691c0 -31 -22 -53 -53 -53c-30 0 -52 22 -52 53c0 30 22 52 52 52c31 0 53 -22 53 -52zM97 518h54l10 -522h-74z" />
    <glyph glyph-name="question" unicode="?" horiz-adv-x="506" 
d="M235 757c119 0 211 -85 211 -208c0 -95 -69 -169 -185 -298h-79c122 139 193 204 193 292s-62 146 -146 146c-67 0 -135 -42 -176 -93v84c38 41 106 77 182 77zM228 101c30 0 53 -22 53 -53c0 -30 -23 -52 -53 -52s-52 22 -52 52c0 31 22 53 52 53z" />
    <glyph glyph-name="questiondown" unicode="&#xbf;" horiz-adv-x="506" 
d="M278 642c-30 0 -53 22 -53 53c0 30 23 52 53 52s52 -22 52 -52c0 -31 -22 -53 -52 -53zM271 -14c-119 0 -211 85 -211 208c0 95 69 169 185 298h79c-122 -139 -193 -204 -193 -292s62 -146 146 -146c67 0 135 42 176 93v-84c-38 -41 -106 -77 -182 -77z" />
    <glyph glyph-name="quotesingle" unicode="'" horiz-adv-x="218" 
d="M86 488l-15 255h73l-11 -255h-47z" />
    <glyph glyph-name="quotedbl" unicode="&#x22;" horiz-adv-x="377" 
d="M86 488l-15 255h73l-11 -255h-47zM246 488l-15 255h73l-11 -255h-47z" />
    <glyph glyph-name="quoteleft" unicode="&#x2018;" horiz-adv-x="234" 
d="M181 743c-19 -59 -43 -141 -43 -222v-41h-67v40c0 71 34 166 57 223h53z" />
    <glyph glyph-name="quoteright" unicode="&#x2019;" horiz-adv-x="234" 
d="M64 480c19 59 43 141 43 222v41h67v-40c0 -71 -34 -166 -57 -223h-53z" />
    <glyph glyph-name="quotedblleft" unicode="&#x201c;" horiz-adv-x="395" 
d="M181 743c-19 -59 -43 -141 -43 -222v-41h-67v40c0 71 34 166 57 223h53zM342 743c-19 -59 -43 -141 -43 -222v-41h-67v40c0 71 34 166 57 223h53z" />
    <glyph glyph-name="quotedblright" unicode="&#x201d;" horiz-adv-x="393" 
d="M64 480c19 59 43 141 43 222v41h67v-40c0 -71 -34 -166 -57 -223h-53zM223 480c19 59 43 141 43 222v41h67v-40c0 -71 -34 -166 -57 -223h-53z" />
    <glyph glyph-name="quotesinglbase" unicode="&#x201a;" horiz-adv-x="233" 
d="M42 -133c19 59 43 141 43 222v41h67v-40c0 -71 -34 -166 -57 -223h-53z" />
    <glyph glyph-name="quotedblbase" unicode="&#x201e;" horiz-adv-x="401" 
d="M42 -134c19 59 43 141 43 222v41h67v-40c0 -71 -34 -166 -57 -223h-53zM210 -134c19 59 43 141 43 222v41h67v-40c0 -71 -34 -166 -57 -223h-53z" />
    <glyph glyph-name="guilsinglleft" unicode="&#x2039;" horiz-adv-x="370" 
d="M302 501v-78l-190 -155l190 -155v-78l-251 207v52z" />
    <glyph glyph-name="guilsinglright" unicode="&#x203a;" horiz-adv-x="370" 
d="M68 35v78l190 155l-190 155v78l251 -207v-52z" />
    <glyph glyph-name="guillemotleft" unicode="&#xab;" horiz-adv-x="590" 
d="M302 501v-78l-190 -155l190 -155v-78l-251 207v52zM522 501v-78l-190 -155l190 -155v-78l-251 207v52z" />
    <glyph glyph-name="guillemotright" unicode="&#xbb;" horiz-adv-x="590" 
d="M68 35v78l190 155l-190 155v78l251 -207v-52zM288 35v78l190 155l-190 155v78l251 -207v-52z" />
    <glyph glyph-name="hyphen" unicode="-" horiz-adv-x="404" 
d="M78 287v65h248v-65h-248z" />
    <glyph glyph-name="uni00AD" unicode="&#xad;" horiz-adv-x="404" 
d="M78 287v65h248v-65h-248z" />
    <glyph glyph-name="endash" unicode="&#x2013;" horiz-adv-x="522" 
d="M78 287v65h366v-65h-366z" />
    <glyph glyph-name="emdash" unicode="&#x2014;" horiz-adv-x="818" 
d="M78 287v65h662v-65h-662z" />
    <glyph glyph-name="periodcentered" unicode="&#xb7;" horiz-adv-x="260" 
d="M130 320c-30 0 -52 22 -52 52c0 31 22 53 52 53s52 -22 52 -53c0 -30 -22 -52 -52 -52z" />
    <glyph glyph-name="bullet" unicode="&#x2022;" horiz-adv-x="454" 
d="M92 371c0 75 60 135 135 135s135 -60 135 -135s-60 -135 -135 -135s-135 60 -135 135z" />
    <glyph glyph-name="underscore" unicode="_" horiz-adv-x="527" 
d="M0 -168v59h527v-59h-527z" />
    <glyph glyph-name="slash" unicode="/" horiz-adv-x="476" 
d="M37 -133l334 1008h68l-334 -1008h-68z" />
    <glyph glyph-name="backslash" unicode="\" horiz-adv-x="476" 
d="M439 -133h-68l-334 1008h68z" />
    <glyph glyph-name="fraction" unicode="&#x2044;" horiz-adv-x="171" 
d="M-190 0l489 743h66l-489 -743h-66z" />
    <glyph glyph-name="bar" unicode="|" horiz-adv-x="237" 
d="M85 -183v1108h67v-1108h-67z" />
    <glyph glyph-name="brokenbar" unicode="&#xa6;" horiz-adv-x="249" 
d="M92 493v432h66v-432h-66zM158 249v-432h-66v432h66z" />
    <glyph glyph-name="parenleft" unicode="(" horiz-adv-x="330" 
d="M317 743c-116 -110 -194 -262 -194 -436c0 -175 79 -325 194 -437h-83c-104 112 -177 260 -177 437s73 325 177 436h83z" />
    <glyph glyph-name="parenright" unicode=")" horiz-adv-x="330" 
d="M13 743h83c104 -111 177 -259 177 -436s-73 -325 -177 -437h-83c115 112 194 262 194 437c0 174 -78 326 -194 436z" />
    <glyph glyph-name="bracketleft" unicode="[" horiz-adv-x="310" 
d="M84 -210v1008h193v-63h-127v-882h127v-63h-193z" />
    <glyph glyph-name="bracketright" unicode="]" horiz-adv-x="310" 
d="M226 -210h-193v63h127v882h-127v63h193v-1008z" />
    <glyph glyph-name="braceleft" unicode="{" horiz-adv-x="343" 
d="M305 770v-64c-73 8 -103 -26 -103 -80v-201c0 -64 -19 -126 -84 -146v-2c65 -19 84 -81 84 -145v-200c0 -54 31 -88 104 -80v-63c-103 -11 -169 45 -169 134v214c0 48 -17 99 -105 111v60c88 13 105 64 105 112v216c0 89 65 144 168 134z" />
    <glyph glyph-name="braceright" unicode="}" horiz-adv-x="343" 
d="M206 636v-216c0 -48 17 -99 105 -112v-60c-88 -12 -105 -63 -105 -111v-214c0 -89 -66 -145 -169 -134v63c73 -8 104 26 104 80v200c0 64 19 126 84 145v2c-65 20 -84 82 -84 146v201c0 54 -30 88 -103 80v64c103 10 168 -45 168 -134z" />
    <glyph glyph-name="asterisk" unicode="*" horiz-adv-x="578" 
d="M321 798l-12 -182l182 67l25 -66l-192 -43l124 -143l-54 -40l-105 156h-1l-104 -156l-57 40l124 143l-187 43l21 65l179 -66l-12 182h69z" />
    <glyph glyph-name="dagger" unicode="&#x2020;" horiz-adv-x="495" 
d="M215 -210v681h-178v64h178v208h65v-208h178v-64h-178v-681h-65z" />
    <glyph glyph-name="daggerdbl" unicode="&#x2021;" horiz-adv-x="560" 
d="M313 743v-208h178v-64h-178v-407h178v-64h-178v-210h-66v210h-178v64h178v407h-178v64h178v208h66z" />
    <glyph glyph-name="section" unicode="&#xa7;" horiz-adv-x="523" 
d="M362 134c46 -30 84 -72 84 -138c0 -98 -81 -181 -204 -181c-74 0 -135 29 -172 61v81c40 -49 110 -79 169 -79c76 0 138 46 138 115c0 67 -58 93 -147 132c-66 29 -157 70 -157 173c0 68 40 126 109 152c-48 28 -92 70 -92 141c0 92 75 166 196 166c53 0 106 -15 144 -38
v-76c-45 35 -94 51 -146 51c-82 0 -126 -47 -126 -100c0 -59 46 -85 110 -113c75 -33 193 -73 193 -191c0 -70 -42 -127 -99 -156zM140 301c0 -59 47 -86 111 -113c15 -7 31 -13 48 -21c52 14 96 55 96 119c0 63 -51 89 -130 124c-85 -2 -125 -58 -125 -109z" />
    <glyph glyph-name="paragraph" unicode="&#xb6;" horiz-adv-x="618" 
d="M327 -210v457h-29c-144 0 -261 90 -261 247c0 158 117 249 273 249h216v-953h-66v889h-67v-889h-66z" />
    <glyph glyph-name="copyright" unicode="&#xa9;" horiz-adv-x="901" 
d="M450 757c217 0 389 -176 389 -386c0 -209 -172 -385 -389 -385s-387 176 -387 385c0 210 170 386 387 386zM123 371c0 -177 143 -326 327 -326s329 149 329 326s-145 329 -329 329s-327 -152 -327 -329zM571 182c-26 -16 -60 -25 -108 -25c-106 0 -207 85 -207 215
c0 129 101 215 207 215c48 0 83 -10 108 -24v-64c-31 20 -59 31 -101 31c-76 0 -152 -63 -152 -158c0 -94 76 -158 152 -158c42 0 70 10 101 31v-63z" />
    <glyph glyph-name="registered" unicode="&#xae;" horiz-adv-x="901" 
d="M450 757c217 0 389 -176 389 -386c0 -209 -172 -385 -389 -385s-387 176 -387 385c0 210 170 386 387 386zM450 45c184 0 329 149 329 326s-145 329 -329 329s-327 -152 -327 -329s143 -326 327 -326zM590 461c0 -77 -68 -118 -133 -123l157 -172h-71l-149 169h-7v-169
h-54v421h102c104 0 155 -56 155 -126zM387 382h37c70 0 110 27 110 79c0 53 -42 75 -112 75h-35v-154z" />
    <glyph glyph-name="trademark" unicode="&#x2122;" horiz-adv-x="951" 
d="M355 743v-58h-124v-370h-59v370h-125v58h308zM810 743l67 -428h-58l-52 340h-2l-112 -340h-49l-113 337h-2l-52 -337h-56l67 428h69l112 -338h1l111 338h69z" />
    <glyph glyph-name="at" unicode="@" horiz-adv-x="992" 
d="M638 43h-24l5 80c-42 -58 -92 -90 -156 -90c-93 0 -188 67 -188 204c0 142 100 266 229 266c69 0 126 -35 154 -104l26 95h47l-61 -398c95 22 191 122 191 279c0 175 -148 274 -323 274c-198 0 -407 -141 -407 -407c0 -257 199 -349 394 -349c50 0 108 6 171 27l-10 -66
c-55 -16 -109 -24 -167 -24c-228 0 -457 118 -457 404c0 301 236 478 481 478c201 0 383 -122 383 -331c0 -191 -135 -338 -288 -338zM474 96c95 0 161 86 161 194c0 92 -50 150 -125 150c-93 0 -167 -88 -167 -199c0 -103 65 -145 131 -145z" />
    <glyph glyph-name="numbersign" unicode="#" horiz-adv-x="683" 
d="M629 456h-124l-27 -170h121v-57h-130l-37 -229h-64l37 229h-173l-37 -229h-64l37 229h-115v57h124l27 170h-120v57h129l37 230h64l-37 -230h173l37 230h64l-37 -230h115v-57zM414 286l27 170h-173l-27 -170h173z" />
    <glyph glyph-name="zero" unicode="0" horiz-adv-x="672" 
d="M335 757c149 0 270 -144 270 -386s-121 -385 -270 -385c-148 0 -268 143 -268 385s120 386 268 386zM335 692c-110 0 -198 -118 -198 -321c0 -204 88 -320 198 -320s200 117 200 320s-90 321 -200 321z" />
    <glyph glyph-name="one" unicode="1" horiz-adv-x="448" 
d="M231 0v647l-191 -83v74l251 107h8v-745h-68z" />
    <glyph glyph-name="two" unicode="2" horiz-adv-x="574" 
d="M41 0c335 370 382 445 382 537c0 77 -53 155 -154 155c-85 0 -152 -45 -194 -92v84c41 40 114 73 195 73c143 0 221 -101 221 -219c0 -121 -105 -248 -308 -471h334v-67h-476z" />
    <glyph glyph-name="three" unicode="3" horiz-adv-x="567" 
d="M85 690c40 40 103 67 174 67c133 0 216 -93 216 -195c0 -78 -41 -144 -113 -173v-2c73 -25 139 -86 139 -189c0 -109 -83 -210 -238 -210c-85 0 -149 27 -200 74v85c47 -56 115 -93 198 -93c107 0 172 64 172 148c0 87 -70 147 -182 147h-93v64h70c119 0 179 58 179 141
c0 75 -55 137 -150 137c-71 0 -136 -35 -172 -83v82z" />
    <glyph glyph-name="four" unicode="4" horiz-adv-x="644" 
d="M600 247v-64h-131v-183h-65v183h-367v43l378 517h54v-496h131zM127 247h277v380l-277 -378v-2z" />
    <glyph glyph-name="five" unicode="5" horiz-adv-x="564" 
d="M474 743v-65h-255l-46 -237c21 7 55 16 88 16c157 0 245 -116 245 -231c0 -117 -77 -240 -257 -240c-74 0 -142 27 -194 72v88c49 -62 128 -93 197 -93c112 0 185 70 185 168c0 100 -72 173 -191 173c-58 0 -99 -18 -139 -37l-8 7l70 379h305z" />
    <glyph glyph-name="six" unicode="6" horiz-adv-x="598" 
d="M304 469c119 0 246 -92 246 -236c0 -138 -102 -247 -247 -247c-147 0 -250 110 -250 245c0 80 36 145 102 225l229 287h82l-226 -282c20 5 40 8 64 8zM303 51c105 0 179 83 179 177c0 118 -98 180 -198 180c-35 0 -70 -8 -103 -23c-40 -53 -60 -96 -60 -155
c0 -94 76 -179 182 -179z" />
    <glyph glyph-name="seven" unicode="7" horiz-adv-x="536" 
d="M62 0l357 678h-365v65h474l-392 -743h-74z" />
    <glyph glyph-name="eight" unicode="8" horiz-adv-x="627" 
d="M425 382c88 -31 136 -105 136 -188c0 -119 -100 -208 -248 -208c-147 0 -246 90 -246 208c0 83 48 158 135 189v2c-63 28 -114 86 -114 171c0 105 87 201 225 201s225 -96 225 -201c0 -85 -50 -144 -113 -172v-2zM155 555c0 -84 68 -141 158 -141c91 0 158 57 158 141
c0 76 -66 138 -158 138s-158 -60 -158 -138zM313 349c-107 0 -177 -64 -177 -150c0 -80 67 -149 177 -149c112 0 180 69 180 149c0 86 -72 150 -180 150z" />
    <glyph glyph-name="nine" unicode="9" horiz-adv-x="589" 
d="M294 757c145 0 242 -106 242 -241c0 -70 -28 -137 -99 -222l-237 -294h-82l227 281c-14 -3 -39 -6 -54 -6c-111 0 -242 86 -242 237c0 132 100 245 245 245zM406 358c43 55 62 99 62 157c0 97 -69 177 -174 177s-177 -81 -177 -176c0 -105 82 -180 185 -180
c34 0 72 8 104 22z" />
    <glyph glyph-name="zero.osf" horiz-adv-x="677" 
d="M338 546c134 0 276 -101 276 -279c0 -175 -142 -279 -276 -279c-133 0 -275 101 -275 279s142 279 275 279zM338 479c-102 0 -204 -76 -204 -212s102 -212 204 -212c103 0 205 77 205 212c0 137 -102 212 -205 212z" />
    <glyph glyph-name="one.osf" horiz-adv-x="387" 
d="M194 0v449l-147 -62v74l207 87h8v-548h-68z" />
    <glyph glyph-name="two.osf" horiz-adv-x="586" 
d="M528 67v-67h-479c316 219 380 280 381 366c1 67 -58 116 -142 116c-86 0 -153 -45 -202 -105v86c50 50 123 84 211 84c123 0 203 -77 203 -174c0 -117 -120 -208 -261 -306h289z" />
    <glyph glyph-name="three.osf" horiz-adv-x="545" 
d="M79 480c39 41 100 67 170 67c131 0 209 -90 209 -195c0 -75 -40 -145 -107 -174v-2c72 -27 133 -88 133 -187c0 -112 -78 -210 -231 -210c-78 0 -146 26 -196 71v80c47 -48 114 -86 193 -86c105 0 166 67 166 147c0 84 -68 149 -177 149h-87v63h65c114 0 173 68 173 144
c0 73 -53 135 -145 135c-69 0 -131 -35 -166 -83v81z" />
    <glyph glyph-name="four.osf" horiz-adv-x="617" 
d="M575 64v-64h-121v-210h-66v210h-358v43l354 493h70v-472h121zM117 64h271v377l-271 -375v-2z" />
    <glyph glyph-name="five.osf" horiz-adv-x="553" 
d="M469 536v-65h-255l-46 -238c21 8 55 17 88 17c157 0 245 -115 245 -231c0 -117 -77 -240 -257 -240c-74 0 -142 27 -194 72v88c49 -62 128 -93 197 -93c112 0 185 70 185 168c0 100 -72 173 -191 173c-58 0 -99 -18 -139 -38l-8 7l70 380h305z" />
    <glyph glyph-name="six.osf" horiz-adv-x="598" 
d="M304 469c119 0 246 -92 246 -236c0 -138 -102 -247 -247 -247c-147 0 -250 110 -250 245c0 80 36 145 102 225l229 287h82l-226 -282c20 5 40 8 64 8zM303 51c105 0 179 83 179 177c0 118 -98 180 -198 180c-35 0 -70 -8 -103 -23c-40 -53 -60 -96 -60 -155
c0 -94 76 -179 182 -179z" />
    <glyph glyph-name="seven.osf" horiz-adv-x="527" 
d="M55 -210l359 681h-366v65h473l-392 -746h-74z" />
    <glyph glyph-name="eight.osf" horiz-adv-x="627" 
d="M425 382c88 -31 136 -105 136 -188c0 -119 -100 -208 -248 -208c-147 0 -246 90 -246 208c0 83 48 158 135 189v2c-63 28 -114 86 -114 171c0 105 87 201 225 201s225 -96 225 -201c0 -85 -50 -144 -113 -172v-2zM155 555c0 -84 68 -141 158 -141c91 0 158 57 158 141
c0 76 -66 138 -158 138s-158 -60 -158 -138zM313 349c-107 0 -177 -64 -177 -150c0 -80 67 -149 177 -149c112 0 180 69 180 149c0 86 -72 150 -180 150z" />
    <glyph glyph-name="nine.osf" horiz-adv-x="575" 
d="M289 547c145 0 242 -106 242 -241c0 -70 -28 -137 -99 -222l-238 -294h-82l229 282c-14 -4 -34 -7 -55 -7c-111 0 -242 86 -242 237c0 132 100 245 245 245zM402 148c42 55 62 99 62 157c0 97 -70 177 -175 177s-177 -81 -177 -176c0 -105 82 -180 185 -180
c34 0 72 8 105 22z" />
    <glyph glyph-name="zero.tf" 
d="M340 757c136 0 248 -145 248 -387c0 -243 -111 -384 -248 -384s-248 141 -248 384c0 242 111 387 248 387zM340 692c-100 0 -179 -118 -179 -322c0 -202 80 -319 179 -319c97 0 180 117 180 318c0 204 -83 323 -180 323z" />
    <glyph glyph-name="one.tf" 
d="M558 65v-65h-393v65h167v582l-179 -78v75l238 101h9v-680h158z" />
    <glyph glyph-name="two.tf" 
d="M95 0c335 370 382 445 382 537c0 77 -53 155 -154 155c-85 0 -152 -45 -194 -92v84c41 40 114 73 195 73c143 0 221 -101 221 -219c0 -121 -105 -248 -308 -471h334v-67h-476z" />
    <glyph glyph-name="three.tf" 
d="M142 690c40 40 103 67 174 67c133 0 216 -93 216 -195c0 -78 -41 -144 -113 -173v-2c73 -25 139 -86 139 -189c0 -109 -83 -210 -238 -210c-85 0 -149 27 -200 74v85c47 -56 115 -93 198 -93c107 0 172 64 172 148c0 87 -70 147 -182 147h-93v64h70c119 0 179 58 179 141
c0 75 -55 137 -150 137c-71 0 -136 -35 -172 -83v82z" />
    <glyph glyph-name="four.tf" 
d="M619 247v-64h-131v-183h-65v183h-367v43l378 517h54v-496h131zM146 247h277v380l-277 -378v-2z" />
    <glyph glyph-name="five.tf" 
d="M532 743v-65h-255l-46 -237c21 7 55 16 88 16c157 0 245 -116 245 -231c0 -117 -77 -240 -257 -240c-74 0 -142 27 -194 72v88c49 -62 128 -93 197 -93c112 0 185 70 185 168c0 100 -72 173 -191 173c-58 0 -99 -18 -139 -37l-8 7l70 379h305z" />
    <glyph glyph-name="six.tf" 
d="M344 469c119 0 246 -92 246 -236c0 -138 -102 -247 -247 -247c-147 0 -250 110 -250 245c0 80 36 145 102 225l229 287h82l-226 -282c20 5 40 8 64 8zM343 51c105 0 179 83 179 177c0 118 -98 180 -198 180c-35 0 -70 -8 -103 -23c-40 -53 -60 -96 -60 -155
c0 -94 76 -179 182 -179z" />
    <glyph glyph-name="seven.tf" 
d="M134 0l357 678h-365v65h474l-392 -743h-74z" />
    <glyph glyph-name="eight.tf" 
d="M451 382c88 -31 136 -105 136 -188c0 -119 -100 -208 -248 -208c-147 0 -246 90 -246 208c0 83 48 158 135 189v2c-63 28 -114 86 -114 171c0 105 87 201 225 201s225 -96 225 -201c0 -85 -50 -144 -113 -172v-2zM339 693c-92 0 -158 -60 -158 -138
c0 -84 68 -141 158 -141c91 0 158 57 158 141c0 76 -66 138 -158 138zM519 199c0 86 -72 150 -180 150c-107 0 -177 -64 -177 -150c0 -80 67 -149 177 -149c112 0 180 69 180 149z" />
    <glyph glyph-name="nine.tf" 
d="M340 757c145 0 242 -106 242 -241c0 -70 -28 -137 -99 -222l-237 -294h-82l227 281c-14 -3 -39 -6 -54 -6c-111 0 -242 86 -242 237c0 132 100 245 245 245zM452 358c43 55 62 99 62 157c0 97 -69 177 -174 177s-177 -81 -177 -176c0 -105 82 -180 185 -180
c34 0 72 8 104 22z" />
    <glyph glyph-name="zero.dnom" horiz-adv-x="460" 
d="M230 426c99 0 180 -80 180 -220s-81 -220 -180 -220s-181 80 -181 220s82 220 181 220zM230 370c-66 0 -120 -56 -120 -164s54 -164 120 -164s120 56 120 164s-54 164 -120 164z" />
    <glyph glyph-name="one.dnom" horiz-adv-x="292" 
d="M141 0v354l-106 -47v60l154 68h10v-435h-58z" />
    <glyph glyph-name="two.dnom" horiz-adv-x="370" 
d="M322 56v-56h-291c194 213 219 251 219 306c0 35 -26 73 -83 73c-43 0 -82 -23 -106 -51v66c27 24 71 41 114 41c78 0 137 -48 137 -127c0 -70 -49 -128 -164 -252h174z" />
    <glyph glyph-name="three.dnom" horiz-adv-x="368" 
d="M62 387c26 22 66 39 112 39c78 0 130 -50 130 -113c0 -48 -28 -79 -65 -97v-1c45 -17 81 -50 81 -105c0 -65 -53 -124 -146 -124c-51 0 -95 19 -125 44v69c27 -33 71 -58 125 -58c49 0 86 26 86 70c0 49 -43 73 -113 73h-52v53h52c70 0 97 36 97 70s-28 63 -74 64
c-43 1 -81 -18 -108 -47v63z" />
    <glyph glyph-name="four.dnom" horiz-adv-x="407" 
d="M367 155v-53h-64v-102h-55v102h-216v38l222 290h49v-275h64zM102 155h146v188z" />
    <glyph glyph-name="five.dnom" horiz-adv-x="388" 
d="M322 421v-54h-171l-23 -116c13 3 33 6 61 6c103 0 155 -62 155 -131c0 -70 -54 -140 -168 -140c-55 0 -101 17 -134 41v63c32 -30 79 -49 134 -49c64 0 108 35 108 84s-43 84 -108 84c-45 0 -78 -8 -102 -18l-5 4l44 226h209z" />
    <glyph glyph-name="six.dnom" horiz-adv-x="412" 
d="M214 273c93 0 161 -60 161 -141c0 -80 -68 -146 -167 -146s-168 66 -168 147c0 45 24 86 67 132l144 156h71l-140 -151c9 2 21 3 32 3zM208 41c64 0 107 43 107 91c0 60 -55 93 -107 93c-31 0 -54 -4 -71 -10c-27 -27 -37 -53 -37 -83c0 -48 44 -91 108 -91z" />
    <glyph glyph-name="seven.dnom" horiz-adv-x="379" 
d="M46 0l228 376h-231v54h321l-254 -430h-64z" />
    <glyph glyph-name="eight.dnom" horiz-adv-x="426" 
d="M295 213c50 -20 82 -59 82 -106c0 -69 -69 -121 -164 -121s-165 52 -165 121c0 46 32 85 81 106c-41 20 -67 56 -67 98c0 66 63 115 148 115c89 0 154 -49 154 -115c0 -42 -26 -78 -69 -98zM210 377c-51 0 -90 -30 -90 -72c0 -41 39 -71 90 -71c55 0 96 30 96 71
c0 42 -41 72 -96 72zM213 35c60 0 104 32 104 75c0 44 -44 76 -104 76s-105 -32 -105 -76c0 -43 45 -75 105 -75z" />
    <glyph glyph-name="nine.dnom" horiz-adv-x="407" 
d="M203 435c95 0 165 -62 165 -147c0 -46 -23 -82 -66 -129l-147 -159h-71l137 150c-7 0 -15 -1 -23 -1c-90 0 -160 59 -160 140c0 84 70 146 165 146zM272 209c23 27 36 53 36 79c0 54 -45 92 -105 92s-104 -38 -104 -92c0 -53 43 -91 104 -91c22 0 51 5 69 12z" />
    <glyph glyph-name="zero.numr" horiz-adv-x="460" 
d="M230 748c99 0 180 -80 180 -220s-81 -220 -180 -220s-181 80 -181 220s82 220 181 220zM230 692c-66 0 -120 -56 -120 -164s54 -164 120 -164s120 56 120 164s-54 164 -120 164z" />
    <glyph glyph-name="one.numr" horiz-adv-x="290" 
d="M140 313v354l-106 -47v60l154 68h10v-435h-58z" />
    <glyph glyph-name="two.numr" horiz-adv-x="368" 
d="M320 369v-56h-291c194 213 219 251 219 306c0 35 -26 73 -83 73c-43 0 -82 -23 -106 -51v66c27 24 71 41 114 41c78 0 137 -48 137 -127c0 -70 -49 -128 -164 -252h174z" />
    <glyph glyph-name="three.numr" horiz-adv-x="367" 
d="M61 709c26 22 66 39 112 39c78 0 130 -50 130 -113c0 -48 -28 -79 -65 -97v-1c45 -17 81 -50 81 -105c0 -65 -53 -124 -146 -124c-51 0 -95 19 -125 44v69c27 -33 71 -58 125 -58c49 0 86 26 86 70c0 49 -43 73 -113 73h-52v53h52c70 0 97 36 97 70s-28 63 -74 64
c-43 1 -81 -18 -108 -47v63z" />
    <glyph glyph-name="four.numr" horiz-adv-x="407" 
d="M367 468v-53h-64v-102h-55v102h-216v38l222 290h49v-275h64zM102 468h146v188z" />
    <glyph glyph-name="five.numr" horiz-adv-x="388" 
d="M322 743v-54h-171l-23 -116c13 3 33 6 61 6c103 0 155 -62 155 -131c0 -70 -54 -140 -168 -140c-55 0 -101 17 -134 41v63c32 -30 79 -49 134 -49c64 0 108 35 108 84s-43 84 -108 84c-45 0 -78 -8 -102 -18l-5 4l44 226h209z" />
    <glyph glyph-name="six.numr" horiz-adv-x="413" 
d="M215 595c93 0 161 -60 161 -141c0 -80 -68 -146 -167 -146s-168 66 -168 147c0 45 24 86 67 132l144 156h71l-140 -151c9 2 21 3 32 3zM209 363c64 0 107 43 107 91c0 60 -55 93 -107 93c-31 0 -54 -4 -71 -10c-27 -27 -37 -53 -37 -83c0 -48 44 -91 108 -91z" />
    <glyph glyph-name="seven.numr" horiz-adv-x="375" 
d="M45 313l228 376h-231v54h321l-254 -430h-64z" />
    <glyph glyph-name="eight.numr" horiz-adv-x="426" 
d="M295 535c50 -20 82 -59 82 -106c0 -69 -69 -121 -164 -121s-165 52 -165 121c0 46 32 85 81 106c-41 20 -67 56 -67 98c0 66 63 115 148 115c89 0 154 -49 154 -115c0 -42 -26 -78 -69 -98zM210 699c-51 0 -90 -30 -90 -72c0 -41 39 -71 90 -71c55 0 96 30 96 71
c0 42 -41 72 -96 72zM213 357c60 0 104 32 104 75c0 44 -44 76 -104 76s-105 -32 -105 -76c0 -43 45 -75 105 -75z" />
    <glyph glyph-name="nine.numr" horiz-adv-x="408" 
d="M203 748c95 0 165 -62 165 -147c0 -46 -23 -82 -66 -129l-147 -159h-71l137 150c-7 0 -15 -1 -23 -1c-90 0 -160 59 -160 140c0 84 70 146 165 146zM272 522c23 27 36 53 36 79c0 54 -45 92 -105 92s-104 -38 -104 -92c0 -53 43 -91 104 -91c22 0 51 5 69 12z" />
    <glyph glyph-name="uni00B9" unicode="&#xb9;" horiz-adv-x="290" 
d="M140 313v354l-106 -47v60l154 68h10v-435h-58z" />
    <glyph glyph-name="uni00B2" unicode="&#xb2;" horiz-adv-x="368" 
d="M320 369v-56h-291c194 213 219 251 219 306c0 35 -26 73 -83 73c-43 0 -82 -23 -106 -51v66c27 24 71 41 114 41c78 0 137 -48 137 -127c0 -70 -49 -128 -164 -252h174z" />
    <glyph glyph-name="uni00B3" unicode="&#xb3;" horiz-adv-x="367" 
d="M61 709c26 22 66 39 112 39c78 0 130 -50 130 -113c0 -48 -28 -79 -65 -97v-1c45 -17 81 -50 81 -105c0 -65 -53 -124 -146 -124c-51 0 -95 19 -125 44v69c27 -33 71 -58 125 -58c49 0 86 26 86 70c0 49 -43 73 -113 73h-52v53h52c70 0 97 36 97 70s-28 63 -74 64
c-43 1 -81 -18 -108 -47v63z" />
    <glyph glyph-name="onequarter" unicode="&#xbc;" horiz-adv-x="839" 
d="M149 313v354l-106 -47v60l154 68h10v-435h-58zM618 743h66l-489 -743h-66zM794 155v-53h-64v-102h-55v102h-216v38l222 290h49v-275h64zM529 155h146v188z" />
    <glyph glyph-name="onehalf" unicode="&#xbd;" horiz-adv-x="885" 
d="M149 313v354l-106 -47v60l154 68h10v-435h-58zM129 0l489 743h66l-489 -743h-66zM833 56v-56h-291c194 213 219 251 219 306c0 35 -26 73 -83 73c-43 0 -82 -23 -106 -51v66c27 24 71 41 114 41c78 0 137 -48 137 -127c0 -70 -49 -128 -164 -252h174z" />
    <glyph glyph-name="threequarters" unicode="&#xbe;" horiz-adv-x="912" 
d="M329 432c0 -65 -53 -124 -146 -124c-51 0 -95 19 -125 44v69c27 -33 71 -58 125 -58c49 0 86 26 86 70c0 49 -43 73 -113 73h-52v53h52c70 0 97 36 97 70s-28 63 -74 64c-43 1 -81 -18 -108 -47v63c26 22 66 39 112 39c78 0 130 -50 130 -113c0 -48 -28 -79 -65 -97v-1
c45 -17 81 -50 81 -105zM692 743h66l-489 -743h-66zM868 155v-53h-64v-102h-55v102h-216v38l222 290h49v-275h64zM603 155h146v188z" />
    <glyph glyph-name="dollar" unicode="$" horiz-adv-x="547" 
d="M498 210c0 -90 -75 -177 -191 -195v-87h-64v84c-78 4 -134 31 -178 62v88c47 -54 125 -83 195 -83c92 0 167 55 167 136c0 79 -77 105 -159 135c-96 34 -200 71 -200 196c0 90 68 164 175 180v88h64v-86c57 -3 109 -21 146 -42v-78c-33 25 -97 53 -166 53
c-93 0 -150 -52 -150 -117c0 -77 75 -103 157 -131c97 -34 204 -72 204 -203z" />
    <glyph glyph-name="cent" unicode="&#xa2;" horiz-adv-x="544" 
d="M322 483c-95 0 -192 -76 -192 -203c0 -128 97 -203 196 -203c43 0 97 10 142 43v-71c-32 -18 -73 -31 -122 -34v-92h-57v93c-132 16 -227 124 -227 264s96 248 229 263v103h57v-102c46 -3 89 -15 120 -35v-72c-45 33 -95 46 -146 46z" />
    <glyph glyph-name="sterling" unicode="&#xa3;" horiz-adv-x="564" 
d="M140 66h356v-66h-458c44 65 92 158 116 313l1 8h-87v61h97l22 141c24 160 95 234 213 234c39 0 74 -11 94 -21v-71c-25 16 -61 28 -93 28c-75 0 -129 -40 -150 -178l-20 -133h181v-61h-191l-2 -15c-15 -99 -35 -162 -79 -240z" />
    <glyph glyph-name="currency" unicode="&#xa4;" horiz-adv-x="648" 
d="M523 616l45 -45l-73 -73c25 -35 40 -78 40 -125c0 -48 -16 -92 -41 -127l74 -75l-44 -44l-74 75c-35 -26 -79 -41 -126 -41c-48 0 -90 15 -126 41l-74 -75l-44 44l75 75c-27 35 -43 79 -43 127c0 47 15 91 41 126l-73 72l45 45l73 -74c35 27 78 42 126 42s92 -16 126 -42
zM324 220c85 0 152 68 152 153c0 84 -67 152 -152 152c-86 0 -152 -68 -152 -152c0 -85 66 -153 152 -153z" />
    <glyph glyph-name="yen" unicode="&#xa5;" horiz-adv-x="676" 
d="M642 743l-254 -373h170v-60h-186v-75h186v-60h-186v-175h-66v175h-186v60h186v75h-186v60h169l-256 373h77l228 -333h1l226 333h77z" />
    <glyph glyph-name="Euro" unicode="&#x20ac;" horiz-adv-x="660" 
d="M472 691c-133 0 -231 -89 -265 -218h285v-60h-296c-1 -14 -2 -28 -2 -42c0 -12 0 -24 1 -36h297v-60h-287c31 -135 131 -223 267 -223c44 0 83 11 119 30v-71c-33 -17 -76 -25 -126 -25c-166 0 -291 123 -326 289h-86v60h77c-1 12 -1 24 -1 36c0 14 1 28 2 42h-78v60h87
c37 162 161 284 325 284c50 0 93 -8 126 -24v-72c-36 19 -75 30 -119 30z" />
    <glyph glyph-name="florin" unicode="&#x192;" horiz-adv-x="434" 
d="M371 739c-96 0 -116 -63 -126 -125l-12 -78h147v-61h-156l-75 -495c-19 -122 -62 -201 -189 -201c-14 0 -28 1 -43 3v61c14 -2 25 -3 36 -3c88 0 120 68 130 137l74 498h-82v61h91l12 83c18 121 72 184 190 184c12 0 33 -2 43 -6v-62c-7 2 -29 4 -40 4z" />
    <glyph glyph-name="uni20B9" unicode="&#x20b9;" horiz-adv-x="644" 
d="M588 743v-59h-184c39 -33 64 -77 70 -128h114v-59h-114c-14 -112 -111 -180 -266 -181l299 -316h-93l-351 375h146c119 0 182 50 195 122h-337v59h338c-12 77 -74 123 -186 123h-152v64h521z" />
    <glyph glyph-name="uni20BD" unicode="&#x20bd;" horiz-adv-x="651" 
d="M338 275h-109v-92h148v-59h-148v-124h-69v124h-98v59h98v92h-98v62h98v406h178c163 0 269 -89 269 -234c0 -144 -106 -234 -269 -234zM229 678v-341h105c126 0 204 63 204 171s-78 170 -204 170h-105z" />
    <glyph glyph-name="uni20BA" unicode="&#x20ba;" horiz-adv-x="654" 
d="M609 348c14 -210 -113 -348 -310 -348h-135v235l-98 -57v70l98 57v82l-98 -56v69l98 57v286h69v-246l187 108v-70l-187 -108v-82l187 108v-70l-187 -108v-210h40c168 0 273 98 265 283h71z" />
    <glyph glyph-name="percent" unicode="%" horiz-adv-x="857" 
d="M222 386c-102 0 -178 78 -178 186c0 106 76 185 178 185c101 0 175 -79 175 -185c0 -107 -74 -186 -175 -186zM148 0l490 743h71l-489 -743h-72zM222 440c60 0 118 49 118 132s-58 131 -118 131c-61 0 -120 -48 -120 -131s59 -132 120 -132zM637 -14
c-101 0 -177 78 -177 186c0 107 76 186 177 186s176 -79 176 -186s-75 -186 -176 -186zM637 40c60 0 119 49 119 132s-59 131 -119 131s-119 -48 -119 -131s59 -132 119 -132z" />
    <glyph glyph-name="perthousand" unicode="&#x2030;" horiz-adv-x="1262" 
d="M397 572c0 -107 -74 -186 -175 -186c-102 0 -178 78 -178 186c0 106 76 185 178 185c101 0 175 -79 175 -185zM148 0l490 743h71l-489 -743h-72zM340 572c0 83 -58 131 -118 131c-61 0 -120 -48 -120 -131s59 -132 120 -132c60 0 118 49 118 132zM813 172
c0 -107 -75 -186 -176 -186s-177 78 -177 186c0 107 76 186 177 186s176 -79 176 -186zM1223 172c0 -107 -75 -186 -176 -186s-177 78 -177 186c0 107 76 186 177 186s176 -79 176 -186zM756 172c0 83 -59 131 -119 131s-119 -48 -119 -131s59 -132 119 -132s119 49 119 132
zM1166 172c0 83 -59 131 -119 131s-119 -48 -119 -131s59 -132 119 -132s119 49 119 132z" />
    <glyph glyph-name="plus" unicode="+" horiz-adv-x="678" 
d="M370 654v-251h251v-64h-251v-251h-66v251h-247v64h247v251h66z" />
    <glyph glyph-name="minus" unicode="&#x2212;" horiz-adv-x="685" 
d="M84 339v64h517v-64h-517z" />
    <glyph glyph-name="plusminus" unicode="&#xb1;" horiz-adv-x="720" 
d="M391 638v-227h250v-64h-250v-234h-66v234h-246v64h246v227h66zM641 64v-64h-562v64h562z" />
    <glyph glyph-name="divide" unicode="&#xf7;" horiz-adv-x="701" 
d="M349 494c-30 0 -52 23 -52 53s22 52 52 52c31 0 53 -22 53 -52s-22 -53 -53 -53zM83 339v64h534v-64h-534zM349 143c-30 0 -52 22 -52 52c0 31 22 53 52 53c31 0 53 -22 53 -53c0 -30 -22 -52 -53 -52z" />
    <glyph glyph-name="multiply" unicode="&#xd7;" horiz-adv-x="644" 
d="M565 571l-199 -199l199 -200l-44 -44l-199 200l-200 -200l-44 44l199 200l-199 199l45 44l199 -199l198 199z" />
    <glyph glyph-name="equal" unicode="=" horiz-adv-x="685" 
d="M84 421v64h517v-64h-517zM84 256v64h517v-64h-517z" />
    <glyph glyph-name="less" unicode="&#x3c;" horiz-adv-x="663" 
d="M570 551v72l-516 -217v-71l516 -215v71l-440 180z" />
    <glyph glyph-name="greater" unicode="&#x3e;" horiz-adv-x="663" 
d="M93 551l440 -180l-440 -180v-71l516 215v71l-516 217v-72z" />
    <glyph glyph-name="lessequal" unicode="&#x2264;" horiz-adv-x="662" 
d="M587 536v72l-516 -217v-71l516 -215v71l-440 180zM71 0v60h516v-60h-516z" />
    <glyph glyph-name="greaterequal" unicode="&#x2265;" horiz-adv-x="662" 
d="M75 536l440 -180l-440 -180v-71l516 215v71l-516 217v-72zM76 0v60h516v-60h-516z" />
    <glyph glyph-name="approxequal" unicode="&#x2248;" horiz-adv-x="719" 
d="M637 538c-6 -110 -79 -140 -138 -140c-94 0 -186 76 -262 76c-40 0 -81 -20 -87 -75h-61c6 110 79 140 137 140c95 0 185 -76 262 -76c40 0 82 21 88 75h61zM637 344c-6 -110 -79 -140 -138 -140c-94 0 -186 76 -262 76c-40 0 -81 -20 -87 -75h-61c6 110 79 140 137 140
c95 0 185 -76 262 -76c40 0 82 21 88 75h61z" />
    <glyph glyph-name="notequal" unicode="&#x2260;" horiz-adv-x="685" 
d="M601 421h-187l-76 -101h263v-64h-312l-127 -168h-68l128 168h-138v64h186l77 101h-263v64h312l128 169h67l-128 -169h138v-64z" />
    <glyph glyph-name="logicalnot" unicode="&#xac;" horiz-adv-x="735" 
d="M581 88v251h-497v64h564v-315h-67z" />
    <glyph glyph-name="partialdiff" unicode="&#x2202;" horiz-adv-x="642" 
d="M319 803c170 0 267 -141 267 -336c0 -34 -3 -78 -9 -126c-25 -195 -131 -349 -301 -349c-126 0 -222 86 -222 241c0 179 125 313 309 313c61 0 115 -14 154 -34c-9 137 -81 226 -205 226c-46 0 -93 -12 -125 -30v65c36 19 85 30 132 30zM283 56c114 0 201 103 226 283
c6 40 8 77 9 107c-37 20 -84 36 -144 36c-156 0 -252 -111 -252 -244c0 -115 69 -182 161 -182z" />
    <glyph glyph-name="product" unicode="&#x220f;" horiz-adv-x="697" 
d="M90 743h517v-953h-68v889h-381v-889h-68v953z" />
    <glyph glyph-name="summation" unicode="&#x2211;" horiz-adv-x="632" 
d="M573 743v-65h-412l259 -411l-259 -412h414v-65h-540l300 476l-300 477h538z" />
    <glyph glyph-name="radical" unicode="&#x221a;" horiz-adv-x="652" 
d="M155 269l-122 -46l-18 55l182 73l135 -393h1l234 967h67l-267 -1092h-56z" />
    <glyph glyph-name="infinity" unicode="&#x221e;" horiz-adv-x="713" 
d="M503 518c78 0 139 -65 139 -147c0 -80 -61 -143 -139 -143c-67 0 -110 46 -147 97c-37 -51 -80 -97 -147 -97c-78 0 -138 63 -138 143c0 82 60 147 138 147c67 0 110 -46 147 -97c37 51 80 97 147 97zM214 290c45 0 77 38 108 83c-31 45 -63 83 -108 83
c-44 0 -79 -38 -79 -85c0 -45 35 -81 79 -81zM498 290c45 0 79 36 79 81c0 47 -34 85 -79 85s-76 -38 -108 -83c32 -45 63 -83 108 -83z" />
    <glyph glyph-name="integral" unicode="&#x222b;" horiz-adv-x="480" 
d="M457 779v-65c-30 16 -53 24 -84 24c-63 0 -99 -43 -99 -99v-698c0 -112 -79 -162 -157 -162c-40 0 -72 12 -94 24v65c30 -16 53 -24 83 -24c64 0 100 43 100 99v698c0 112 79 162 156 162c41 0 73 -12 95 -24z" />
    <glyph glyph-name="asciicircum" unicode="^" horiz-adv-x="555" 
d="M502 255h-70l-154 391l-156 -391h-69l198 488h54z" />
    <glyph glyph-name="asciitilde" unicode="~" horiz-adv-x="720" 
d="M637 441c-6 -110 -79 -140 -138 -140c-94 0 -186 76 -262 76c-40 0 -81 -20 -87 -75h-61c6 110 79 140 137 140c95 0 185 -76 262 -76c40 0 82 21 88 75h61z" />
    <glyph glyph-name="degree" unicode="&#xb0;" horiz-adv-x="437" 
d="M219 430c-93 0 -164 72 -164 164s71 163 164 163s163 -71 163 -163s-70 -164 -163 -164zM219 705c-62 0 -110 -49 -110 -111s48 -111 110 -111s109 49 109 111s-47 111 -109 111z" />
    <glyph glyph-name="uni2206" unicode="&#x2206;" horiz-adv-x="671" 
d="M4 0l293 743h77l293 -743h-663zM102 65h466l-233 599z" />
    <glyph glyph-name="uni2126" unicode="&#x2126;" horiz-adv-x="858" 
d="M619 64h182v-64h-296v51c104 54 205 178 205 337c2 180 -117 304 -282 304c-166 0 -282 -124 -281 -304c0 -159 102 -283 206 -337v-51h-296v64h182c-88 63 -163 176 -164 328c-1 215 147 365 353 365s354 -150 354 -365c0 -152 -75 -265 -163 -328z" />
    <glyph glyph-name="pi" unicode="&#x3c0;" horiz-adv-x="695" 
d="M609 56c14 0 27 2 38 5v-60c-11 -4 -32 -6 -51 -6c-101 0 -148 59 -148 172v307h-231v-474h-68v474h-128v62h623v-62h-128v-301c0 -84 23 -117 93 -117z" />
    <glyph glyph-name="uni00B5" unicode="&#xb5;" horiz-adv-x="628" 
d="M566 55c8 0 16 1 21 2v-59c-7 -2 -20 -3 -32 -3c-56 0 -93 28 -104 82c-27 -48 -85 -86 -154 -86c-61 0 -116 28 -142 74l3 -275h-68v746h68v-331c0 -92 55 -147 143 -147c86 0 144 50 144 152v326h68v-421c0 -45 17 -60 53 -60z" />
    <glyph glyph-name="lozenge" unicode="&#x25ca;" horiz-adv-x="607" 
d="M562 371l-225 -385h-67l-226 385l225 386h67zM484 371l-180 309h-2l-179 -309l180 -308h1z" />
    <glyph glyph-name="arrowup" unicode="&#x2191;" horiz-adv-x="765" 
d="M719 423v-85l-303 289l1 -627h-68l1 627l-303 -289v85l336 320z" />
    <glyph glyph-name="uni2197" unicode="&#x2197;" horiz-adv-x="765" 
d="M86 145l455 454h-430l60 65h482v-481l-64 -60v428l-454 -455z" />
    <glyph glyph-name="arrowright" unicode="&#x2192;" horiz-adv-x="765" 
d="M423 37h-85l289 303l-627 -1v68l627 -1l-289 303h85l320 -336z" />
    <glyph glyph-name="uni2198" unicode="&#x2198;" horiz-adv-x="765" 
d="M86 600l49 49l454 -455v428l64 -60v-481h-482l-60 65h430z" />
    <glyph glyph-name="arrowdown" unicode="&#x2193;" horiz-adv-x="765" 
d="M719 320l-336 -320l-336 320v85l303 -289l-1 627h68l-1 -627l303 289v-85z" />
    <glyph glyph-name="uni2199" unicode="&#x2199;" horiz-adv-x="765" 
d="M679 600l-455 -454h430l-60 -65h-482v481l64 60v-428l454 455z" />
    <glyph glyph-name="arrowleft" unicode="&#x2190;" horiz-adv-x="765" 
d="M342 707h85l-289 -303l627 1v-68l-627 1l289 -303h-85l-320 336z" />
    <glyph glyph-name="uni2196" unicode="&#x2196;" horiz-adv-x="765" 
d="M679 145l-49 -49l-454 455v-428l-64 60v481h482l60 -65h-430z" />
    <glyph glyph-name="grave" unicode="`" horiz-adv-x="631" 
d="M279 788l117 -165h-61l-135 165h79z" />
    <glyph glyph-name="acute" unicode="&#xb4;" horiz-adv-x="631" 
d="M352 788h78l-135 -165h-61z" />
    <glyph glyph-name="circumflex" unicode="&#x2c6;" horiz-adv-x="631" 
d="M341 788l132 -165h-72l-86 114l-88 -114h-69l131 165h52z" />
    <glyph glyph-name="caron" unicode="&#x2c7;" horiz-adv-x="631" 
d="M473 788l-131 -165h-52l-132 165h71l87 -114l87 114h70z" />
    <glyph glyph-name="tilde" unicode="&#x2dc;" horiz-adv-x="631" 
d="M498 748c5 -81 -50 -111 -100 -111c-72 0 -93 61 -146 61c-37 0 -51 -32 -50 -58h-54c-4 81 50 111 101 111c72 0 93 -61 146 -61c37 0 51 31 50 58h53z" />
    <glyph glyph-name="dieresis" unicode="&#xa8;" horiz-adv-x="631" 
d="M217 649c-25 0 -46 20 -46 45s21 45 46 45c26 0 47 -20 47 -45s-21 -45 -47 -45zM413 649c-26 0 -46 20 -46 45s20 45 46 45s46 -20 46 -45s-20 -45 -46 -45z" />
    <glyph glyph-name="ring" unicode="&#x2da;" horiz-adv-x="631" 
d="M315 811c55 0 99 -41 99 -94s-44 -94 -99 -94s-100 41 -100 94s45 94 100 94zM315 769c-31 0 -54 -23 -54 -52s23 -52 54 -52s54 23 54 52s-23 52 -54 52z" />
    <glyph glyph-name="macron" unicode="&#xaf;" horiz-adv-x="631" 
d="M154 666v56h322v-56h-322z" />
    <glyph glyph-name="breve" unicode="&#x2d8;" horiz-adv-x="631" 
d="M469 784c2 -89 -73 -142 -153 -142s-155 53 -154 142h60c1 -47 35 -86 94 -86s93 39 94 86h59z" />
    <glyph glyph-name="dotaccent" unicode="&#x2d9;" horiz-adv-x="631" 
d="M315 649c-25 0 -46 20 -46 45s21 45 46 45c26 0 47 -20 47 -45s-21 -45 -47 -45z" />
    <glyph glyph-name="hungarumlaut" unicode="&#x2dd;" horiz-adv-x="631" 
d="M371 788l-168 -165h-65l150 165h83zM532 788l-168 -165h-64l149 165h83z" />
    <glyph glyph-name="cedilla" unicode="&#xb8;" horiz-adv-x="631" 
d="M226 -168c45 55 83 105 83 187h60c0 -83 -27 -138 -67 -187h-76z" />
    <glyph glyph-name="ogonek" unicode="&#x2db;" horiz-adv-x="631" 
d="M388 0c-65 -34 -104 -73 -104 -109c0 -39 31 -60 68 -60c12 0 31 3 36 6v-52c-4 -2 -23 -6 -41 -6c-62 0 -121 34 -121 100c0 56 38 106 124 155z" />
    <glyph glyph-name="caron.alt" horiz-adv-x="294" 
d="M111 619c3 21 12 52 12 103c0 31 -5 54 -11 76h66c3 -14 6 -33 6 -52c0 -30 -2 -65 -25 -127h-48z" />
    <glyph glyph-name="gravecomb" unicode="&#x300;" horiz-adv-x="0" 
d="M-44 788l117 -165h-61l-135 165h79z" />
    <glyph glyph-name="acutecomb" unicode="&#x301;" horiz-adv-x="0" 
d="M45 788h78l-135 -165h-61z" />
    <glyph glyph-name="uni0302" unicode="&#x302;" horiz-adv-x="0" 
d="M26 788l132 -165h-72l-86 114l-88 -114h-69l131 165h52z" />
    <glyph glyph-name="uni030C" unicode="&#x30c;" horiz-adv-x="0" 
d="M157 788l-131 -165h-52l-132 165h71l87 -114l87 114h70z" />
    <glyph glyph-name="tildecomb" unicode="&#x303;" horiz-adv-x="0" 
d="M174 748c5 -81 -50 -111 -100 -111c-72 0 -93 61 -146 61c-37 0 -51 -32 -50 -58h-54c-4 81 50 111 101 111c72 0 93 -61 146 -61c37 0 51 31 50 58h53z" />
    <glyph glyph-name="uni0308" unicode="&#x308;" horiz-adv-x="0" 
d="M-98 649c-25 0 -46 20 -46 45s21 45 46 45c26 0 47 -20 47 -45s-21 -45 -47 -45zM98 649c-26 0 -46 20 -46 45s20 45 46 45s46 -20 46 -45s-20 -45 -46 -45z" />
    <glyph glyph-name="uni030A" unicode="&#x30a;" horiz-adv-x="0" 
d="M0 811c55 0 99 -41 99 -94s-44 -94 -99 -94s-100 41 -100 94s45 94 100 94zM0 769c-31 0 -54 -23 -54 -52s23 -52 54 -52s54 23 54 52s-23 52 -54 52z" />
    <glyph glyph-name="uni0304" unicode="&#x304;" horiz-adv-x="0" 
d="M-162 666v56h322v-56h-322z" />
    <glyph glyph-name="uni0306" unicode="&#x306;" horiz-adv-x="0" 
d="M153 784c2 -89 -73 -142 -153 -142s-155 53 -154 142h60c1 -47 35 -86 94 -86s93 39 94 86h59z" />
    <glyph glyph-name="uni0307" unicode="&#x307;" horiz-adv-x="0" 
d="M-1 649c-25 0 -46 20 -46 45s21 45 46 45c26 0 47 -20 47 -45s-21 -45 -47 -45z" />
    <glyph glyph-name="uni030B" unicode="&#x30b;" horiz-adv-x="0" 
d="M85 788l-168 -165h-65l150 165h83zM246 788l-168 -165h-64l149 165h83z" />
    <glyph glyph-name="uni0327" unicode="&#x327;" horiz-adv-x="0" 
d="M-112 -168c45 55 83 105 83 187h60c0 -83 -27 -138 -67 -187h-76z" />
    <glyph glyph-name="uni0328" unicode="&#x328;" horiz-adv-x="0" 
d="M0 0c-65 -34 -104 -73 -104 -109c0 -39 31 -60 68 -60c12 0 31 3 36 6v-52c-4 -2 -23 -6 -41 -6c-62 0 -121 34 -121 100c0 56 38 106 124 155z" />
    <glyph glyph-name="uni0326" unicode="&#x326;" horiz-adv-x="0" 
d="M32 -79c11 -60 -2 -127 -37 -189h-49c26 64 33 131 19 189h67z" />
    <glyph glyph-name="I.ss01" horiz-adv-x="415" 
d="M169 63v617h-122v63h321v-63h-127v-617h127v-63h-321v63h122z" />
    <glyph glyph-name="IJ.ss01" horiz-adv-x="929" 
d="M169 63v617h-122v63h321v-63h-127v-617h127v-63h-321v63h122zM826 743v-545c0 -126 -72 -209 -207 -209c-68 0 -123 31 -153 57v82c38 -43 99 -73 157 -73c85 0 132 53 132 138v483h-205v67h276z" />
    <glyph glyph-name="Iacute.ss01" horiz-adv-x="415" 
d="M250 995h78l-135 -165h-61zM169 63v617h-122v63h321v-63h-127v-617h127v-63h-321v63h122z" />
    <glyph glyph-name="Icircumflex.ss01" horiz-adv-x="415" 
d="M231 995l132 -165h-72l-86 114l-88 -114h-69l131 165h52zM169 63v617h-122v63h321v-63h-127v-617h127v-63h-321v63h122z" />
    <glyph glyph-name="Idieresis.ss01" horiz-adv-x="415" 
d="M107 856c-25 0 -46 20 -46 45s21 45 46 45c26 0 47 -20 47 -45s-21 -45 -47 -45zM303 856c-26 0 -46 20 -46 45s20 45 46 45s46 -20 46 -45s-20 -45 -46 -45zM169 63v617h-122v63h321v-63h-127v-617h127v-63h-321v63h122z" />
    <glyph glyph-name="Idotaccent.ss01" horiz-adv-x="415" 
d="M204 856c-25 0 -46 20 -46 45s21 45 46 45c26 0 47 -20 47 -45s-21 -45 -47 -45zM169 63v617h-122v63h321v-63h-127v-617h127v-63h-321v63h122z" />
    <glyph glyph-name="Igrave.ss01" horiz-adv-x="415" 
d="M161 995l117 -165h-61l-135 165h79zM169 63v617h-122v63h321v-63h-127v-617h127v-63h-321v63h122z" />
    <glyph glyph-name="Imacron.ss01" horiz-adv-x="415" 
d="M43 873v56h322v-56h-322zM169 63v617h-122v63h321v-63h-127v-617h127v-63h-321v63h122z" />
    <glyph glyph-name="Iogonek.ss01" horiz-adv-x="415" 
d="M368 680h-127v-617h127v-63h-54c-65 -34 -104 -73 -104 -109c0 -39 31 -60 68 -60c12 0 31 3 36 6v-52c-4 -2 -23 -6 -41 -6c-62 0 -121 34 -121 100c0 43 23 83 72 121h-177v63h122v617h-122v63h321v-63z" />
    <glyph glyph-name="J.ss01" horiz-adv-x="495" 
d="M392 743v-545c0 -126 -72 -209 -207 -209c-68 0 -123 31 -153 57v82c38 -43 99 -73 157 -73c85 0 132 53 132 138v483h-205v67h276z" />
    <glyph glyph-name="kgreenlandic" unicode="&#x138;" horiz-adv-x="521" 
d="M511 0h-91l-262 277v-277h-68v536h68v-249l252 249h92l-261 -254z" />
    <glyph glyph-name="a.ss01" horiz-adv-x="567" 
d="M275 547c137 0 208 -82 208 -182v-365h-50l-11 88c-39 -63 -107 -99 -183 -99c-113 0 -194 71 -194 167c0 88 68 169 207 169c60 0 120 -16 163 -38v65c0 80 -50 131 -143 131c-70 0 -143 -30 -182 -66v72c42 34 111 58 185 58zM261 268c-102 0 -149 -51 -149 -111
c0 -64 56 -107 133 -107c89 0 170 61 170 151v26c-41 26 -98 41 -154 41z" />
    <glyph glyph-name="aacute.ss01" horiz-adv-x="567" 
d="M327 788h78l-135 -165h-61zM275 547c137 0 208 -82 208 -182v-365h-50l-11 88c-39 -63 -107 -99 -183 -99c-113 0 -194 71 -194 167c0 88 68 169 207 169c60 0 120 -16 163 -38v65c0 80 -50 131 -143 131c-70 0 -143 -30 -182 -66v72c42 34 111 58 185 58zM261 268
c-102 0 -149 -51 -149 -111c0 -64 56 -107 133 -107c89 0 170 61 170 151v26c-41 26 -98 41 -154 41z" />
    <glyph glyph-name="abreve.ss01" horiz-adv-x="567" 
d="M435 784c2 -89 -73 -142 -153 -142s-155 53 -154 142h60c1 -47 35 -86 94 -86s93 39 94 86h59zM275 547c137 0 208 -82 208 -182v-365h-50l-11 88c-39 -63 -107 -99 -183 -99c-113 0 -194 71 -194 167c0 88 68 169 207 169c60 0 120 -16 163 -38v65
c0 80 -50 131 -143 131c-70 0 -143 -30 -182 -66v72c42 34 111 58 185 58zM261 268c-102 0 -149 -51 -149 -111c0 -64 56 -107 133 -107c89 0 170 61 170 151v26c-41 26 -98 41 -154 41z" />
    <glyph glyph-name="acircumflex.ss01" horiz-adv-x="567" 
d="M308 788l132 -165h-72l-86 114l-88 -114h-69l131 165h52zM275 547c137 0 208 -82 208 -182v-365h-50l-11 88c-39 -63 -107 -99 -183 -99c-113 0 -194 71 -194 167c0 88 68 169 207 169c60 0 120 -16 163 -38v65c0 80 -50 131 -143 131c-70 0 -143 -30 -182 -66v72
c42 34 111 58 185 58zM261 268c-102 0 -149 -51 -149 -111c0 -64 56 -107 133 -107c89 0 170 61 170 151v26c-41 26 -98 41 -154 41z" />
    <glyph glyph-name="adieresis.ss01" horiz-adv-x="567" 
d="M184 649c-25 0 -46 20 -46 45s21 45 46 45c26 0 47 -20 47 -45s-21 -45 -47 -45zM380 649c-26 0 -46 20 -46 45s20 45 46 45s46 -20 46 -45s-20 -45 -46 -45zM275 547c137 0 208 -82 208 -182v-365h-50l-11 88c-39 -63 -107 -99 -183 -99c-113 0 -194 71 -194 167
c0 88 68 169 207 169c60 0 120 -16 163 -38v65c0 80 -50 131 -143 131c-70 0 -143 -30 -182 -66v72c42 34 111 58 185 58zM261 268c-102 0 -149 -51 -149 -111c0 -64 56 -107 133 -107c89 0 170 61 170 151v26c-41 26 -98 41 -154 41z" />
    <glyph glyph-name="agrave.ss01" horiz-adv-x="567" 
d="M238 788l117 -165h-61l-135 165h79zM275 547c137 0 208 -82 208 -182v-365h-50l-11 88c-39 -63 -107 -99 -183 -99c-113 0 -194 71 -194 167c0 88 68 169 207 169c60 0 120 -16 163 -38v65c0 80 -50 131 -143 131c-70 0 -143 -30 -182 -66v72c42 34 111 58 185 58z
M261 268c-102 0 -149 -51 -149 -111c0 -64 56 -107 133 -107c89 0 170 61 170 151v26c-41 26 -98 41 -154 41z" />
    <glyph glyph-name="amacron.ss01" horiz-adv-x="567" 
d="M120 666v56h322v-56h-322zM275 547c137 0 208 -82 208 -182v-365h-50l-11 88c-39 -63 -107 -99 -183 -99c-113 0 -194 71 -194 167c0 88 68 169 207 169c60 0 120 -16 163 -38v65c0 80 -50 131 -143 131c-70 0 -143 -30 -182 -66v72c42 34 111 58 185 58zM261 268
c-102 0 -149 -51 -149 -111c0 -64 56 -107 133 -107c89 0 170 61 170 151v26c-41 26 -98 41 -154 41z" />
    <glyph glyph-name="aogonek.ss01" horiz-adv-x="567" 
d="M483 0c-65 -34 -104 -73 -104 -109c0 -39 31 -60 68 -60c12 0 31 3 36 6v-52c-4 -2 -23 -6 -41 -6c-62 0 -121 34 -121 100c0 53 34 100 109 146l-8 63c-39 -63 -107 -99 -183 -99c-113 0 -194 71 -194 167c0 88 68 169 207 169c60 0 120 -16 163 -38v65
c0 80 -50 131 -143 131c-70 0 -143 -30 -182 -66v72c42 34 111 58 185 58c137 0 208 -82 208 -182v-365zM415 201v26c-41 26 -98 41 -154 41c-102 0 -149 -51 -149 -111c0 -64 56 -107 133 -107c89 0 170 61 170 151z" />
    <glyph glyph-name="aring.ss01" horiz-adv-x="567" 
d="M282 811c55 0 99 -41 99 -94s-44 -94 -99 -94s-100 41 -100 94s45 94 100 94zM282 769c-31 0 -54 -23 -54 -52s23 -52 54 -52s54 23 54 52s-23 52 -54 52zM275 547c137 0 208 -82 208 -182v-365h-50l-11 88c-39 -63 -107 -99 -183 -99c-113 0 -194 71 -194 167
c0 88 68 169 207 169c60 0 120 -16 163 -38v65c0 80 -50 131 -143 131c-70 0 -143 -30 -182 -66v72c42 34 111 58 185 58zM261 268c-102 0 -149 -51 -149 -111c0 -64 56 -107 133 -107c89 0 170 61 170 151v26c-41 26 -98 41 -154 41z" />
    <glyph glyph-name="atilde.ss01" horiz-adv-x="567" 
d="M456 748c5 -81 -50 -111 -100 -111c-72 0 -93 61 -146 61c-37 0 -51 -32 -50 -58h-54c-4 81 50 111 101 111c72 0 93 -61 146 -61c37 0 51 31 50 58h53zM275 547c137 0 208 -82 208 -182v-365h-50l-11 88c-39 -63 -107 -99 -183 -99c-113 0 -194 71 -194 167
c0 88 68 169 207 169c60 0 120 -16 163 -38v65c0 80 -50 131 -143 131c-70 0 -143 -30 -182 -66v72c42 34 111 58 185 58zM261 268c-102 0 -149 -51 -149 -111c0 -64 56 -107 133 -107c89 0 170 61 170 151v26c-41 26 -98 41 -154 41z" />
    <glyph glyph-name="g.ss01" horiz-adv-x="581" 
d="M373 96c100 0 168 -63 168 -143c0 -102 -107 -174 -259 -174c-145 0 -252 60 -252 162c0 54 34 99 83 122c-21 19 -33 44 -33 73c0 43 25 78 63 98c-39 32 -62 79 -62 134c0 104 83 179 202 179c27 0 52 -4 75 -11h180v-60h-89c24 -29 37 -66 37 -108
c0 -105 -84 -179 -203 -179c-31 0 -60 5 -85 14c-27 -4 -51 -26 -51 -54c0 -21 14 -53 70 -53h156zM283 488c-80 0 -136 -51 -136 -121c0 -69 56 -118 136 -118s137 49 137 120c0 69 -57 119 -137 119zM284 -159c112 0 189 46 189 109c0 46 -45 81 -109 81h-157
c-9 0 -19 1 -27 2c-51 -11 -82 -46 -82 -86c0 -69 84 -106 186 -106z" />
    <glyph glyph-name="gbreve.ss01" horiz-adv-x="581" 
d="M293 642c-80 0 -155 53 -154 142h60c1 -47 35 -86 94 -86s93 39 94 86h59c2 -89 -73 -142 -153 -142zM373 96c100 0 168 -63 168 -143c0 -102 -107 -174 -259 -174c-145 0 -252 60 -252 162c0 54 34 99 83 122c-21 19 -33 44 -33 73c0 43 25 78 63 98
c-39 32 -62 79 -62 134c0 104 83 179 202 179c27 0 52 -4 75 -11h180v-60h-89c24 -29 37 -66 37 -108c0 -105 -84 -179 -203 -179c-31 0 -60 5 -85 14c-27 -4 -51 -26 -51 -54c0 -21 14 -53 70 -53h156zM283 488c-80 0 -136 -51 -136 -121c0 -69 56 -118 136 -118
s137 49 137 120c0 69 -57 119 -137 119zM284 -159c112 0 189 46 189 109c0 46 -45 81 -109 81h-157c-9 0 -19 1 -27 2c-51 -11 -82 -46 -82 -86c0 -69 84 -106 186 -106z" />
    <glyph glyph-name="gcommaaccent.ss01" horiz-adv-x="581" 
d="M328 615h-67c-11 60 2 127 37 189h49c-26 -64 -33 -131 -19 -189zM373 96c100 0 168 -63 168 -143c0 -102 -107 -174 -259 -174c-145 0 -252 60 -252 162c0 54 34 99 83 122c-21 19 -33 44 -33 73c0 43 25 78 63 98c-39 32 -62 79 -62 134c0 104 83 179 202 179
c27 0 52 -4 75 -11h180v-60h-89c24 -29 37 -66 37 -108c0 -105 -84 -179 -203 -179c-31 0 -60 5 -85 14c-27 -4 -51 -26 -51 -54c0 -21 14 -53 70 -53h156zM283 488c-80 0 -136 -51 -136 -121c0 -69 56 -118 136 -118s137 49 137 120c0 69 -57 119 -137 119zM284 -159
c112 0 189 46 189 109c0 46 -45 81 -109 81h-157c-9 0 -19 1 -27 2c-51 -11 -82 -46 -82 -86c0 -69 84 -106 186 -106z" />
    <glyph glyph-name="gdotaccent.ss01" horiz-adv-x="581" 
d="M292 649c-25 0 -46 20 -46 45s21 45 46 45c26 0 47 -20 47 -45s-21 -45 -47 -45zM373 96c100 0 168 -63 168 -143c0 -102 -107 -174 -259 -174c-145 0 -252 60 -252 162c0 54 34 99 83 122c-21 19 -33 44 -33 73c0 43 25 78 63 98c-39 32 -62 79 -62 134
c0 104 83 179 202 179c27 0 52 -4 75 -11h180v-60h-89c24 -29 37 -66 37 -108c0 -105 -84 -179 -203 -179c-31 0 -60 5 -85 14c-27 -4 -51 -26 -51 -54c0 -21 14 -53 70 -53h156zM283 488c-80 0 -136 -51 -136 -121c0 -69 56 -118 136 -118s137 49 137 120
c0 69 -57 119 -137 119zM284 -159c112 0 189 46 189 109c0 46 -45 81 -109 81h-157c-9 0 -19 1 -27 2c-51 -11 -82 -46 -82 -86c0 -69 84 -106 186 -106z" />
    <glyph glyph-name="l.ss01" horiz-adv-x="294" 
d="M153 798v-650c0 -60 28 -86 87 -86c10 0 22 0 34 2v-63c-5 -1 -25 -4 -43 -4c-98 0 -146 67 -146 134v667h68z" />
    <glyph glyph-name="lacute.ss01" horiz-adv-x="294" 
d="M164 1050h78l-135 -165h-61zM153 798v-650c0 -60 28 -86 87 -86c10 0 22 0 34 2v-63c-5 -1 -25 -4 -43 -4c-98 0 -146 67 -146 134v667h68z" />
    <glyph glyph-name="lcaron.ss01" horiz-adv-x="297" 
d="M153 798v-650c0 -60 28 -86 87 -86c10 0 22 0 34 2v-63c-5 -1 -25 -4 -43 -4c-98 0 -146 67 -146 134v667h68zM232 619c3 21 12 52 12 103c0 31 -5 54 -11 76h66c3 -14 6 -33 6 -52c0 -30 -2 -65 -25 -127h-48z" />
    <glyph glyph-name="lcommaaccent.ss01" horiz-adv-x="294" 
d="M153 798v-650c0 -60 28 -86 87 -86c10 0 22 0 34 2v-63c-5 -1 -25 -4 -43 -4c-98 0 -146 67 -146 134v667h68zM206 -79c11 -60 -2 -127 -37 -189h-49c26 64 33 131 19 189h67z" />
    <glyph glyph-name="lslash.ss01" horiz-adv-x="399" 
d="M352 472l-131 -79v-245c0 -60 28 -86 87 -86c10 0 22 0 34 2v-63c-5 -1 -25 -4 -43 -4c-98 0 -146 67 -146 134v221l-117 -71v75l117 70v372h68v-331l131 78v-73z" />
    <glyph glyph-name="fl.ss01" horiz-adv-x="657" 
d="M115 0v475h-79v61h78v91c0 107 74 176 173 176c28 0 59 -6 84 -15v-67c-19 8 -54 15 -80 15c-70 0 -109 -37 -109 -121v-79h160v-61h-159v-475h-68zM516 798v-650c0 -60 28 -86 87 -86c10 0 22 0 34 2v-63c-5 -1 -25 -4 -43 -4c-98 0 -146 67 -146 134v667h68z" />
    <glyph glyph-name="A.sc" horiz-adv-x="563" 
d="M466 0l-65 187h-240l-66 -187h-69l217 595h78l215 -595h-70zM183 247h197l-97 280h-1z" />
    <glyph glyph-name="Aacute.sc" horiz-adv-x="563" 
d="M405 847l-135 -165h-61l118 165h78zM466 0l-65 187h-240l-66 -187h-69l217 595h78l215 -595h-70zM183 247h197l-97 280h-1z" />
    <glyph glyph-name="Abreve.sc" horiz-adv-x="563" 
d="M282 701c-80 0 -155 53 -154 142h60c1 -47 35 -86 94 -86s93 39 94 86h59c2 -89 -73 -142 -153 -142zM466 0l-65 187h-240l-66 -187h-69l217 595h78l215 -595h-70zM183 247h197l-97 280h-1z" />
    <glyph glyph-name="Acircumflex.sc" horiz-adv-x="563" 
d="M282 796l-88 -114h-69l131 165h52l132 -165h-72zM466 0l-65 187h-240l-66 -187h-69l217 595h78l215 -595h-70zM183 247h197l-97 280h-1z" />
    <glyph glyph-name="Adieresis.sc" horiz-adv-x="563" 
d="M184 708c-25 0 -46 20 -46 45s21 45 46 45c26 0 47 -20 47 -45s-21 -45 -47 -45zM380 708c-26 0 -46 20 -46 45s20 45 46 45s46 -20 46 -45s-20 -45 -46 -45zM466 0l-65 187h-240l-66 -187h-69l217 595h78l215 -595h-70zM183 247h197l-97 280h-1z" />
    <glyph glyph-name="Agrave.sc" horiz-adv-x="563" 
d="M355 682h-61l-135 165h79zM466 0l-65 187h-240l-66 -187h-69l217 595h78l215 -595h-70zM183 247h197l-97 280h-1z" />
    <glyph glyph-name="Amacron.sc" horiz-adv-x="563" 
d="M442 781v-56h-322v56h322zM466 0l-65 187h-240l-66 -187h-69l217 595h78l215 -595h-70zM183 247h197l-97 280h-1z" />
    <glyph glyph-name="Aogonek.sc" horiz-adv-x="563" 
d="M432 -109c0 -39 31 -60 68 -60c12 0 31 3 36 6v-52c-4 -2 -23 -6 -41 -6c-62 0 -121 34 -121 100c0 47 27 91 88 133l-61 175h-240l-66 -187h-69l217 595h78l215 -595c-65 -34 -104 -73 -104 -109zM183 247h197l-97 280h-1z" />
    <glyph glyph-name="Aring.sc" horiz-adv-x="563" 
d="M282 682c-55 0 -100 41 -100 94s45 94 100 94s99 -41 99 -94s-44 -94 -99 -94zM282 828c-31 0 -54 -23 -54 -52s23 -52 54 -52s54 23 54 52s-23 52 -54 52zM466 0l-65 187h-240l-66 -187h-69l217 595h78l215 -595h-70zM183 247h197l-97 280h-1z" />
    <glyph glyph-name="Atilde.sc" horiz-adv-x="563" 
d="M160 699h-54c-4 81 50 111 101 111c72 0 93 -61 146 -61c37 0 51 31 50 58h53c5 -81 -50 -111 -100 -111c-72 0 -93 61 -146 61c-37 0 -51 -32 -50 -58zM466 0l-65 187h-240l-66 -187h-69l217 595h78l215 -595h-70zM183 247h197l-97 280h-1z" />
    <glyph glyph-name="AE.sc" horiz-adv-x="796" 
d="M727 531h-251v-198h233v-62h-233v-207h251v-64h-317v186h-222l-120 -186h-76l386 595h349v-64zM227 247h183v282h-1z" />
    <glyph glyph-name="B.sc" horiz-adv-x="545" 
d="M380 308c71 -26 106 -72 106 -145c0 -101 -80 -163 -215 -163h-171v595h160c130 0 203 -56 203 -155c0 -62 -28 -107 -83 -132zM166 532v-200h104c78 -2 127 38 127 103c0 62 -46 97 -128 97h-103zM277 64c91 0 144 39 144 106c0 66 -51 103 -144 103h-111v-209h111z" />
    <glyph glyph-name="C.sc" horiz-adv-x="524" 
d="M475 16c-37 -17 -83 -25 -129 -25c-152 0 -286 118 -286 306s134 307 287 307c49 0 94 -10 128 -26v-68c-42 20 -79 29 -123 29c-129 0 -224 -97 -224 -242s95 -241 224 -241c44 0 81 9 123 27v-67z" />
    <glyph glyph-name="Cacute.sc" horiz-adv-x="524" 
d="M376 847h78l-135 -165h-61zM475 16c-37 -17 -83 -25 -129 -25c-152 0 -286 118 -286 306s134 307 287 307c49 0 94 -10 128 -26v-68c-42 20 -79 29 -123 29c-129 0 -224 -97 -224 -242s95 -241 224 -241c44 0 81 9 123 27v-67z" />
    <glyph glyph-name="Ccaron.sc" horiz-adv-x="524" 
d="M488 847l-131 -165h-52l-132 165h71l87 -114l87 114h70zM475 16c-37 -17 -83 -25 -129 -25c-152 0 -286 118 -286 306s134 307 287 307c49 0 94 -10 128 -26v-68c-42 20 -79 29 -123 29c-129 0 -224 -97 -224 -242s95 -241 224 -241c44 0 81 9 123 27v-67z" />
    <glyph glyph-name="Ccedilla.sc" horiz-adv-x="524" 
d="M352 539c-129 0 -224 -97 -224 -242s95 -241 224 -241c44 0 81 9 123 27v-67c-33 -15 -73 -23 -114 -25c-5 -68 -31 -116 -66 -159h-76c40 49 75 95 82 163c-133 20 -241 133 -241 302c0 188 134 307 287 307c49 0 94 -10 128 -26v-68c-42 20 -79 29 -123 29z" />
    <glyph glyph-name="Cdotaccent.sc" horiz-adv-x="524" 
d="M330 708c-25 0 -46 20 -46 45s21 45 46 45c26 0 47 -20 47 -45s-21 -45 -47 -45zM475 16c-37 -17 -83 -25 -129 -25c-152 0 -286 118 -286 306s134 307 287 307c49 0 94 -10 128 -26v-68c-42 20 -79 29 -123 29c-129 0 -224 -97 -224 -242s95 -241 224 -241
c44 0 81 9 123 27v-67z" />
    <glyph glyph-name="D.sc" horiz-adv-x="610" 
d="M220 595c204 0 331 -120 331 -297c0 -178 -127 -298 -331 -298h-120v595h120zM166 530v-465h55c155 0 262 82 262 232c0 151 -107 233 -262 233h-55z" />
    <glyph glyph-name="Eth.sc" horiz-adv-x="618" 
d="M228 595c203 0 331 -120 331 -297c0 -178 -128 -298 -331 -298h-120v274h-80v50h80v271h120zM229 65c155 0 262 82 262 232c0 151 -107 234 -262 234h-55v-207h161v-50h-161v-209h55z" />
    <glyph glyph-name="Dcaron.sc" horiz-adv-x="610" 
d="M460 847l-131 -165h-52l-132 165h71l87 -114l87 114h70zM220 595c204 0 331 -120 331 -297c0 -178 -127 -298 -331 -298h-120v595h120zM166 530v-465h55c155 0 262 82 262 232c0 151 -107 233 -262 233h-55z" />
    <glyph glyph-name="Dcroat.sc" horiz-adv-x="618" 
d="M228 595c203 0 331 -120 331 -297c0 -178 -128 -298 -331 -298h-120v274h-80v50h80v271h120zM229 65c155 0 262 82 262 232c0 151 -107 234 -262 234h-55v-207h161v-50h-161v-209h55z" />
    <glyph glyph-name="E.sc" horiz-adv-x="489" 
d="M100 0v595h319v-64h-253v-196h235v-62h-235v-209h253v-64h-319z" />
    <glyph glyph-name="Eacute.sc" horiz-adv-x="489" 
d="M303 847h78l-135 -165h-61zM100 0v595h319v-64h-253v-196h235v-62h-235v-209h253v-64h-319z" />
    <glyph glyph-name="Ecaron.sc" horiz-adv-x="489" 
d="M415 847l-131 -165h-52l-132 165h71l87 -114l87 114h70zM100 0v595h319v-64h-253v-196h235v-62h-235v-209h253v-64h-319z" />
    <glyph glyph-name="Ecircumflex.sc" horiz-adv-x="489" 
d="M284 847l132 -165h-72l-86 114l-88 -114h-69l131 165h52zM100 0v595h319v-64h-253v-196h235v-62h-235v-209h253v-64h-319z" />
    <glyph glyph-name="Edieresis.sc" horiz-adv-x="489" 
d="M160 708c-25 0 -46 20 -46 45s21 45 46 45c26 0 47 -20 47 -45s-21 -45 -47 -45zM356 708c-26 0 -46 20 -46 45s20 45 46 45s46 -20 46 -45s-20 -45 -46 -45zM100 0v595h319v-64h-253v-196h235v-62h-235v-209h253v-64h-319z" />
    <glyph glyph-name="Edotaccent.sc" horiz-adv-x="489" 
d="M257 708c-25 0 -46 20 -46 45s21 45 46 45c26 0 47 -20 47 -45s-21 -45 -47 -45zM100 0v595h319v-64h-253v-196h235v-62h-235v-209h253v-64h-319z" />
    <glyph glyph-name="Egrave.sc" horiz-adv-x="489" 
d="M214 847l117 -165h-61l-135 165h79zM100 0v595h319v-64h-253v-196h235v-62h-235v-209h253v-64h-319z" />
    <glyph glyph-name="Emacron.sc" horiz-adv-x="489" 
d="M96 725v56h322v-56h-322zM100 0v595h319v-64h-253v-196h235v-62h-235v-209h253v-64h-319z" />
    <glyph glyph-name="Eogonek.sc" horiz-adv-x="489" 
d="M419 531h-253v-196h235v-62h-235v-209h253v-64c-65 -34 -104 -73 -104 -109c0 -39 31 -60 68 -60c12 0 31 3 36 6v-52c-4 -2 -23 -6 -41 -6c-62 0 -121 34 -121 100c0 43 23 83 72 121h-229v595h319v-64z" />
    <glyph glyph-name="F.sc" horiz-adv-x="468" 
d="M100 0v595h318v-65h-252v-209h232v-62h-232v-259h-66z" />
    <glyph glyph-name="G.sc" horiz-adv-x="583" 
d="M509 309v-291c-45 -16 -90 -27 -144 -27c-152 0 -306 103 -306 305c0 187 134 308 305 308c57 0 104 -13 140 -27v-67c-43 20 -91 29 -138 29c-137 0 -239 -98 -239 -243c0 -162 128 -240 239 -240c25 0 54 3 78 12v241h65z" />
    <glyph glyph-name="Gbreve.sc" horiz-adv-x="583" 
d="M493 843c2 -89 -73 -142 -153 -142s-155 53 -154 142h60c1 -47 35 -86 94 -86s93 39 94 86h59zM509 309v-291c-45 -16 -90 -27 -144 -27c-152 0 -306 103 -306 305c0 187 134 308 305 308c57 0 104 -13 140 -27v-67c-43 20 -91 29 -138 29c-137 0 -239 -98 -239 -243
c0 -162 128 -240 239 -240c25 0 54 3 78 12v241h65z" />
    <glyph glyph-name="Gcommaaccent.sc" horiz-adv-x="583" 
d="M509 309v-291c-45 -16 -90 -27 -144 -27c-152 0 -306 103 -306 305c0 187 134 308 305 308c57 0 104 -13 140 -27v-67c-43 20 -91 29 -138 29c-137 0 -239 -98 -239 -243c0 -162 128 -240 239 -240c25 0 54 3 78 12v241h65zM372 -79c11 -60 -2 -127 -37 -189h-49
c26 64 33 131 19 189h67z" />
    <glyph glyph-name="Gdotaccent.sc" horiz-adv-x="583" 
d="M339 708c-25 0 -46 20 -46 45s21 45 46 45c26 0 47 -20 47 -45s-21 -45 -47 -45zM509 309v-291c-45 -16 -90 -27 -144 -27c-152 0 -306 103 -306 305c0 187 134 308 305 308c57 0 104 -13 140 -27v-67c-43 20 -91 29 -138 29c-137 0 -239 -98 -239 -243
c0 -162 128 -240 239 -240c25 0 54 3 78 12v241h65z" />
    <glyph glyph-name="H.sc" horiz-adv-x="654" 
d="M487 0v270h-321v-270h-66v595h66v-261h321v261h66v-595h-66z" />
    <glyph glyph-name="Hbar.sc" horiz-adv-x="666" 
d="M635 484v-49h-77v-435h-66v270h-321v-270h-66v435h-73v49h73v111h66v-111h321v111h66v-111h77zM492 334v101h-321v-101h321z" />
    <glyph glyph-name="I.sc" horiz-adv-x="266" 
d="M100 0v595h66v-595h-66z" />
    <glyph glyph-name="IJ.sc" horiz-adv-x="642" 
d="M100 0v595h66v-595h-66zM304 75c23 -13 45 -19 74 -19c63 0 104 44 104 128v411h66v-413c0 -118 -67 -191 -168 -191c-28 0 -53 6 -76 17v67z" />
    <glyph glyph-name="Iacute.sc" horiz-adv-x="266" 
d="M178 847h78l-135 -165h-61zM100 0v595h66v-595h-66z" />
    <glyph glyph-name="Icircumflex.sc" horiz-adv-x="266" 
d="M159 847l132 -165h-72l-86 114l-88 -114h-69l131 165h52zM100 0v595h66v-595h-66z" />
    <glyph glyph-name="Idieresis.sc" horiz-adv-x="266" 
d="M35 708c-25 0 -46 20 -46 45s21 45 46 45c26 0 47 -20 47 -45s-21 -45 -47 -45zM231 708c-26 0 -46 20 -46 45s20 45 46 45s46 -20 46 -45s-20 -45 -46 -45zM100 0v595h66v-595h-66z" />
    <glyph glyph-name="Idotaccent.sc" horiz-adv-x="266" 
d="M132 708c-25 0 -46 20 -46 45s21 45 46 45c26 0 47 -20 47 -45s-21 -45 -47 -45zM100 0v595h66v-595h-66z" />
    <glyph glyph-name="Igrave.sc" horiz-adv-x="266" 
d="M89 847l117 -165h-61l-135 165h79zM100 0v595h66v-595h-66z" />
    <glyph glyph-name="Imacron.sc" horiz-adv-x="266" 
d="M-29 725v56h322v-56h-322zM100 0v595h66v-595h-66z" />
    <glyph glyph-name="Iogonek.sc" horiz-adv-x="267" 
d="M167 0c-65 -34 -104 -73 -104 -109c0 -39 31 -60 68 -60c12 0 31 3 36 6v-52c-4 -2 -23 -6 -41 -6c-62 0 -121 34 -121 100c0 50 30 94 96 138v578h66v-595z" />
    <glyph glyph-name="J.sc" horiz-adv-x="370" 
d="M32 75c23 -13 45 -19 74 -19c63 0 104 44 104 128v411h66v-413c0 -118 -67 -191 -168 -191c-28 0 -53 6 -76 17v67z" />
    <glyph glyph-name="K.sc" horiz-adv-x="526" 
d="M502 0h-82l-254 307v-307h-66v595h66v-281l255 281h80l-260 -285z" />
    <glyph glyph-name="Kcommaaccent.sc" horiz-adv-x="526" 
d="M241 310l261 -310h-82l-254 307v-307h-66v595h66v-281l255 281h80zM246 -79h67c11 -60 -2 -127 -37 -189h-49c26 64 33 131 19 189z" />
    <glyph glyph-name="L.sc" horiz-adv-x="463" 
d="M100 0v595h66v-530h266v-65h-332z" />
    <glyph glyph-name="Lacute.sc" horiz-adv-x="463" 
d="M178 847h78l-135 -165h-61zM100 0v595h66v-530h266v-65h-332z" />
    <glyph glyph-name="Lcaron.sc" horiz-adv-x="464" 
d="M100 0v595h66v-530h266v-65h-332zM244 416c3 21 12 52 12 103c0 31 -5 54 -11 76h66c3 -14 6 -33 6 -52c0 -30 -2 -65 -25 -127h-48z" />
    <glyph glyph-name="Lcommaaccent.sc" horiz-adv-x="463" 
d="M100 0v595h66v-530h266v-65h-332zM298 -79c11 -60 -2 -127 -37 -189h-49c26 64 33 131 19 189h67z" />
    <glyph glyph-name="Ldot.sc" horiz-adv-x="489" 
d="M100 0v595h66v-530h266v-65h-332zM366 258c-30 0 -52 22 -52 52c0 31 22 53 52 53s52 -22 52 -53c0 -30 -22 -52 -52 -52z" />
    <glyph glyph-name="Lslash.sc" horiz-adv-x="488" 
d="M191 65h266v-65h-332v237l-104 -63v65l104 65v291h66v-250l115 71v-69l-115 -70v-212z" />
    <glyph glyph-name="M.sc" horiz-adv-x="794" 
d="M197 510l-72 -510h-65l89 595h84l164 -506h2l162 506h86l88 -595h-65l-73 510h-2l-166 -510h-67l-163 510h-2z" />
    <glyph glyph-name="N.sc" horiz-adv-x="662" 
d="M562 595v-595h-69l-328 498v-498h-65v595h71l325 -496v496h66z" />
    <glyph glyph-name="Nacute.sc" horiz-adv-x="662" 
d="M388 847h78l-135 -165h-61zM562 595v-595h-69l-328 498v-498h-65v595h71l325 -496v496h66z" />
    <glyph glyph-name="Ncaron.sc" horiz-adv-x="662" 
d="M500 847l-131 -165h-52l-132 165h71l87 -114l87 114h70zM562 595v-595h-69l-328 498v-498h-65v595h71l325 -496v496h66z" />
    <glyph glyph-name="Ncommaaccent.sc" horiz-adv-x="662" 
d="M562 595v-595h-69l-328 498v-498h-65v595h71l325 -496v496h66zM364 -79c11 -60 -2 -127 -37 -189h-49c26 64 33 131 19 189h67z" />
    <glyph glyph-name="Eng.sc" horiz-adv-x="662" 
d="M562 595v-625c0 -118 -67 -191 -168 -191c-28 0 -53 6 -77 17v67c23 -13 46 -19 75 -19c63 0 104 44 104 128v22l-331 504v-498h-65v595h71l325 -496v496h66z" />
    <glyph glyph-name="Ntilde.sc" horiz-adv-x="662" 
d="M517 807c5 -81 -50 -111 -100 -111c-72 0 -93 61 -146 61c-37 0 -51 -32 -50 -58h-54c-4 81 50 111 101 111c72 0 93 -61 146 -61c37 0 51 31 50 58h53zM562 595v-595h-69l-328 498v-498h-65v595h71l325 -496v496h66z" />
    <glyph glyph-name="O.sc" horiz-adv-x="705" 
d="M352 604c154 0 294 -121 294 -307s-140 -306 -294 -306s-293 120 -293 306s139 307 293 307zM352 539c-113 0 -225 -88 -225 -242s112 -241 225 -241s226 87 226 241s-113 242 -226 242z" />
    <glyph glyph-name="Oacute.sc" horiz-adv-x="705" 
d="M397 847h78l-135 -165h-61zM352 604c154 0 294 -121 294 -307s-140 -306 -294 -306s-293 120 -293 306s139 307 293 307zM352 539c-113 0 -225 -88 -225 -242s112 -241 225 -241s226 87 226 241s-113 242 -226 242z" />
    <glyph glyph-name="Ocircumflex.sc" horiz-adv-x="705" 
d="M378 847l132 -165h-72l-86 114l-88 -114h-69l131 165h52zM352 604c154 0 294 -121 294 -307s-140 -306 -294 -306s-293 120 -293 306s139 307 293 307zM352 539c-113 0 -225 -88 -225 -242s112 -241 225 -241s226 87 226 241s-113 242 -226 242z" />
    <glyph glyph-name="Odieresis.sc" horiz-adv-x="705" 
d="M254 708c-25 0 -46 20 -46 45s21 45 46 45c26 0 47 -20 47 -45s-21 -45 -47 -45zM450 708c-26 0 -46 20 -46 45s20 45 46 45s46 -20 46 -45s-20 -45 -46 -45zM352 604c154 0 294 -121 294 -307s-140 -306 -294 -306s-293 120 -293 306s139 307 293 307zM352 539
c-113 0 -225 -88 -225 -242s112 -241 225 -241s226 87 226 241s-113 242 -226 242z" />
    <glyph glyph-name="Ograve.sc" horiz-adv-x="705" 
d="M308 847l117 -165h-61l-135 165h79zM352 604c154 0 294 -121 294 -307s-140 -306 -294 -306s-293 120 -293 306s139 307 293 307zM352 539c-113 0 -225 -88 -225 -242s112 -241 225 -241s226 87 226 241s-113 242 -226 242z" />
    <glyph glyph-name="Ohungarumlaut.sc" horiz-adv-x="705" 
d="M437 847l-168 -165h-65l150 165h83zM598 847l-168 -165h-64l149 165h83zM352 604c154 0 294 -121 294 -307s-140 -306 -294 -306s-293 120 -293 306s139 307 293 307zM352 539c-113 0 -225 -88 -225 -242s112 -241 225 -241s226 87 226 241s-113 242 -226 242z" />
    <glyph glyph-name="Omacron.sc" horiz-adv-x="705" 
d="M190 725v56h322v-56h-322zM352 604c154 0 294 -121 294 -307s-140 -306 -294 -306s-293 120 -293 306s139 307 293 307zM352 539c-113 0 -225 -88 -225 -242s112 -241 225 -241s226 87 226 241s-113 242 -226 242z" />
    <glyph glyph-name="Oslash.sc" horiz-adv-x="711" 
d="M657 559l-70 -71c38 -51 61 -115 61 -191c0 -186 -140 -306 -294 -306c-69 0 -136 24 -188 68l-62 -63l-38 36l63 64c-42 52 -68 120 -68 201c0 186 139 307 293 307c74 0 145 -28 198 -78l69 70zM128 297c0 -62 19 -114 48 -153l330 335c-42 39 -97 60 -152 60
c-113 0 -226 -88 -226 -242zM581 297c0 57 -16 105 -41 143l-328 -334c41 -33 91 -50 142 -50c113 0 227 87 227 241z" />
    <glyph glyph-name="Otilde.sc" horiz-adv-x="705" 
d="M526 807c5 -81 -50 -111 -100 -111c-72 0 -93 61 -146 61c-37 0 -51 -32 -50 -58h-54c-4 81 50 111 101 111c72 0 93 -61 146 -61c37 0 51 31 50 58h53zM352 604c154 0 294 -121 294 -307s-140 -306 -294 -306s-293 120 -293 306s139 307 293 307zM352 539
c-113 0 -225 -88 -225 -242s112 -241 225 -241s226 87 226 241s-113 242 -226 242z" />
    <glyph glyph-name="OE.sc" horiz-adv-x="834" 
d="M59 297c0 186 139 307 293 307c33 0 66 -3 96 -9h317v-64h-254v-196h236v-62h-236v-209h254v-64h-317c-30 -6 -63 -9 -96 -9c-154 0 -293 120 -293 306zM127 297c0 -154 112 -241 225 -241c32 0 64 1 94 9v466c-30 7 -62 8 -94 8c-113 0 -225 -88 -225 -242z" />
    <glyph glyph-name="P.sc" horiz-adv-x="508" 
d="M100 595h132c143 0 232 -72 232 -191c0 -120 -91 -204 -233 -204h-65v-200h-66v595zM233 264c111 0 163 59 163 139c0 77 -53 127 -163 127h-67v-266h67z" />
    <glyph glyph-name="Thorn.sc" horiz-adv-x="531" 
d="M166 595v-93h90c142 0 231 -72 231 -190c0 -121 -90 -205 -232 -205h-89v-107h-66v595h66zM256 173c112 0 164 57 164 138c0 77 -53 127 -164 127h-90v-265h90z" />
    <glyph glyph-name="Q.sc" horiz-adv-x="705" 
d="M660 4l-45 -43l-88 88c-50 -37 -111 -58 -175 -58c-154 0 -293 120 -293 306s139 307 293 307s294 -121 294 -307c0 -84 -28 -154 -73 -206zM352 55c45 0 90 14 128 41l-120 120l44 44l122 -122c32 40 53 94 53 159c0 154 -114 243 -227 243s-226 -89 -226 -243
s113 -242 226 -242z" />
    <glyph glyph-name="R.sc" horiz-adv-x="524" 
d="M252 239l235 -239h-89l-226 239h-6v-239h-66v595h143c145 0 215 -76 215 -175c0 -110 -84 -178 -206 -181zM166 300h84c88 0 141 46 141 120c0 65 -49 110 -141 110h-84v-230z" />
    <glyph glyph-name="Racute.sc" horiz-adv-x="524" 
d="M394 847l-135 -165h-61l118 165h78zM252 239l235 -239h-89l-226 239h-6v-239h-66v595h143c145 0 215 -76 215 -175c0 -110 -84 -178 -206 -181zM166 300h84c88 0 141 46 141 120c0 65 -49 110 -141 110h-84v-230z" />
    <glyph glyph-name="Rcaron.sc" horiz-adv-x="524" 
d="M297 682h-52l-132 165h71l87 -114l87 114h70zM252 239l235 -239h-89l-226 239h-6v-239h-66v595h143c145 0 215 -76 215 -175c0 -110 -84 -178 -206 -181zM166 300h84c88 0 141 46 141 120c0 65 -49 110 -141 110h-84v-230z" />
    <glyph glyph-name="Rcommaaccent.sc" horiz-adv-x="524" 
d="M252 239l235 -239h-89l-226 239h-6v-239h-66v595h143c145 0 215 -76 215 -175c0 -110 -84 -178 -206 -181zM166 300h84c88 0 141 46 141 120c0 65 -49 110 -141 110h-84v-230zM236 -79h67c11 -60 -2 -127 -37 -189h-49c26 64 33 131 19 189z" />
    <glyph glyph-name="S.sc" horiz-adv-x="475" 
d="M390 566v-73c-41 32 -84 47 -135 47c-68 0 -119 -32 -119 -88c0 -52 43 -79 91 -103c81 -39 195 -77 195 -192c0 -95 -79 -167 -192 -167c-69 0 -130 27 -167 59v83c42 -47 101 -78 164 -78c79 0 128 46 128 100c0 50 -41 79 -94 104c-72 36 -192 77 -192 192
c0 86 68 154 183 154c57 0 102 -15 138 -38z" />
    <glyph glyph-name="Sacute.sc" horiz-adv-x="475" 
d="M295 847h78l-135 -165h-61zM390 566v-73c-41 32 -84 47 -135 47c-68 0 -119 -32 -119 -88c0 -52 43 -79 91 -103c81 -39 195 -77 195 -192c0 -95 -79 -167 -192 -167c-69 0 -130 27 -167 59v83c42 -47 101 -78 164 -78c79 0 128 46 128 100c0 50 -41 79 -94 104
c-72 36 -192 77 -192 192c0 86 68 154 183 154c57 0 102 -15 138 -38z" />
    <glyph glyph-name="Scaron.sc" horiz-adv-x="475" 
d="M407 847l-131 -165h-52l-132 165h71l87 -114l87 114h70zM390 566v-73c-41 32 -84 47 -135 47c-68 0 -119 -32 -119 -88c0 -52 43 -79 91 -103c81 -39 195 -77 195 -192c0 -95 -79 -167 -192 -167c-69 0 -130 27 -167 59v83c42 -47 101 -78 164 -78c79 0 128 46 128 100
c0 50 -41 79 -94 104c-72 36 -192 77 -192 192c0 86 68 154 183 154c57 0 102 -15 138 -38z" />
    <glyph glyph-name="Scedilla.sc" horiz-adv-x="475" 
d="M422 157c0 -83 -61 -149 -152 -164c-5 -69 -30 -117 -66 -161h-76c40 48 74 93 81 159c-60 4 -113 29 -146 58v83c42 -47 101 -78 164 -78c79 0 128 46 128 100c0 50 -41 79 -94 104c-72 36 -192 77 -192 192c0 86 68 154 183 154c57 0 102 -15 138 -38v-73
c-41 32 -84 47 -135 47c-68 0 -119 -32 -119 -88c0 -52 43 -79 91 -103c81 -39 195 -77 195 -192z" />
    <glyph glyph-name="Scommaaccent.sc" horiz-adv-x="475" 
d="M390 566v-73c-41 32 -84 47 -135 47c-68 0 -119 -32 -119 -88c0 -52 43 -79 91 -103c81 -39 195 -77 195 -192c0 -95 -79 -167 -192 -167c-69 0 -130 27 -167 59v83c42 -47 101 -78 164 -78c79 0 128 46 128 100c0 50 -41 79 -94 104c-72 36 -192 77 -192 192
c0 86 68 154 183 154c57 0 102 -15 138 -38zM272 -79c11 -60 -2 -127 -37 -189h-49c26 64 33 131 19 189h67z" />
    <glyph glyph-name="uni1E9E.sc" horiz-adv-x="626" 
d="M391 334c105 -1 180 -72 180 -165c0 -91 -66 -179 -193 -179c-61 0 -114 20 -151 53v70c36 -37 89 -64 149 -64c83 0 130 55 130 120c0 67 -53 117 -141 117h-75l166 222c-28 20 -71 33 -119 33c-100 0 -180 -62 -180 -174v-367h-65v375c0 138 103 230 246 230
c80 0 148 -30 200 -78z" />
    <glyph glyph-name="T.sc" horiz-adv-x="512" 
d="M223 0v530h-193v65h452v-65h-193v-530h-66z" />
    <glyph glyph-name="Tbar.sc" horiz-adv-x="532" 
d="M492 530h-193v-217h129v-58h-129v-255h-66v255h-130v58h130v217h-193v65h452v-65z" />
    <glyph glyph-name="Tcaron.sc" horiz-adv-x="512" 
d="M412 847l-131 -165h-52l-132 165h71l87 -114l87 114h70zM223 0v530h-193v65h452v-65h-193v-530h-66z" />
    <glyph glyph-name="uni0162.sc" horiz-adv-x="512" 
d="M30 595h452v-65h-193v-530h-3c-4 -73 -30 -123 -67 -168h-76c41 51 77 97 82 168h-2v530h-193v65z" />
    <glyph glyph-name="uni021A.sc" horiz-adv-x="512" 
d="M223 0v530h-193v65h452v-65h-193v-530h-66zM287 -79c11 -60 -2 -127 -37 -189h-49c26 64 33 131 19 189h67z" />
    <glyph glyph-name="U.sc" horiz-adv-x="639" 
d="M546 595v-369c0 -151 -100 -235 -228 -235s-226 84 -226 235v369h66v-371c0 -109 70 -168 160 -168c93 0 162 59 162 168v371h66z" />
    <glyph glyph-name="Uacute.sc" horiz-adv-x="639" 
d="M364 847h78l-135 -165h-61zM546 595v-369c0 -151 -100 -235 -228 -235s-226 84 -226 235v369h66v-371c0 -109 70 -168 160 -168c93 0 162 59 162 168v371h66z" />
    <glyph glyph-name="Ucircumflex.sc" horiz-adv-x="639" 
d="M345 847l132 -165h-72l-86 114l-88 -114h-69l131 165h52zM546 595v-369c0 -151 -100 -235 -228 -235s-226 84 -226 235v369h66v-371c0 -109 70 -168 160 -168c93 0 162 59 162 168v371h66z" />
    <glyph glyph-name="Udieresis.sc" horiz-adv-x="639" 
d="M221 708c-25 0 -46 20 -46 45s21 45 46 45c26 0 47 -20 47 -45s-21 -45 -47 -45zM417 708c-26 0 -46 20 -46 45s20 45 46 45s46 -20 46 -45s-20 -45 -46 -45zM546 595v-369c0 -151 -100 -235 -228 -235s-226 84 -226 235v369h66v-371c0 -109 70 -168 160 -168
c93 0 162 59 162 168v371h66z" />
    <glyph glyph-name="Ugrave.sc" horiz-adv-x="639" 
d="M275 847l117 -165h-61l-135 165h79zM546 595v-369c0 -151 -100 -235 -228 -235s-226 84 -226 235v369h66v-371c0 -109 70 -168 160 -168c93 0 162 59 162 168v371h66z" />
    <glyph glyph-name="Uhungarumlaut.sc" horiz-adv-x="639" 
d="M404 847l-168 -165h-65l150 165h83zM565 847l-168 -165h-64l149 165h83zM546 595v-369c0 -151 -100 -235 -228 -235s-226 84 -226 235v369h66v-371c0 -109 70 -168 160 -168c93 0 162 59 162 168v371h66z" />
    <glyph glyph-name="Umacron.sc" horiz-adv-x="639" 
d="M157 725v56h322v-56h-322zM546 595v-369c0 -151 -100 -235 -228 -235s-226 84 -226 235v369h66v-371c0 -109 70 -168 160 -168c93 0 162 59 162 168v371h66z" />
    <glyph glyph-name="Uogonek.sc" horiz-adv-x="639" 
d="M480 595h66v-369c0 -89 -35 -154 -90 -194c-80 -59 -117 -103 -117 -143s31 -58 68 -58c13 0 32 3 37 6v-52c-6 -3 -30 -6 -43 -6c-62 0 -119 33 -119 101c0 39 19 76 60 112c-8 -1 -16 -1 -24 -1c-128 0 -226 84 -226 235v369h66v-371c0 -107 68 -168 160 -168
c93 0 162 59 162 168v371z" />
    <glyph glyph-name="Uring.sc" horiz-adv-x="639" 
d="M319 870c55 0 99 -41 99 -94s-44 -94 -99 -94s-100 41 -100 94s45 94 100 94zM319 828c-31 0 -54 -23 -54 -52s23 -52 54 -52s54 23 54 52s-23 52 -54 52zM546 595v-369c0 -151 -100 -235 -228 -235s-226 84 -226 235v369h66v-371c0 -109 70 -168 160 -168
c93 0 162 59 162 168v371h66z" />
    <glyph glyph-name="V.sc" horiz-adv-x="550" 
d="M522 595l-207 -595h-79l-209 595h71l177 -525h1l177 525h69z" />
    <glyph glyph-name="W.sc" horiz-adv-x="880" 
d="M605 0l-166 512h-2l-162 -512h-74l-168 595h71l136 -514h2l159 514h75l165 -514h1l138 514h67l-169 -595h-73z" />
    <glyph glyph-name="Wacute.sc" horiz-adv-x="880" 
d="M483 847h78l-135 -165h-61zM605 0l-166 512h-2l-162 -512h-74l-168 595h71l136 -514h2l159 514h75l165 -514h1l138 514h67l-169 -595h-73z" />
    <glyph glyph-name="Wcircumflex.sc" horiz-adv-x="880" 
d="M464 847l132 -165h-72l-86 114l-88 -114h-69l131 165h52zM605 0l-166 512h-2l-162 -512h-74l-168 595h71l136 -514h2l159 514h75l165 -514h1l138 514h67l-169 -595h-73z" />
    <glyph glyph-name="Wdieresis.sc" horiz-adv-x="880" 
d="M340 708c-25 0 -46 20 -46 45s21 45 46 45c26 0 47 -20 47 -45s-21 -45 -47 -45zM536 708c-26 0 -46 20 -46 45s20 45 46 45s46 -20 46 -45s-20 -45 -46 -45zM605 0l-166 512h-2l-162 -512h-74l-168 595h71l136 -514h2l159 514h75l165 -514h1l138 514h67l-169 -595h-73z
" />
    <glyph glyph-name="Wgrave.sc" horiz-adv-x="880" 
d="M394 847l117 -165h-61l-135 165h79zM605 0l-166 512h-2l-162 -512h-74l-168 595h71l136 -514h2l159 514h75l165 -514h1l138 514h67l-169 -595h-73z" />
    <glyph glyph-name="X.sc" horiz-adv-x="530" 
d="M494 595l-191 -294l196 -301h-75l-159 251l-160 -251h-73l193 299l-189 296h73l154 -246l156 246h75z" />
    <glyph glyph-name="Y.sc" horiz-adv-x="543" 
d="M521 595l-216 -340v-255h-67v254l-216 341h76l175 -280h1l173 280h74z" />
    <glyph glyph-name="Yacute.sc" horiz-adv-x="543" 
d="M316 847h78l-135 -165h-61zM521 595l-216 -340v-255h-67v254l-216 341h76l175 -280h1l173 280h74z" />
    <glyph glyph-name="Ycircumflex.sc" horiz-adv-x="543" 
d="M297 847l132 -165h-72l-86 114l-88 -114h-69l131 165h52zM521 595l-216 -340v-255h-67v254l-216 341h76l175 -280h1l173 280h74z" />
    <glyph glyph-name="Ydieresis.sc" horiz-adv-x="543" 
d="M173 708c-25 0 -46 20 -46 45s21 45 46 45c26 0 47 -20 47 -45s-21 -45 -47 -45zM369 708c-26 0 -46 20 -46 45s20 45 46 45s46 -20 46 -45s-20 -45 -46 -45zM521 595l-216 -340v-255h-67v254l-216 341h76l175 -280h1l173 280h74z" />
    <glyph glyph-name="Ygrave.sc" horiz-adv-x="543" 
d="M227 847l117 -165h-61l-135 165h79zM521 595l-216 -340v-255h-67v254l-216 341h76l175 -280h1l173 280h74z" />
    <glyph glyph-name="Z.sc" horiz-adv-x="507" 
d="M470 595l-330 -533h316v-62h-424l330 533h-304v62h412z" />
    <glyph glyph-name="Zacute.sc" horiz-adv-x="507" 
d="M307 847h78l-135 -165h-61zM470 595l-330 -533h316v-62h-424l330 533h-304v62h412z" />
    <glyph glyph-name="Zcaron.sc" horiz-adv-x="507" 
d="M419 847l-131 -165h-52l-132 165h71l87 -114l87 114h70zM470 595l-330 -533h316v-62h-424l330 533h-304v62h412z" />
    <glyph glyph-name="Zdotaccent.sc" horiz-adv-x="507" 
d="M261 708c-25 0 -46 20 -46 45s21 45 46 45c26 0 47 -20 47 -45s-21 -45 -47 -45zM470 595l-330 -533h316v-62h-424l330 533h-304v62h412z" />
    <glyph glyph-name="I.sc.ss01" horiz-adv-x="391" 
d="M161 63v470h-99v62h267v-62h-102v-470h102v-63h-267v63h99z" />
    <glyph glyph-name="IJ.sc.ss01" horiz-adv-x="856" 
d="M161 63v470h-99v62h267v-62h-102v-470h102v-63h-267v63h99zM761 595v-426c0 -117 -63 -180 -167 -180c-49 0 -98 15 -139 49v78c31 -36 84 -62 134 -62c68 0 107 34 107 118v358h-183v65h248z" />
    <glyph glyph-name="Iacute.sc.ss01" horiz-adv-x="391" 
d="M239 844h78l-135 -165h-61zM161 63v470h-99v62h267v-62h-102v-470h102v-63h-267v63h99z" />
    <glyph glyph-name="Icircumflex.sc.ss01" horiz-adv-x="416" 
d="M233 844l132 -165h-72l-86 114l-88 -114h-69l131 165h52zM174 63v470h-99v62h267v-62h-102v-470h102v-63h-267v63h99z" />
    <glyph glyph-name="Idieresis.sc.ss01" horiz-adv-x="392" 
d="M96 705c-25 0 -46 20 -46 45s21 45 46 45c26 0 47 -20 47 -45s-21 -45 -47 -45zM292 705c-26 0 -46 20 -46 45s20 45 46 45s46 -20 46 -45s-20 -45 -46 -45zM161 63v470h-99v62h267v-62h-102v-470h102v-63h-267v63h99z" />
    <glyph glyph-name="Idotaccent.sc.ss01" horiz-adv-x="391" 
d="M193 705c-25 0 -46 20 -46 45s21 45 46 45c26 0 47 -20 47 -45s-21 -45 -47 -45zM161 63v470h-99v62h267v-62h-102v-470h102v-63h-267v63h99z" />
    <glyph glyph-name="Igrave.sc.ss01" horiz-adv-x="391" 
d="M150 844l117 -165h-61l-135 165h79zM161 63v470h-99v62h267v-62h-102v-470h102v-63h-267v63h99z" />
    <glyph glyph-name="Imacron.sc.ss01" horiz-adv-x="391" 
d="M32 722v56h322v-56h-322zM161 63v470h-99v62h267v-62h-102v-470h102v-63h-267v63h99z" />
    <glyph glyph-name="Iogonek.sc.ss01" horiz-adv-x="391" 
d="M329 533h-102v-470h102v-63h-38c-65 -34 -104 -73 -104 -109c0 -39 31 -60 68 -60c12 0 31 3 36 6v-52c-4 -2 -23 -6 -41 -6c-62 0 -121 34 -121 100c0 43 23 83 72 121h-139v63h99v470h-99v62h267v-62z" />
    <glyph glyph-name="J.sc.ss01" horiz-adv-x="446" 
d="M351 595v-426c0 -117 -63 -180 -167 -180c-49 0 -98 15 -139 49v78c31 -36 84 -62 134 -62c68 0 107 34 107 118v358h-183v65h248z" />
    <glyph glyph-name="uni0410" unicode="&#x410;" horiz-adv-x="699" 
d="M685 0h-75l-95 241h-332l-95 -241h-74l297 743h76zM349 662l-141 -355h282z" />
    <glyph glyph-name="uni0411" unicode="&#x411;" horiz-adv-x="612" 
d="M292 448c183 0 270 -88 270 -222c0 -139 -104 -226 -268 -226h-185v743h408v-65h-339l-1 1v-231h115zM292 65c127 0 199 58 199 161c0 97 -61 157 -199 157h-115v-318h115z" />
    <glyph glyph-name="uni0412" unicode="&#x412;" horiz-adv-x="639" 
d="M441 385c91 -29 138 -94 138 -182c0 -111 -84 -203 -250 -203h-220v743h208c155 0 236 -81 236 -190c0 -90 -48 -144 -112 -168zM177 678v-266h141c106 0 166 57 166 136c0 83 -61 130 -157 130h-150zM330 65c116 0 179 59 179 142c0 91 -75 141 -173 141h-159v-283h153z
" />
    <glyph glyph-name="uni0413" unicode="&#x413;" horiz-adv-x="505" 
d="M109 0v743h373v-65h-305v-678h-68z" />
    <glyph glyph-name="uni0414" unicode="&#x414;" horiz-adv-x="732" 
d="M597 65h92v-235h-67v170h-543v-170h-68v235h75c34 43 82 115 82 323v355h429v-678zM236 387c0 -159 -27 -252 -71 -322h364v613h-293v-291z" />
    <glyph glyph-name="uni0415" unicode="&#x415;" horiz-adv-x="568" 
d="M109 0v743h387v-65h-319v-266h297v-64h-297v-283h319v-65h-387z" />
    <glyph glyph-name="uni0401" unicode="&#x401;" horiz-adv-x="568" 
d="M209 857c-25 0 -46 20 -46 45s21 45 46 45c26 0 47 -20 47 -45s-21 -45 -47 -45zM405 857c-26 0 -46 20 -46 45s20 45 46 45s46 -20 46 -45s-20 -45 -46 -45zM109 0v743h387v-65h-319v-266h297v-64h-297v-283h319v-65h-387z" />
    <glyph glyph-name="uni0416" unicode="&#x416;" horiz-adv-x="960" 
d="M948 0h-93l-341 367v-367h-68v367l-341 -367h-93l352 373l-348 370h90l340 -366v366h68v-366l340 366h90l-348 -370z" />
    <glyph glyph-name="uni0417" unicode="&#x417;" horiz-adv-x="567" 
d="M366 383c77 -21 133 -89 133 -184c0 -124 -93 -215 -242 -215c-70 0 -138 19 -205 69v86c37 -43 118 -88 199 -88c106 0 177 60 177 152c0 95 -69 145 -186 145h-82v64h91c95 0 162 54 162 142c0 87 -64 140 -162 140c-65 0 -130 -22 -186 -61v78c49 27 109 48 192 48
c151 0 226 -83 226 -201c0 -87 -57 -152 -117 -175z" />
    <glyph glyph-name="uni0418" unicode="&#x418;" horiz-adv-x="790" 
d="M109 0v743h66v-638h1l436 638h69v-743h-66v641h-1l-437 -641h-68z" />
    <glyph glyph-name="uni0419" unicode="&#x419;" horiz-adv-x="790" 
d="M552 986c1 -90 -69 -145 -151 -145c-83 0 -153 55 -152 145h66c1 -50 27 -94 86 -94c58 0 84 44 85 94h66zM109 0v743h66v-638h1l436 638h69v-743h-66v641h-1l-437 -641h-68z" />
    <glyph glyph-name="uni041A" unicode="&#x41a;" horiz-adv-x="642" 
d="M631 0h-93l-361 368v-368h-68v743h68v-367l360 367h90l-367 -371z" />
    <glyph glyph-name="uni041B" unicode="&#x41b;" horiz-adv-x="687" 
d="M3 -4v61c101 0 146 85 146 276v410h428v-743h-68v678h-292v-344c0 -229 -70 -338 -214 -338z" />
    <glyph glyph-name="uni041C" unicode="&#x41c;" horiz-adv-x="963" 
d="M224 636l-98 -636h-69l117 743h85l224 -641h1l218 641h88l116 -743h-70l-99 642h-2l-221 -642h-64l-224 636h-2z" />
    <glyph glyph-name="uni041D" unicode="&#x41d;" horiz-adv-x="780" 
d="M602 0v346h-425v-346h-68v743h68v-332h425v332h69v-743h-69z" />
    <glyph glyph-name="uni041E" unicode="&#x41e;" horiz-adv-x="846" 
d="M424 -14c-211 0 -365 166 -365 385c0 218 154 386 365 386c210 0 363 -168 363 -386s-153 -385 -363 -385zM424 52c151 0 292 118 292 319c0 202 -141 320 -292 320c-153 0 -294 -118 -294 -320c0 -203 143 -319 294 -319z" />
    <glyph glyph-name="uni041F" unicode="&#x41f;" horiz-adv-x="752" 
d="M575 0v678h-398v-678h-68v743h534v-743h-68z" />
    <glyph glyph-name="uni0420" unicode="&#x420;" horiz-adv-x="598" 
d="M109 0v743h169c166 0 279 -86 279 -235c0 -151 -112 -242 -278 -242h-102v-266h-68zM283 332c127 0 204 65 204 175s-77 171 -204 171h-106v-346h106z" />
    <glyph glyph-name="uni0421" unicode="&#x421;" horiz-adv-x="665" 
d="M617 36c-46 -27 -109 -50 -194 -50c-189 0 -364 147 -364 387c0 238 175 384 364 384c85 0 149 -23 194 -50v-75c-58 35 -114 59 -195 59c-143 0 -292 -116 -292 -319c0 -201 149 -319 292 -319c81 0 137 24 195 60v-77z" />
    <glyph glyph-name="uni0422" unicode="&#x422;" horiz-adv-x="595" 
d="M263 0v678h-240v65h549v-65h-240v-678h-69z" />
    <glyph glyph-name="uni0423" unicode="&#x423;" horiz-adv-x="650" 
d="M571 743h73l-250 -565c-58 -132 -131 -182 -251 -182v61c86 0 135 30 181 125l-306 561h76l264 -489z" />
    <glyph glyph-name="uni0424" unicode="&#x424;" horiz-adv-x="866" 
d="M814 382c0 -186 -149 -324 -347 -324v-70h-68v70c-198 0 -347 138 -347 324s149 324 347 324v70h68v-70c198 0 347 -138 347 -324zM122 382c0 -151 119 -260 277 -260v521c-158 0 -277 -110 -277 -261zM467 122c158 0 277 109 277 260s-119 261 -277 261v-521z" />
    <glyph glyph-name="uni0425" unicode="&#x425;" horiz-adv-x="643" 
d="M22 0l258 374l-252 369h79l215 -316l216 316h77l-252 -367l259 -376h-79l-221 321l-222 -321h-78z" />
    <glyph glyph-name="uni0427" unicode="&#x427;" horiz-adv-x="633" 
d="M455 743h69v-743h-69v321c-50 -18 -108 -32 -178 -32c-146 0 -223 72 -223 225v229h68v-218c0 -120 54 -171 171 -171c57 0 120 16 162 34v355z" />
    <glyph glyph-name="uni0426" unicode="&#x426;" horiz-adv-x="757" 
d="M621 65h93v-235h-65v170h-540v743h68v-678h376v678h68v-678z" />
    <glyph glyph-name="uni0428" unicode="&#x428;" horiz-adv-x="988" 
d="M811 743h68v-743h-770v743h68v-678h283v678h68v-678h283v678z" />
    <glyph glyph-name="uni0429" unicode="&#x429;" horiz-adv-x="1009" 
d="M873 65h93v-235h-66v170h-791v743h68v-678h280v678h68v-678h280v678h68v-678z" />
    <glyph glyph-name="uni040F" unicode="&#x40f;" horiz-adv-x="730" 
d="M620 743v-743h-223v-170h-65v170h-223v743h68v-678h375v678h68z" />
    <glyph glyph-name="uni042C" unicode="&#x42c;" horiz-adv-x="597" 
d="M279 468c165 0 277 -82 277 -230c0 -152 -113 -238 -277 -238h-170v743h68v-275h102zM283 65c126 0 204 62 204 171c0 110 -77 167 -204 167h-106v-338h106z" />
    <glyph glyph-name="uni042A" unicode="&#x42a;" horiz-adv-x="726" 
d="M409 468c165 0 277 -82 277 -230c0 -152 -112 -238 -277 -238h-168v678h-218v65h287v-275h99zM413 65c127 0 204 62 204 171c0 110 -77 167 -204 167h-103v-338h103z" />
    <glyph glyph-name="uni042B" unicode="&#x42b;" horiz-adv-x="839" 
d="M273 468c165 0 277 -82 277 -230c0 -152 -113 -238 -277 -238h-164v743h68v-275h96zM660 743h69v-743h-69v743zM277 65c126 0 204 62 204 171c0 110 -78 167 -204 167h-100v-338h100z" />
    <glyph glyph-name="uni0409" unicode="&#x409;" horiz-adv-x="991" 
d="M673 468c165 0 277 -78 277 -227c0 -151 -113 -237 -277 -237h-164v674h-292v-340c0 -229 -70 -338 -214 -338v61c101 0 146 85 146 276v406h428v-275h96zM677 69c126 0 203 62 203 171c0 110 -77 163 -203 163h-100v-334h100z" />
    <glyph glyph-name="uni040A" unicode="&#x40a;" horiz-adv-x="1045" 
d="M730 436c165 0 276 -67 276 -213c0 -148 -112 -223 -276 -223h-167v370h-386v-370h-68v743h68v-307h386v307h67v-307h100zM734 65c126 0 203 51 203 157c0 107 -77 149 -203 149h-104v-306h104z" />
    <glyph glyph-name="uni042D" unicode="&#x42d;" horiz-adv-x="688" 
d="M266 754c192 0 363 -134 363 -382c0 -249 -172 -382 -369 -382c-77 0 -143 16 -204 48v71c61 -36 126 -53 201 -53c156 0 288 97 299 287h-382v64h382c-14 185 -143 280 -294 280c-82 0 -149 -17 -206 -52v70c61 32 126 49 210 49z" />
    <glyph glyph-name="uni0408" unicode="&#x408;" horiz-adv-x="456" 
d="M31 122c30 -35 73 -67 132 -67c74 0 123 49 123 146v542h68v-553c0 -118 -73 -201 -188 -201c-50 0 -101 18 -135 51v82z" />
    <glyph glyph-name="uni040B" unicode="&#x40b;" horiz-adv-x="741" 
d="M463 449c143 0 224 -66 224 -218v-231h-69v215c0 118 -50 168 -165 168c-66 0 -129 -14 -174 -33v-350h-68v678h-187v65h532v-65h-277v-259c53 20 113 30 184 30z" />
    <glyph glyph-name="uni042E" unicode="&#x42e;" horiz-adv-x="1067" 
d="M660 753c197 0 347 -158 347 -381c0 -224 -150 -382 -347 -382c-188 0 -334 144 -347 351h-136v-341h-68v743h68v-337h136c15 205 160 347 347 347zM660 56c160 0 276 132 276 316c0 183 -117 315 -276 315c-160 0 -277 -132 -277 -315s117 -316 277 -316z" />
    <glyph glyph-name="uni042F" unicode="&#x42f;" horiz-adv-x="623" 
d="M322 743h192v-743h-68v342l-321 -342h-92l304 315h-17c-186 0 -254 96 -254 215c0 130 94 213 256 213zM327 377h119v301h-124c-129 0 -186 -55 -186 -148c0 -101 66 -153 191 -153z" />
    <glyph glyph-name="uni0402" unicode="&#x402;" horiz-adv-x="732" 
d="M460 448c135 0 231 -75 231 -221c0 -137 -90 -227 -227 -227h-15v64h9c99 0 162 56 162 157c0 111 -64 162 -173 162c-62 0 -123 -13 -168 -33v-350h-68v678h-187v65h531v-65h-276v-260c54 20 115 30 181 30z" />
    <glyph glyph-name="uni0414.BUL" horiz-adv-x="781" 
d="M684 65h78v-235h-67v170h-609v-170h-67v235h80l254 678h76zM391 663l-220 -598h439z" />
    <glyph glyph-name="uni041B.BUL" horiz-adv-x="675" 
d="M16 0l283 743h76l283 -743h-74l-247 662l-247 -662h-74z" />
    <glyph glyph-name="uni0409.BUL" horiz-adv-x="935" 
d="M617 468c165 0 276 -82 276 -230c0 -152 -112 -238 -276 -238h-164v684h-3l-383 -684h-76l415 743h115v-275h96zM621 65c126 0 203 62 203 171c0 110 -77 167 -203 167h-100v-338h100z" />
    <glyph glyph-name="uni0430" unicode="&#x430;" horiz-adv-x="651" 
d="M299 -11c-127 0 -245 108 -245 279c0 172 118 279 245 279c76 0 154 -37 197 -116l9 105h55v-536h-55l-9 105c-43 -79 -121 -116 -197 -116zM308 54c103 0 186 87 186 215c0 126 -83 213 -186 213c-104 0 -186 -85 -186 -214c0 -128 82 -214 186 -214z" />
    <glyph glyph-name="uni0431" unicode="&#x431;" horiz-adv-x="645" 
d="M340 531c153 0 250 -116 250 -271c0 -156 -106 -271 -255 -271c-162 0 -263 119 -263 325c1 302 91 393 259 444c74 22 166 36 225 46v-67c-49 -7 -150 -25 -216 -44c-121 -34 -184 -108 -199 -273c44 70 120 111 199 111zM333 54c112 0 190 85 190 206
c0 120 -76 206 -186 206c-113 0 -196 -85 -196 -197c0 -124 81 -215 192 -215z" />
    <glyph glyph-name="uni0432" unicode="&#x432;" horiz-adv-x="542" 
d="M383 277c63 -19 103 -68 103 -131c0 -91 -72 -146 -188 -146h-207v536h200c109 0 175 -51 175 -137c0 -56 -32 -103 -83 -122zM157 477v-174h128c70 0 115 29 115 90c0 60 -43 84 -120 84h-123zM286 59c83 0 132 28 132 94c0 62 -52 91 -132 91h-129v-185h129z" />
    <glyph glyph-name="uni0433" unicode="&#x433;" horiz-adv-x="415" 
d="M91 0v536h302v-60h-234v-476h-68z" />
    <glyph glyph-name="uni0434" unicode="&#x434;" horiz-adv-x="602" 
d="M485 61h75v-190h-66v129h-406v-129h-67v190h58c35 49 59 122 59 224v251h347v-475zM206 285c0 -107 -30 -185 -53 -224h265v415h-212v-191z" />
    <glyph glyph-name="uni0435" unicode="&#x435;" horiz-adv-x="584" 
d="M534 279c0 -14 -1 -25 -2 -36h-409c11 -117 88 -190 197 -190c62 0 127 23 185 76v-76c-55 -43 -118 -64 -188 -64c-159 0 -262 110 -262 277c0 175 120 281 254 281c124 0 225 -92 225 -268zM124 302h344c-3 126 -80 182 -160 182c-91 0 -172 -69 -184 -182z" />
    <glyph glyph-name="uni0451" unicode="&#x451;" horiz-adv-x="584" 
d="M209 649c-25 0 -46 20 -46 45s21 45 46 45c26 0 47 -20 47 -45s-21 -45 -47 -45zM405 649c-26 0 -46 20 -46 45s20 45 46 45s46 -20 46 -45s-20 -45 -46 -45zM534 279c0 -14 -1 -25 -2 -36h-409c11 -117 88 -190 197 -190c62 0 127 23 185 76v-76
c-55 -43 -118 -64 -188 -64c-159 0 -262 110 -262 277c0 175 120 281 254 281c124 0 225 -92 225 -268zM124 302h344c-3 126 -80 182 -160 182c-91 0 -172 -69 -184 -182z" />
    <glyph glyph-name="uni0436" unicode="&#x436;" horiz-adv-x="737" 
d="M725 0h-88l-231 269v-269h-68v270l-231 -270h-88l245 277l-238 259h88l224 -252v252h68v-251l223 251h88l-237 -259z" />
    <glyph glyph-name="uni0437" unicode="&#x437;" horiz-adv-x="483" 
d="M320 277c63 -15 107 -66 107 -134c0 -86 -76 -154 -195 -154c-72 0 -127 20 -180 58v80c40 -39 105 -74 181 -74s127 38 127 96c0 59 -49 94 -135 94h-82v61h85c74 0 115 40 115 98c0 53 -43 81 -116 81c-56 0 -118 -20 -164 -58v75c45 31 108 47 167 47
c115 0 181 -57 181 -141c0 -64 -43 -116 -91 -129z" />
    <glyph glyph-name="uni0438" unicode="&#x438;" horiz-adv-x="609" 
d="M91 0v535h66v-430h2l293 430h66v-535h-66v428h-1l-290 -428h-70z" />
    <glyph glyph-name="uni0439" unicode="&#x439;" horiz-adv-x="609" 
d="M457 778c1 -90 -69 -145 -151 -145c-83 0 -153 55 -152 145h66c1 -50 27 -94 86 -94c58 0 84 44 85 94h66zM91 0v535h66v-430h2l293 430h66v-535h-66v428h-1l-290 -428h-70z" />
    <glyph glyph-name="uni043A" unicode="&#x43a;" horiz-adv-x="511" 
d="M500 0h-90l-251 272v-272h-68v536h68v-254l244 254h89l-254 -259z" />
    <glyph glyph-name="uni043B" unicode="&#x43b;" horiz-adv-x="554" 
d="M17 -4v61c70 0 103 50 103 180v299h343v-536h-68v475h-207v-239c0 -164 -58 -240 -171 -240z" />
    <glyph glyph-name="uni043C" unicode="&#x43c;" horiz-adv-x="713" 
d="M64 0l59 535h78l155 -421h1l157 421h76l61 -535h-67l-45 419h-2l-153 -410h-56l-152 413h-2l-44 -422h-66z" />
    <glyph glyph-name="uni043D" unicode="&#x43d;" horiz-adv-x="598" 
d="M91 0v536h68v-234h280v234h68v-536h-68v241h-280v-241h-68z" />
    <glyph glyph-name="uni043E" unicode="&#x43e;" horiz-adv-x="631" 
d="M316 -11c-151 0 -262 119 -262 279c0 159 111 279 262 279c150 0 261 -120 261 -279s-111 -279 -261 -279zM316 54c99 0 193 78 193 214s-94 214 -193 214c-100 0 -194 -78 -194 -214c0 -137 95 -214 194 -214z" />
    <glyph glyph-name="uni043F" unicode="&#x43f;" horiz-adv-x="590" 
d="M91 0v536h408v-536h-68v475h-272v-475h-68z" />
    <glyph glyph-name="uni0440" unicode="&#x440;" horiz-adv-x="652" 
d="M92 -210v746h54l9 -105c43 79 120 116 196 116c128 0 246 -108 246 -278c0 -173 -118 -280 -246 -280c-75 0 -154 40 -191 110v-309h-68zM343 54c104 0 186 85 186 215c0 127 -82 213 -186 213c-103 0 -185 -87 -185 -214s82 -214 185 -214z" />
    <glyph glyph-name="uni0441" unicode="&#x441;" horiz-adv-x="520" 
d="M122 269c0 -136 97 -215 198 -215c45 0 101 10 146 45v-74c-38 -22 -87 -36 -146 -36c-153 0 -266 121 -266 280c0 156 113 278 266 278c56 0 104 -10 146 -38v-74c-45 34 -89 47 -147 47c-100 0 -197 -80 -197 -213z" />
    <glyph glyph-name="uni0442" unicode="&#x442;" horiz-adv-x="451" 
d="M192 0v475h-169v61h406v-61h-169v-475h-68z" />
    <glyph glyph-name="uni0443" unicode="&#x443;" horiz-adv-x="523" 
d="M496 536l-290 -746h-71l93 231l-199 515h75l159 -428h2l159 428h72z" />
    <glyph glyph-name="uni0444" unicode="&#x444;" horiz-adv-x="736" 
d="M682 268c0 -170 -129 -277 -281 -277v-201h-66v201c-152 0 -281 107 -281 277c0 169 128 276 281 276v254h66v-254c153 0 281 -107 281 -276zM122 268c0 -124 88 -215 213 -215v429c-125 0 -213 -91 -213 -214zM401 53c125 0 213 91 213 215c0 123 -88 214 -213 214v-429
z" />
    <glyph glyph-name="uni0445" unicode="&#x445;" horiz-adv-x="510" 
d="M478 536l-184 -264l190 -272h-78l-150 219h-1l-151 -219h-76l188 269l-186 267h77l147 -215h2l147 215h75z" />
    <glyph glyph-name="uni0447" unicode="&#x447;" horiz-adv-x="522" 
d="M363 536h68v-536h-68v219c-39 -13 -87 -23 -137 -23c-118 0 -177 58 -177 173v167h68v-152c0 -87 40 -125 128 -125c43 0 86 10 118 23v254z" />
    <glyph glyph-name="uni0446" unicode="&#x446;" horiz-adv-x="607" 
d="M491 61h75v-190h-67v129h-408v536h68v-475h264v475h68v-475z" />
    <glyph glyph-name="uni0448" unicode="&#x448;" horiz-adv-x="813" 
d="M653 535h68v-535h-630v535h68v-474h213v474h68v-474h213v474z" />
    <glyph glyph-name="uni0449" unicode="&#x449;" horiz-adv-x="833" 
d="M717 61h75v-190h-67v129h-634v535h68v-474h211v474h68v-474h211v474h68v-474z" />
    <glyph glyph-name="uni045F" unicode="&#x45f;" horiz-adv-x="583" 
d="M491 535v-535h-167v-129h-67v129h-166v535h68v-474h264v474h68z" />
    <glyph glyph-name="uni044C" unicode="&#x44c;" horiz-adv-x="498" 
d="M273 345c115 0 187 -72 187 -170c0 -99 -84 -175 -199 -175h-170v536h68v-191h114zM262 60c77 0 130 48 130 115c0 69 -44 110 -119 110h-114v-225h103z" />
    <glyph glyph-name="uni044A" unicode="&#x44a;" horiz-adv-x="580" 
d="M355 345c115 0 188 -72 188 -170c0 -99 -84 -175 -200 -175h-166v475h-153v61h221v-191h110zM344 60c77 0 131 48 131 115c0 69 -45 110 -120 110h-110v-225h99z" />
    <glyph glyph-name="uni044B" unicode="&#x44b;" horiz-adv-x="696" 
d="M267 345c115 0 187 -72 187 -170c0 -99 -83 -175 -199 -175h-164v536h68v-191h108zM536 536h68v-536h-68v536zM256 60c77 0 131 48 131 115c0 69 -45 110 -120 110h-108v-225h97z" />
    <glyph glyph-name="uni0459" unicode="&#x459;" horiz-adv-x="794" 
d="M569 345c115 0 187 -72 187 -170c0 -99 -84 -175 -199 -175h-163v475h-207l2 -235c1 -164 -58 -240 -171 -240v61c70 0 104 50 103 180l-2 295h342v-191h108zM558 60c77 0 130 48 130 115c0 69 -44 110 -120 110h-107v-225h97z" />
    <glyph glyph-name="uni045A" unicode="&#x45a;" horiz-adv-x="826" 
d="M602 323c115 0 187 -59 187 -157s-84 -166 -199 -166h-163v262h-268v-262h-68v536h68v-213h268v213h67v-213h108zM591 59c77 0 131 40 131 107c0 69 -45 97 -120 97h-108v-204h97z" />
    <glyph glyph-name="uni044D" unicode="&#x44d;" horiz-adv-x="531" 
d="M210 547c154 0 267 -111 267 -278c0 -171 -114 -280 -268 -280c-48 0 -109 9 -156 35v71c48 -33 112 -42 154 -42c113 0 192 72 202 188h-272v61h271c-11 111 -88 181 -199 181c-42 0 -105 -9 -156 -43v71c49 28 111 36 157 36z" />
    <glyph glyph-name="uni0458" unicode="&#x458;" horiz-adv-x="251" 
d="M125 677c-27 0 -46 19 -46 46c0 26 19 45 46 45c28 0 47 -19 47 -45c0 -27 -19 -46 -47 -46zM-8 -210c65 67 99 147 99 275v471h68v-472c0 -118 -23 -200 -82 -274h-85z" />
    <glyph glyph-name="uni045B" unicode="&#x45b;" horiz-adv-x="598" 
d="M317 547c119 0 196 -67 196 -195v-352h-68v326c0 105 -45 155 -137 155c-78 0 -150 -45 -150 -145v-336h-68v638h-78v60h78v100h68v-100h161v-60h-161v-172h2c31 49 90 81 157 81z" />
    <glyph glyph-name="uni044E" unicode="&#x44e;" horiz-adv-x="832" 
d="M522 544c137 0 255 -105 255 -276c0 -172 -119 -277 -255 -277c-128 0 -243 94 -255 249h-108v-240h-68v536h68v-236h108c14 152 127 244 255 244zM522 56c109 0 187 88 187 212s-78 211 -187 211c-110 0 -188 -88 -188 -211s79 -212 188 -212z" />
    <glyph glyph-name="uni044F" unicode="&#x44f;" horiz-adv-x="521" 
d="M249 536h180v-536h-68v239l-232 -239h-88l215 213h-20c-121 0 -179 69 -179 161c0 94 67 162 192 162zM248 270h113v206h-112c-86 0 -124 -41 -124 -103c0 -71 40 -103 123 -103z" />
    <glyph glyph-name="uni0452" unicode="&#x452;" horiz-adv-x="597" 
d="M317 547c119 0 196 -67 196 -195v-288c0 -118 -24 -200 -83 -274h-85c66 67 100 147 100 275v261c0 105 -45 155 -137 155c-78 0 -150 -45 -150 -145v-336h-68v638h-78v60h78v100h68v-100h161v-60h-161v-172h2c31 49 90 81 157 81z" />
    <glyph glyph-name="uni0432.BUL" horiz-adv-x="633" 
d="M395 437c112 -25 186 -109 186 -215c0 -136 -102 -233 -247 -233c-157 0 -252 102 -252 271v299c0 151 86 244 225 244c123 0 213 -78 215 -186c2 -86 -45 -152 -127 -180zM307 738c-103 0 -157 -61 -157 -176v-102h132c103 0 175 63 174 152c-1 75 -62 126 -149 126z
M334 54c107 0 179 70 179 173c0 99 -96 175 -221 174l-142 -1v-143c0 -130 66 -203 184 -203z" />
    <glyph glyph-name="uni0433.BUL" horiz-adv-x="481" 
d="M419 395c0 -93 -78 -119 -168 -147c-80 -25 -135 -44 -135 -104c0 -53 46 -91 125 -91c77 0 141 36 182 80v-81c-51 -43 -117 -63 -183 -63c-117 0 -191 61 -191 156c0 107 94 132 174 157c77 24 128 42 128 98c0 49 -42 83 -116 83c-64 0 -121 -24 -159 -58v75
c37 29 98 47 158 47c113 0 185 -64 185 -152z" />
    <glyph glyph-name="uni0434.BUL" horiz-adv-x="651" 
d="M299 546c76 0 154 -35 197 -108l9 98h54v-501c0 -172 -123 -256 -250 -256c-72 0 -144 26 -199 68v80c56 -52 124 -81 199 -81c96 0 182 68 182 175v93c-42 -68 -116 -106 -192 -106c-127 0 -245 108 -245 269s118 269 245 269zM308 481c-104 0 -186 -86 -186 -205
c0 -117 82 -204 186 -204c103 0 186 88 186 209c0 118 -83 200 -186 200z" />
    <glyph glyph-name="uni0436.BUL" horiz-adv-x="737" 
d="M725 0h-88l-231 269v-269h-68v270l-231 -270h-88l245 277l-238 259h88l224 -252v514h68v-513l223 251h88l-237 -259z" />
    <glyph glyph-name="uni0437.BUL" horiz-adv-x="504" 
d="M321 195c73 -18 128 -89 128 -193c0 -138 -95 -223 -227 -223c-77 0 -140 21 -181 53v73c37 -36 106 -61 177 -61c101 0 163 58 163 163c0 98 -64 156 -162 156h-133v62h140c81 0 141 52 141 131c0 82 -56 126 -150 126c-60 0 -133 -20 -172 -50v69c43 27 113 46 179 46
c125 0 211 -77 211 -186c0 -93 -56 -151 -114 -166z" />
    <glyph glyph-name="uni0438.BUL" horiz-adv-x="594" 
d="M266 -9c-110 0 -180 68 -180 183v361h68v-345c0 -89 50 -139 132 -139s149 49 149 140v344h68v-535h-54l-6 98h-2c-29 -68 -94 -107 -175 -107z" />
    <glyph glyph-name="uni0439.BUL" horiz-adv-x="594" 
d="M449 778c1 -90 -69 -145 -151 -145c-83 0 -153 55 -152 145h66c1 -50 27 -94 86 -94c58 0 84 44 85 94h66zM266 -9c-110 0 -180 68 -180 183v361h68v-345c0 -89 50 -139 132 -139s149 49 149 140v344h68v-535h-54l-6 98h-2c-29 -68 -94 -107 -175 -107z" />
    <glyph glyph-name="uni043A.BUL" horiz-adv-x="502" 
d="M159 743v-743h-68v743h68zM480 535l-247 -258l260 -277h-78l-255 276l245 259h75z" />
    <glyph glyph-name="uni043B.BUL" horiz-adv-x="545" 
d="M309 536l208 -536h-73l-172 457h-2l-171 -457h-71l207 536h74z" />
    <glyph glyph-name="uni043F.BUL" horiz-adv-x="598" 
d="M321 547c116 0 193 -76 193 -193v-354h-68v325c0 105 -48 155 -138 155c-83 0 -148 -62 -148 -149v-331h-68v536h52l9 -83h2c30 50 89 94 166 94z" />
    <glyph glyph-name="uni0442.BUL" horiz-adv-x="854" 
d="M600 547c117 0 169 -78 169 -188v-359h-68v351c0 83 -34 129 -113 129c-78 0 -124 -64 -124 -132v-348h-68v351c0 83 -34 129 -112 129c-81 0 -124 -67 -124 -137v-343h-68v536h52l9 -81h2c26 53 77 92 142 92c77 0 124 -34 149 -95c30 57 81 95 154 95z" />
    <glyph glyph-name="uni0446.BUL" horiz-adv-x="619" 
d="M503 61h76v-190h-67v129h-62l-8 84h-2c-30 -51 -88 -95 -165 -95c-116 0 -190 77 -190 193v354h68v-325c0 -104 45 -155 134 -155c84 0 148 62 148 149v331h68v-475z" />
    <glyph glyph-name="uni0448.BUL" horiz-adv-x="846" 
d="M251 -11c-117 0 -165 78 -165 189v358h68v-351c0 -83 31 -129 109 -129s123 64 123 132v348h68v-351c0 -83 32 -129 110 -129c80 0 123 67 123 137v343h68v-536h-53l-8 81h-2c-27 -53 -76 -92 -141 -92c-76 0 -121 34 -147 95c-30 -56 -80 -95 -153 -95z" />
    <glyph glyph-name="uni0449.BUL" horiz-adv-x="871" 
d="M755 61h76v-190h-67v129h-62l-8 81h-2c-26 -53 -76 -92 -141 -92c-76 0 -121 34 -147 95c-30 -56 -80 -95 -153 -95c-117 0 -165 78 -165 189v358h68v-351c0 -83 31 -129 109 -129s123 64 123 132v348h68v-351c0 -83 32 -129 110 -129c80 0 123 67 123 137v343h68v-475z
" />
    <glyph glyph-name="uni044C.BUL" horiz-adv-x="522" 
d="M273 360c137 0 208 -67 208 -184c0 -106 -76 -190 -199 -190c-132 0 -197 70 -197 190v360h68v-176h120zM282 49c79 0 131 50 131 127c0 85 -44 125 -141 125h-119v-126c0 -90 43 -126 129 -126z" />
    <glyph glyph-name="uni044A.BUL" horiz-adv-x="611" 
d="M363 360c137 0 208 -67 208 -184c0 -106 -76 -190 -199 -190c-132 0 -196 70 -196 190v299h-153v61h221v-176h119zM372 49c79 0 131 50 131 127c0 85 -44 125 -141 125h-118v-126c0 -90 42 -126 128 -126z" />
    <glyph glyph-name="uni044E.BUL" horiz-adv-x="842" 
d="M531 544c138 0 256 -104 256 -276c0 -173 -119 -277 -256 -277c-128 0 -243 93 -255 249h-117v-240h-68v798h68v-497h118c14 152 127 243 254 243zM531 56c110 0 188 87 188 212s-78 211 -188 211c-109 0 -188 -87 -188 -211s80 -212 188 -212z" />
    <glyph glyph-name="uni0431.SRB" horiz-adv-x="620" 
d="M350 518c137 -75 217 -150 217 -282c0 -140 -101 -247 -260 -247c-146 0 -254 93 -254 237c0 117 80 224 207 267c-87 50 -133 90 -133 162c0 90 77 148 206 148c61 0 135 -18 189 -39l-1 -70c-63 30 -136 44 -187 44c-79 0 -139 -24 -139 -83c0 -49 35 -72 155 -137z
M308 54c114 0 191 73 191 183c0 91 -46 151 -179 223c-117 -36 -199 -134 -199 -232c0 -106 74 -174 187 -174z" />
    <glyph glyph-name="uni0434.ss01" horiz-adv-x="634" 
d="M540 61h67v-190h-67v129h-446v-129h-66v190h66l186 475h74zM315 459l-151 -398h304l-151 398h-2z" />
    <glyph glyph-name="uni0459.ss01" horiz-adv-x="748" 
d="M523 345c116 0 188 -72 188 -170c0 -99 -84 -175 -200 -175h-163v477h-4l-267 -477h-73l302 536h110v-191h107zM512 60c77 0 131 48 131 115c0 69 -45 110 -120 110h-107v-225h96z" />
    <glyph glyph-name="uni0434.BUL.sc" horiz-adv-x="648" 
d="M547 65h74v-201h-65v136h-464v-136h-64v201h73l185 530h78zM326 528l-158 -463h312z" />
    <glyph glyph-name="uni043B.BUL.sc" horiz-adv-x="555" 
d="M28 0l211 595h78l209 -595h-69l-179 527l-181 -527h-69z" />
    <glyph glyph-name="uni0459.BUL.sc" horiz-adv-x="793" 
d="M525 382c145 0 224 -68 224 -183c0 -119 -87 -200 -225 -200h-145v544h-5l-300 -543h-71l333 595h109v-213h80zM524 63c100 0 158 51 158 134c0 79 -55 121 -157 121h-80v-255h79z" />
    <glyph glyph-name="uni0430.sc" horiz-adv-x="563" 
d="M466 0l-65 187h-240l-66 -187h-69l217 595h78l215 -595h-70zM183 247h197l-97 280h-1z" />
    <glyph glyph-name="uni0431.sc" horiz-adv-x="530" 
d="M254 369c144 0 223 -61 223 -176c0 -116 -86 -194 -224 -194h-153v596h337v-64h-271v-162h88zM253 62c99 0 158 48 158 129c0 79 -56 115 -157 115h-88v-244h87z" />
    <glyph glyph-name="uni0432.sc" horiz-adv-x="545" 
d="M380 308c71 -26 106 -72 106 -145c0 -101 -80 -163 -215 -163h-171v595h160c130 0 203 -56 203 -155c0 -62 -28 -107 -83 -132zM166 532v-200h104c78 -2 127 38 127 103c0 62 -46 97 -128 97h-103zM277 64c91 0 144 39 144 106c0 66 -51 103 -144 103h-111v-209h111z" />
    <glyph glyph-name="uni0433.sc" horiz-adv-x="437" 
d="M100 0v595h307v-65h-241v-530h-66z" />
    <glyph glyph-name="uni0434.sc" horiz-adv-x="629" 
d="M506 64h76v-200h-65v136h-430v-136h-64v200h66c27 36 60 89 60 240v291h357v-531zM214 302c0 -117 -19 -184 -53 -238h280v467h-227v-229z" />
    <glyph glyph-name="uni0435.sc" horiz-adv-x="489" 
d="M100 0v595h319v-64h-253v-196h235v-62h-235v-209h253v-64h-319z" />
    <glyph glyph-name="uni0451.sc" horiz-adv-x="489" 
d="M161 709c-25 0 -46 20 -46 45s21 45 46 45c26 0 47 -20 47 -45s-21 -45 -47 -45zM357 709c-26 0 -46 20 -46 45s20 45 46 45s46 -20 46 -45s-20 -45 -46 -45zM100 0v595h319v-64h-253v-196h235v-62h-235v-209h253v-64h-319z" />
    <glyph glyph-name="uni0436.sc" horiz-adv-x="764" 
d="M739 0h-80l-244 307v-307h-65v307l-244 -307h-80l251 310l-251 285h79l245 -281v281h65v-281l245 281h78l-250 -285z" />
    <glyph glyph-name="uni0437.sc" horiz-adv-x="485" 
d="M319 306c60 -17 100 -71 100 -139c0 -102 -81 -177 -195 -177c-61 0 -123 20 -167 56v82c47 -48 104 -74 163 -74c79 0 131 47 131 116c0 65 -50 104 -136 104h-79v61h86c73 0 122 43 122 107c0 59 -49 98 -125 98c-62 0 -106 -13 -152 -45v74c43 24 93 35 156 35
c110 0 188 -66 188 -160c0 -63 -39 -120 -92 -138z" />
    <glyph glyph-name="uni0438.sc" horiz-adv-x="662" 
d="M100 595h66v-496l325 496h71v-595h-65v498l-328 -498h-69v595z" />
    <glyph glyph-name="uni0439.sc" horiz-adv-x="662" 
d="M481 838c1 -90 -69 -145 -151 -145c-83 0 -153 55 -152 145h66c1 -50 27 -94 86 -94c58 0 84 44 85 94h66zM100 595h66v-496l325 496h71v-595h-65v498l-328 -498h-69v595z" />
    <glyph glyph-name="uni043A.sc" horiz-adv-x="526" 
d="M502 0h-82l-254 307v-307h-66v595h66v-281l255 281h80l-260 -285z" />
    <glyph glyph-name="uni043B.sc" horiz-adv-x="593" 
d="M15 -4v59c82 0 119 57 119 210v330h358v-595h-66v531h-225v-266c0 -187 -60 -269 -186 -269z" />
    <glyph glyph-name="uni043C.sc" horiz-adv-x="794" 
d="M197 510l-72 -510h-65l89 595h84l164 -506h2l162 506h86l88 -595h-65l-73 510h-2l-166 -510h-67l-163 510h-2z" />
    <glyph glyph-name="uni043D.sc" horiz-adv-x="654" 
d="M487 0v270h-321v-270h-66v595h66v-261h321v261h66v-595h-66z" />
    <glyph glyph-name="uni043E.sc" horiz-adv-x="705" 
d="M352 604c154 0 294 -121 294 -307s-140 -306 -294 -306s-293 120 -293 306s139 307 293 307zM352 539c-113 0 -225 -88 -225 -242s112 -241 225 -241s226 87 226 241s-113 242 -226 242z" />
    <glyph glyph-name="uni043F.sc" horiz-adv-x="641" 
d="M475 0v531h-309v-531h-66v595h441v-595h-66z" />
    <glyph glyph-name="uni0440.sc" horiz-adv-x="508" 
d="M100 595h132c143 0 232 -72 232 -191c0 -120 -91 -204 -233 -204h-65v-200h-66v595zM233 264c111 0 163 59 163 139c0 77 -53 127 -163 127h-67v-266h67z" />
    <glyph glyph-name="uni0441.sc" horiz-adv-x="524" 
d="M475 16c-37 -17 -83 -25 -129 -25c-152 0 -286 118 -286 306s134 307 287 307c49 0 94 -10 128 -26v-68c-42 20 -79 29 -123 29c-129 0 -224 -97 -224 -242s95 -241 224 -241c44 0 81 9 123 27v-67z" />
    <glyph glyph-name="uni0442.sc" horiz-adv-x="512" 
d="M223 0v530h-193v65h452v-65h-193v-530h-66z" />
    <glyph glyph-name="uni0443.sc" horiz-adv-x="532" 
d="M456 595h65l-198 -447c-47 -107 -115 -152 -213 -152v59c67 0 110 27 145 94l-246 446h73l207 -388z" />
    <glyph glyph-name="uni0444.sc" horiz-adv-x="740" 
d="M402 563c164 0 284 -102 284 -257s-120 -258 -284 -258v-60h-65v60c-163 0 -283 103 -283 258s120 257 283 257v60h65v-60zM337 109v393c-130 0 -216 -80 -216 -196s86 -197 216 -197zM402 109c131 0 217 81 217 197s-86 196 -217 196v-393z" />
    <glyph glyph-name="uni0445.sc" horiz-adv-x="530" 
d="M494 595l-191 -294l196 -301h-75l-159 251l-160 -251h-73l193 299l-189 296h73l154 -246l156 246h75z" />
    <glyph glyph-name="uni0447.sc" horiz-adv-x="549" 
d="M382 595h66v-595h-66v257c-41 -14 -94 -27 -150 -27c-117 0 -177 57 -177 173v192h66v-179c0 -87 41 -121 129 -121c50 0 99 11 132 26v274z" />
    <glyph glyph-name="uni0446.sc" horiz-adv-x="646" 
d="M523 64h76v-200h-65v136h-434v595h66v-531h291v531h66v-531z" />
    <glyph glyph-name="uni0448.sc" horiz-adv-x="835" 
d="M669 595h66v-595h-635v595h66v-531h219v531h66v-531h218v531z" />
    <glyph glyph-name="uni0449.sc" horiz-adv-x="854" 
d="M731 64h76v-200h-65v136h-642v595h66v-531h217v531h66v-531h217v531h65v-531z" />
    <glyph glyph-name="uni045F.sc" horiz-adv-x="624" 
d="M523 595v-595h-179v-136h-64v136h-180v595h66v-531h291v531h66z" />
    <glyph glyph-name="uni044C.sc" horiz-adv-x="522" 
d="M254 382c144 0 224 -68 224 -183c0 -119 -87 -200 -225 -200h-153v596h66v-213h88zM253 63c99 0 158 51 158 134c0 79 -56 121 -157 121h-88v-255h87z" />
    <glyph glyph-name="uni044A.sc" horiz-adv-x="623" 
d="M355 382c144 0 224 -68 224 -183c0 -119 -87 -200 -225 -200h-151v531h-173v65h239v-213h86zM354 63c99 0 158 51 158 134c0 79 -56 121 -157 121h-86v-255h85z" />
    <glyph glyph-name="uni044B.sc" horiz-adv-x="717" 
d="M247 382c144 0 224 -68 224 -183c0 -119 -87 -200 -225 -200h-146v596h66v-213h81zM551 595h66v-595h-66v595zM246 63c99 0 158 51 158 134c0 79 -56 121 -157 121h-81v-255h80z" />
    <glyph glyph-name="uni0459.sc" horiz-adv-x="839" 
d="M572 382c144 0 223 -68 223 -183c0 -119 -87 -200 -224 -200h-146v532h-225v-266c0 -187 -59 -269 -185 -269v59c82 0 119 56 119 209v331h357v-213h81zM571 63c99 0 158 51 158 134c0 79 -56 121 -157 121h-81v-255h80z" />
    <glyph glyph-name="uni045A.sc" horiz-adv-x="886" 
d="M620 358c144 0 223 -60 223 -170c0 -113 -87 -189 -224 -189h-152v294h-301v-293h-66v595h66v-237h301v237h65v-237h88zM619 63c99 0 158 45 158 123c0 74 -56 108 -157 108h-88v-231h87z" />
    <glyph glyph-name="uni044D.sc" horiz-adv-x="578" 
d="M224 604c158 0 295 -111 295 -306c0 -196 -137 -307 -296 -307c-59 0 -113 12 -166 36v69c56 -29 106 -41 163 -41c131 0 220 85 230 215h-298v62h297c-12 125 -100 208 -226 208c-58 0 -114 -12 -166 -38v68c51 23 105 34 167 34z" />
    <glyph glyph-name="uni0458.sc" horiz-adv-x="370" 
d="M32 75c23 -13 45 -19 74 -19c63 0 104 44 104 128v411h66v-413c0 -118 -67 -191 -168 -191c-28 0 -53 6 -76 17v67z" />
    <glyph glyph-name="uni045B.sc" horiz-adv-x="633" 
d="M399 368c117 0 178 -57 178 -172v-196h-66v183c0 87 -42 121 -130 121c-50 0 -102 -12 -135 -26v-278h-66v530h-149v65h444v-65h-229v-189c42 14 97 27 153 27z" />
    <glyph glyph-name="uni044E.sc" horiz-adv-x="904" 
d="M560 604c154 0 284 -121 284 -307s-130 -306 -284 -306c-143 0 -265 105 -280 270h-114v-261h-66v595h66v-270h113c12 170 136 279 281 279zM560 56c115 0 217 87 217 241s-102 243 -217 243c-114 0 -215 -89 -215 -243s101 -241 215 -241z" />
    <glyph glyph-name="uni044F.sc" horiz-adv-x="529" 
d="M277 595h152v-595h-66v262l-237 -262h-84l223 239c-145 5 -200 84 -200 174c0 120 82 182 212 182zM280 300h83v231h-86c-99 0 -144 -41 -144 -119c0 -75 50 -112 147 -112z" />
    <glyph glyph-name="uni0452.sc" horiz-adv-x="629" 
d="M394 368c110 0 191 -60 191 -178c0 -111 -81 -190 -192 -190h-16v63h15c71 0 125 48 125 126s-47 115 -127 115c-55 0 -109 -12 -145 -26v-278h-65v530h-149v65h444v-65h-230v-189c41 14 93 27 149 27z" />
    <glyph glyph-name="Alpha" unicode="&#x391;" horiz-adv-x="699" 
d="M685 0h-75l-95 241h-332l-95 -241h-74l297 743h76zM349 662l-141 -355h282z" />
    <glyph glyph-name="Beta" unicode="&#x392;" horiz-adv-x="639" 
d="M441 385c91 -29 138 -94 138 -182c0 -111 -84 -203 -250 -203h-220v743h208c155 0 236 -81 236 -190c0 -90 -48 -144 -112 -168zM177 678v-266h141c106 0 166 57 166 136c0 83 -61 130 -157 130h-150zM330 65c116 0 179 59 179 142c0 91 -75 141 -173 141h-159v-283h153z
" />
    <glyph glyph-name="Gamma" unicode="&#x393;" horiz-adv-x="507" 
d="M109 0v743h376v-65h-308v-678h-68z" />
    <glyph glyph-name="uni0394" unicode="&#x394;" horiz-adv-x="693" 
d="M15 0l293 743h77l293 -743h-663zM113 65h466l-233 599z" />
    <glyph glyph-name="Epsilon" unicode="&#x395;" horiz-adv-x="568" 
d="M109 0v743h387v-65h-319v-266h297v-64h-297v-283h319v-65h-387z" />
    <glyph glyph-name="Zeta" unicode="&#x396;" horiz-adv-x="581" 
d="M554 743l-413 -678h389v-65h-506l414 678h-382v65h498z" />
    <glyph glyph-name="Eta" unicode="&#x397;" horiz-adv-x="780" 
d="M602 0v346h-425v-346h-68v743h68v-332h425v332h69v-743h-69z" />
    <glyph glyph-name="Theta" unicode="&#x398;" horiz-adv-x="847" 
d="M424 -14c-211 0 -365 166 -365 385c0 218 154 386 365 386c210 0 364 -168 364 -386s-154 -385 -364 -385zM424 52c151 0 293 118 293 319c0 202 -142 320 -293 320c-153 0 -294 -118 -294 -320c0 -203 142 -319 294 -319zM242 342v64h362v-64h-362z" />
    <glyph glyph-name="Iota" unicode="&#x399;" horiz-adv-x="287" 
d="M109 0v743h68v-743h-68z" />
    <glyph glyph-name="Kappa" unicode="&#x39a;" horiz-adv-x="642" 
d="M631 0h-93l-361 368v-368h-68v743h68v-367l360 367h90l-367 -371z" />
    <glyph glyph-name="Lambda" unicode="&#x39b;" horiz-adv-x="675" 
d="M16 0l283 743h76l283 -743h-75l-246 663l-246 -663h-75z" />
    <glyph glyph-name="Mu" unicode="&#x39c;" horiz-adv-x="963" 
d="M224 636l-98 -636h-69l117 743h85l224 -641h1l218 641h88l116 -743h-70l-99 642h-2l-221 -642h-64l-224 636h-2z" />
    <glyph glyph-name="Nu" unicode="&#x39d;" horiz-adv-x="789" 
d="M680 743v-743h-62l-440 632h-1v-632h-68v743h72l430 -621h1v621h68z" />
    <glyph glyph-name="Xi" unicode="&#x39e;" horiz-adv-x="630" 
d="M57 743h516v-67h-516v67zM108 409h414v-66h-414v66zM57 67h516v-67h-516v67z" />
    <glyph glyph-name="Omicron" unicode="&#x39f;" horiz-adv-x="846" 
d="M424 -14c-211 0 -365 166 -365 385c0 218 154 386 365 386c210 0 363 -168 363 -386s-153 -385 -363 -385zM424 52c151 0 292 118 292 319c0 202 -141 320 -292 320c-153 0 -294 -118 -294 -320c0 -203 143 -319 294 -319z" />
    <glyph glyph-name="Pi" unicode="&#x3a0;" horiz-adv-x="752" 
d="M575 0v678h-398v-678h-68v743h534v-743h-68z" />
    <glyph glyph-name="Rho" unicode="&#x3a1;" horiz-adv-x="598" 
d="M109 0v743h169c166 0 279 -86 279 -235c0 -151 -112 -242 -278 -242h-102v-266h-68zM283 332c127 0 204 65 204 175s-77 171 -204 171h-106v-346h106z" />
    <glyph glyph-name="Sigma" unicode="&#x3a3;" horiz-adv-x="578" 
d="M138 65h393v-65h-503l211 374l-203 369h485v-65h-372v-1l166 -300l-177 -311v-1z" />
    <glyph glyph-name="Tau" unicode="&#x3a4;" horiz-adv-x="595" 
d="M263 0v678h-240v65h549v-65h-240v-678h-69z" />
    <glyph glyph-name="Upsilon" unicode="&#x3a5;" horiz-adv-x="634" 
d="M285 0v320l-274 423h78l228 -358h1l226 358h77l-270 -422v-321h-66z" />
    <glyph glyph-name="Phi" unicode="&#x3a6;" horiz-adv-x="854" 
d="M461 716c190 0 339 -139 339 -334s-149 -334 -339 -334v-73h-68v73c-189 0 -339 139 -339 334s150 334 339 334v72h68v-72zM393 112v540c-155 0 -269 -115 -269 -270s114 -270 269 -270zM461 112c156 0 269 115 269 270s-113 270 -269 270v-540z" />
    <glyph glyph-name="Chi" unicode="&#x3a7;" horiz-adv-x="643" 
d="M22 0l258 374l-252 369h79l215 -316l216 316h77l-252 -367l259 -376h-79l-221 321l-222 -321h-78z" />
    <glyph glyph-name="Psi" unicode="&#x3a8;" horiz-adv-x="811" 
d="M677 743h68v-282c0 -178 -121 -288 -305 -288v-173h-69v173c-184 0 -305 110 -305 288v282h68v-282c0 -141 87 -224 237 -224v506h69v-506c150 0 237 83 237 224v282z" />
    <glyph glyph-name="uni03A9" unicode="&#x3a9;" horiz-adv-x="858" 
d="M619 64h182v-64h-296v51c104 54 205 178 205 337c2 180 -117 304 -282 304c-166 0 -282 -124 -281 -304c0 -159 102 -283 206 -337v-51h-296v64h182c-88 63 -163 176 -164 328c-1 215 147 365 353 365s354 -150 354 -365c0 -152 -75 -265 -163 -328z" />
    <glyph glyph-name="Alphatonos" unicode="&#x386;" horiz-adv-x="719" 
d="M135 747h69l-65 -221h-51zM705 0h-75l-95 241h-332l-95 -241h-74l297 743h76zM369 662l-141 -355h282z" />
    <glyph glyph-name="Epsilontonos" unicode="&#x388;" horiz-adv-x="667" 
d="M68 747h69l-65 -221h-51zM209 0v743h387v-65h-319v-266h297v-64h-297v-283h319v-65h-387z" />
    <glyph glyph-name="Etatonos" unicode="&#x389;" horiz-adv-x="880" 
d="M68 747h69l-65 -221h-51zM702 0v346h-425v-346h-68v743h68v-332h425v332h69v-743h-69z" />
    <glyph glyph-name="Iotatonos" unicode="&#x38a;" horiz-adv-x="386" 
d="M68 747h69l-65 -221h-51zM209 0v743h68v-743h-68z" />
    <glyph glyph-name="Omicrontonos" unicode="&#x38c;" horiz-adv-x="924" 
d="M502 -14c-211 0 -365 166 -365 385c0 218 154 386 365 386c210 0 363 -168 363 -386s-153 -385 -363 -385zM89 747h69l-65 -221h-51zM502 52c151 0 292 118 292 319c0 202 -141 320 -292 320c-153 0 -294 -118 -294 -320c0 -203 143 -319 294 -319z" />
    <glyph glyph-name="Upsilontonos" unicode="&#x38e;" horiz-adv-x="810" 
d="M87 747h69l-65 -221h-51zM461 0v320l-274 423h78l228 -358h1l226 358h77l-270 -422v-321h-66z" />
    <glyph glyph-name="Omegatonos" unicode="&#x38f;" horiz-adv-x="925" 
d="M686 64h182v-64h-296v51c104 54 205 178 205 337c2 180 -117 304 -282 304c-166 0 -282 -124 -281 -304c0 -159 102 -283 206 -337v-51h-296v64h182c-88 63 -163 176 -164 328c-1 215 147 365 353 365s354 -150 354 -365c0 -152 -75 -265 -163 -328zM79 747h69l-65 -221
h-51z" />
    <glyph glyph-name="Iotadieresis" unicode="&#x3aa;" horiz-adv-x="287" 
d="M46 857c-25 0 -46 20 -46 45s21 45 46 45c26 0 47 -20 47 -45s-21 -45 -47 -45zM242 857c-26 0 -46 20 -46 45s20 45 46 45s46 -20 46 -45s-20 -45 -46 -45zM109 0v743h68v-743h-68z" />
    <glyph glyph-name="Upsilondieresis" unicode="&#x3ab;" horiz-adv-x="634" 
d="M220 857c-25 0 -46 20 -46 45s21 45 46 45c26 0 47 -20 47 -45s-21 -45 -47 -45zM416 857c-26 0 -46 20 -46 45s20 45 46 45s46 -20 46 -45s-20 -45 -46 -45zM285 0v320l-274 423h78l228 -358h1l226 358h77l-270 -422v-321h-66z" />
    <glyph glyph-name="alpha" unicode="&#x3b1;" horiz-adv-x="667" 
d="M605 55c8 0 16 1 21 2v-59c-8 -2 -20 -3 -32 -3c-63 0 -102 35 -107 102c-47 -74 -120 -108 -191 -108c-126 0 -241 107 -241 279s115 279 242 279c73 0 149 -35 191 -114h1l9 103h54v-421c0 -45 17 -60 53 -60zM305 54c101 0 181 87 181 215c0 126 -80 213 -181 213
c-102 0 -182 -85 -182 -214c0 -128 80 -214 182 -214z" />
    <glyph glyph-name="beta" unicode="&#x3b2;" horiz-adv-x="651" 
d="M425 432c106 -29 174 -110 174 -216c0 -128 -99 -226 -241 -226c-94 0 -170 39 -202 80v-280h-67v771c0 144 94 242 235 242c128 0 213 -78 213 -195c0 -78 -44 -145 -112 -176zM353 54c107 0 178 67 178 168c0 104 -81 173 -203 173h-57v61h41c97 0 158 60 158 150
c0 85 -54 132 -146 132c-102 0 -168 -68 -168 -174v-423c40 -54 119 -87 197 -87z" />
    <glyph glyph-name="gamma" unicode="&#x3b3;" horiz-adv-x="555" 
d="M503 536c0 -176 -85 -383 -201 -517v-229h-68v217l-215 529h71l179 -457h3c78 88 164 285 164 457h67z" />
    <glyph glyph-name="delta" unicode="&#x3b4;" horiz-adv-x="620" 
d="M350 518c137 -75 217 -150 217 -282c0 -140 -101 -247 -260 -247c-146 0 -254 93 -254 237c0 117 80 224 207 267c-87 50 -133 90 -133 162c0 90 77 148 206 148c61 0 135 -18 189 -39l-1 -70c-63 30 -136 44 -187 44c-79 0 -139 -24 -139 -83c0 -49 35 -72 155 -137z
M308 54c114 0 191 73 191 183c0 91 -46 151 -179 223c-117 -36 -199 -134 -199 -232c0 -106 74 -174 187 -174z" />
    <glyph glyph-name="epsilon" unicode="&#x3b5;" horiz-adv-x="501" 
d="M270 53c69 0 127 15 180 40v-67c-50 -22 -115 -37 -182 -37c-134 0 -212 57 -212 154c0 61 47 113 105 132c-54 18 -89 70 -89 125c0 92 73 147 196 147c61 0 136 -16 176 -38v-67c-40 24 -115 41 -175 41c-85 0 -129 -29 -129 -85s49 -94 120 -94h119v-61h-116
c-77 0 -139 -37 -139 -98s50 -92 146 -92z" />
    <glyph glyph-name="zeta" unicode="&#x3b6;" horiz-adv-x="471" 
d="M459 756c-218 -212 -339 -389 -339 -497c0 -72 29 -105 123 -146l117 -48c63 -26 95 -67 95 -123c0 -48 -17 -91 -60 -152h-80c48 56 72 105 72 147c0 33 -20 54 -73 76l-104 43c-111 46 -158 105 -158 199c0 117 90 261 297 479h-261v64h371v-42z" />
    <glyph glyph-name="eta" unicode="&#x3b7;" horiz-adv-x="613" 
d="M336 547c116 0 193 -76 193 -193v-564h-68v535c0 105 -48 155 -138 155c-83 0 -148 -62 -148 -149v-331h-68v424c0 45 -15 59 -51 59c-8 0 -16 -1 -22 -2v60c8 2 21 3 33 3c58 0 96 -30 105 -89c31 49 89 92 164 92z" />
    <glyph glyph-name="theta" unicode="&#x3b8;" horiz-adv-x="649" 
d="M325 800c157 0 261 -149 261 -403c0 -258 -102 -408 -261 -408c-158 0 -261 150 -261 408c0 254 104 403 261 403zM325 735c-112 0 -186 -110 -193 -303h386c-8 193 -82 303 -193 303zM325 53c114 0 188 113 194 317h-388c6 -203 80 -317 194 -317z" />
    <glyph glyph-name="iota" unicode="&#x3b9;" horiz-adv-x="327" 
d="M262 -5c-106 0 -175 50 -175 174v367h68v-360c0 -84 34 -120 116 -120c17 0 33 2 50 5v-60c-17 -4 -37 -6 -59 -6z" />
    <glyph glyph-name="kappa" unicode="&#x3ba;" horiz-adv-x="567" 
d="M467 0l-182 261l-128 -147v-114h-68v536h68v-334l295 334h81l-201 -228l216 -308h-81z" />
    <glyph glyph-name="lambda" unicode="&#x3bb;" horiz-adv-x="553" 
d="M522 0h-71l-168 449h-3l-187 -449h-73l228 529l-56 144c-19 47 -43 67 -88 67c-15 0 -29 -2 -39 -5v59c14 4 32 6 50 6c67 0 109 -29 135 -98z" />
    <glyph glyph-name="uni03BC" unicode="&#x3bc;" horiz-adv-x="619" 
d="M565 55c8 0 16 1 21 2v-59c-7 -2 -20 -3 -32 -3c-56 0 -93 28 -104 82c-27 -48 -85 -86 -154 -86c-61 0 -116 28 -142 74l3 -275h-68v746h68v-331c0 -92 55 -147 143 -147c86 0 144 50 144 152v326h68v-421c0 -45 17 -60 53 -60z" />
    <glyph glyph-name="nu" unicode="&#x3bd;" horiz-adv-x="549" 
d="M224 0l-203 536h71l174 -470h2c84 99 162 307 162 470h67c0 -181 -87 -403 -207 -536h-66z" />
    <glyph glyph-name="xi" unicode="&#x3be;" horiz-adv-x="512" 
d="M311 736c-107 0 -166 -46 -166 -127c0 -87 62 -139 167 -139h92v-64h-89c-116 0 -196 -61 -196 -151c0 -64 31 -100 117 -136l130 -54c63 -26 95 -67 95 -123c0 -48 -17 -91 -60 -152h-80c48 57 72 105 72 147c0 33 -20 54 -72 76l-114 47c-110 45 -156 101 -156 187
c0 85 56 161 137 192c-68 30 -111 95 -111 170c0 119 88 192 233 192c60 0 134 -16 173 -37v-69c-43 23 -117 41 -172 41z" />
    <glyph glyph-name="omicron" unicode="&#x3bf;" horiz-adv-x="631" 
d="M316 -11c-151 0 -262 119 -262 279c0 159 111 279 262 279c150 0 261 -120 261 -279s-111 -279 -261 -279zM316 54c99 0 193 78 193 214s-94 214 -193 214c-100 0 -194 -78 -194 -214c0 -137 95 -214 194 -214z" />
    <glyph glyph-name="rho" unicode="&#x3c1;" horiz-adv-x="637" 
d="M77 -210v451c0 190 95 306 251 306c145 0 255 -119 255 -279c0 -159 -107 -279 -247 -279c-79 0 -155 43 -190 109h-1v-308h-68zM330 54c108 0 185 90 185 215c0 122 -79 213 -187 213s-183 -91 -183 -221c0 -118 80 -207 185 -207z" />
    <glyph glyph-name="uni03C2" unicode="&#x3c2;" horiz-adv-x="504" 
d="M310 -210c49 58 71 106 71 147c0 33 -18 54 -72 76l-100 42c-106 44 -156 117 -156 220c0 157 113 272 266 272c60 0 107 -12 146 -38v-74c-43 33 -86 47 -147 47c-112 0 -197 -88 -197 -206c0 -77 34 -129 118 -163l115 -48c64 -27 96 -67 96 -123
c0 -49 -18 -92 -60 -152h-80z" />
    <glyph glyph-name="sigma" unicode="&#x3c3;" horiz-adv-x="648" 
d="M633 536v-62h-173c70 -49 108 -124 108 -214c0 -155 -110 -271 -256 -271c-148 0 -258 116 -258 273s110 273 257 274h322zM500 265c0 117 -79 206 -188 206c-110 0 -190 -89 -190 -209s81 -208 190 -208c108 0 188 88 188 211z" />
    <glyph glyph-name="tau" unicode="&#x3c4;" horiz-adv-x="518" 
d="M485 474h-217v-291c0 -96 43 -127 123 -127c17 0 36 2 51 5v-60c-15 -4 -40 -6 -62 -6c-113 0 -180 52 -180 177v302h-178v62h463v-62z" />
    <glyph glyph-name="upsilon" unicode="&#x3c5;" horiz-adv-x="584" 
d="M293 -11c-133 0 -210 78 -210 214v333h68v-331c0 -101 48 -151 143 -151c105 0 160 73 160 213c0 98 -23 193 -65 269h72c41 -77 61 -167 61 -271c0 -174 -85 -276 -229 -276z" />
    <glyph glyph-name="phi" unicode="&#x3c6;" horiz-adv-x="745" 
d="M691 268c0 -169 -119 -276 -284 -277v-201h-68v201c-165 1 -285 108 -285 277c0 168 119 275 285 276v155h68v-155c165 -1 284 -108 284 -276zM122 268c0 -130 85 -214 217 -215v429c-132 -1 -217 -85 -217 -214zM407 53c131 1 216 85 216 215c0 129 -85 213 -216 214
v-429z" />
    <glyph glyph-name="chi" unicode="&#x3c7;" horiz-adv-x="493" 
d="M479 -210h-72l-162 306l-147 -306h-70l184 369l-200 377h72l167 -315l152 315h70l-188 -379z" />
    <glyph glyph-name="psi" unicode="&#x3c8;" horiz-adv-x="733" 
d="M672 274c0 -176 -102 -282 -269 -285v-207h-68v207c-165 1 -252 82 -252 233v314h67v-314c0 -114 59 -167 185 -168v645h68v-645c129 3 201 81 201 220c0 98 -19 186 -58 262h71c37 -80 55 -166 55 -262z" />
    <glyph glyph-name="omega" unicode="&#x3c9;" horiz-adv-x="830" 
d="M692 536c49 -82 78 -189 78 -292c0 -159 -70 -253 -190 -253c-82 0 -138 44 -165 128c-27 -85 -83 -128 -165 -128c-120 0 -190 94 -190 253c0 105 29 212 79 292h71c-52 -82 -82 -188 -82 -292c0 -123 42 -188 123 -188c82 0 130 68 130 187v162h68v-162
c0 -119 48 -187 130 -187c81 0 123 64 123 188c0 105 -30 211 -81 292h71z" />
    <glyph glyph-name="iotatonos" unicode="&#x3af;" horiz-adv-x="327" 
d="M162 854h68l-85 -221h-50zM262 -5c-106 0 -175 50 -175 174v367h68v-360c0 -84 34 -120 116 -120c17 0 33 2 50 5v-60c-17 -4 -37 -6 -59 -6z" />
    <glyph glyph-name="iotadieresis" unicode="&#x3ca;" horiz-adv-x="327" 
d="M32 649c-25 0 -46 20 -46 45s21 45 46 45c26 0 47 -20 47 -45s-21 -45 -47 -45zM228 649c-26 0 -46 20 -46 45s20 45 46 45s46 -20 46 -45s-20 -45 -46 -45zM262 -5c-106 0 -175 50 -175 174v367h68v-360c0 -84 34 -120 116 -120c17 0 33 2 50 5v-60
c-17 -4 -37 -6 -59 -6z" />
    <glyph glyph-name="iotadieresistonos" unicode="&#x390;" horiz-adv-x="327" 
d="M82 633l67 221h68l-85 -221h-50zM10 649c-24 0 -45 20 -45 45c0 24 21 44 45 44c26 0 46 -20 46 -44c0 -25 -20 -45 -46 -45zM247 649c-25 0 -45 20 -45 45c0 24 20 44 45 44c26 0 45 -20 45 -44c0 -25 -19 -45 -45 -45zM262 -5c-106 0 -175 50 -175 174v367h68v-360
c0 -84 34 -120 116 -120c17 0 33 2 50 5v-60c-17 -4 -37 -6 -59 -6z" />
    <glyph glyph-name="upsilontonos" unicode="&#x3cd;" horiz-adv-x="584" 
d="M311 854h68l-85 -221h-50zM293 -11c-133 0 -210 78 -210 214v333h68v-331c0 -101 48 -151 143 -151c105 0 160 73 160 213c0 98 -23 193 -65 269h72c41 -77 61 -167 61 -271c0 -174 -85 -276 -229 -276z" />
    <glyph glyph-name="upsilondieresis" unicode="&#x3cb;" horiz-adv-x="584" 
d="M180 649c-25 0 -46 20 -46 45s21 45 46 45c26 0 47 -20 47 -45s-21 -45 -47 -45zM376 649c-26 0 -46 20 -46 45s20 45 46 45s46 -20 46 -45s-20 -45 -46 -45zM293 -11c-133 0 -210 78 -210 214v333h68v-331c0 -101 48 -151 143 -151c105 0 160 73 160 213
c0 98 -23 193 -65 269h72c41 -77 61 -167 61 -271c0 -174 -85 -276 -229 -276z" />
    <glyph glyph-name="upsilondieresistonos" unicode="&#x3b0;" horiz-adv-x="584" 
d="M232 633l67 221h68l-85 -221h-50zM160 649c-24 0 -45 20 -45 45c0 24 21 44 45 44c26 0 46 -20 46 -44c0 -25 -20 -45 -46 -45zM397 649c-25 0 -45 20 -45 45c0 24 20 44 45 44c26 0 45 -20 45 -44c0 -25 -19 -45 -45 -45zM293 -11c-133 0 -210 78 -210 214v333h68v-331
c0 -101 48 -151 143 -151c105 0 160 73 160 213c0 98 -23 193 -65 269h72c41 -77 61 -167 61 -271c0 -174 -85 -276 -229 -276z" />
    <glyph glyph-name="omicrontonos" unicode="&#x3cc;" horiz-adv-x="631" 
d="M347 854h68l-85 -221h-50zM316 -11c-151 0 -262 119 -262 279c0 159 111 279 262 279c150 0 261 -120 261 -279s-111 -279 -261 -279zM316 54c99 0 193 78 193 214s-94 214 -193 214c-100 0 -194 -78 -194 -214c0 -137 95 -214 194 -214z" />
    <glyph glyph-name="omegatonos" unicode="&#x3ce;" horiz-adv-x="830" 
d="M518 854l-85 -221h-50l67 221h68zM692 536c49 -82 78 -189 78 -292c0 -159 -70 -253 -190 -253c-82 0 -138 44 -165 128c-27 -85 -83 -128 -165 -128c-120 0 -190 94 -190 253c0 105 29 212 79 292h71c-52 -82 -82 -188 -82 -292c0 -123 42 -188 123 -188
c82 0 130 68 130 187v162h68v-162c0 -119 48 -187 130 -187c81 0 123 64 123 188c0 105 -30 211 -81 292h71z" />
    <glyph glyph-name="alphatonos" unicode="&#x3ac;" horiz-adv-x="667" 
d="M441 854l-85 -221h-50l67 221h68zM605 55c8 0 16 1 21 2v-59c-8 -2 -20 -3 -32 -3c-63 0 -102 35 -107 102c-47 -74 -120 -108 -191 -108c-126 0 -241 107 -241 279s115 279 242 279c73 0 149 -35 191 -114h1l9 103h54v-421c0 -45 17 -60 53 -60zM305 54
c101 0 181 87 181 215c0 126 -80 213 -181 213c-102 0 -182 -85 -182 -214c0 -128 80 -214 182 -214z" />
    <glyph glyph-name="epsilontonos" unicode="&#x3ad;" horiz-adv-x="501" 
d="M368 854l-85 -221h-50l67 221h68zM270 53c69 0 127 15 180 40v-67c-50 -22 -115 -37 -182 -37c-134 0 -212 57 -212 154c0 61 47 113 105 132c-54 18 -89 70 -89 125c0 92 73 147 196 147c61 0 136 -16 176 -38v-67c-40 24 -115 41 -175 41c-85 0 -129 -29 -129 -85
s49 -94 120 -94h119v-61h-116c-77 0 -139 -37 -139 -98s50 -92 146 -92z" />
    <glyph glyph-name="etatonos" unicode="&#x3ae;" horiz-adv-x="613" 
d="M397 854l-85 -221h-50l67 221h68zM336 547c116 0 193 -76 193 -193v-564h-68v535c0 105 -48 155 -138 155c-83 0 -148 -62 -148 -149v-331h-68v424c0 45 -15 59 -51 59c-8 0 -16 -1 -22 -2v60c8 2 21 3 33 3c58 0 96 -30 105 -89c31 49 89 92 164 92z" />
    <glyph glyph-name="iotadieresistonos.001" horiz-adv-x="327" 
d="M105 633l67 221h68l-85 -221h-50zM33 649c-24 0 -45 20 -45 45c0 24 21 44 45 44c26 0 46 -20 46 -44c0 -25 -20 -45 -46 -45zM270 649c-25 0 -45 20 -45 45c0 24 20 44 45 44c26 0 45 -20 45 -44c0 -25 -19 -45 -45 -45zM262 -5c-106 0 -175 50 -175 174v367h68v-360
c0 -84 34 -120 116 -120c17 0 33 2 50 5v-60c-17 -4 -37 -6 -59 -6z" />
    <glyph glyph-name="alpha.sc" horiz-adv-x="563" 
d="M466 0l-65 187h-240l-66 -187h-69l217 595h78l215 -595h-70zM183 247h197l-97 280h-1z" />
    <glyph glyph-name="beta.sc" horiz-adv-x="545" 
d="M380 308c71 -26 106 -72 106 -145c0 -101 -80 -163 -215 -163h-171v595h160c130 0 203 -56 203 -155c0 -62 -28 -107 -83 -132zM166 532v-200h104c78 -2 127 38 127 103c0 62 -46 97 -128 97h-103zM277 64c91 0 144 39 144 106c0 66 -51 103 -144 103h-111v-209h111z" />
    <glyph glyph-name="gamma.sc" horiz-adv-x="440" 
d="M100 0v595h310v-65h-244v-530h-66z" />
    <glyph glyph-name="delta.sc" horiz-adv-x="568" 
d="M324 595l217 -595h-515l220 595h78zM118 63h332l-164 465h-1z" />
    <glyph glyph-name="epsilon.sc" horiz-adv-x="489" 
d="M100 0v595h319v-64h-253v-196h235v-62h-235v-209h253v-64h-319z" />
    <glyph glyph-name="zeta.sc" horiz-adv-x="507" 
d="M470 595l-330 -533h316v-62h-424l330 533h-304v62h412z" />
    <glyph glyph-name="eta.sc" horiz-adv-x="654" 
d="M487 0v270h-321v-270h-66v595h66v-261h321v261h66v-595h-66z" />
    <glyph glyph-name="theta.sc" horiz-adv-x="705" 
d="M352 -9c-154 0 -293 120 -293 306s139 307 293 307s295 -121 295 -307s-141 -306 -295 -306zM352 56c114 0 227 87 227 241s-113 243 -227 243c-113 0 -226 -89 -226 -243s113 -241 226 -241zM214 268v62h277v-62h-277z" />
    <glyph glyph-name="iota.sc" horiz-adv-x="266" 
d="M100 0v595h66v-595h-66z" />
    <glyph glyph-name="kappa.sc" horiz-adv-x="526" 
d="M502 0h-82l-254 307v-307h-66v595h66v-281l255 281h80l-260 -285z" />
    <glyph glyph-name="lambda.sc" horiz-adv-x="556" 
d="M27 0l213 595h78l210 -595h-69l-179 528h-1l-183 -528h-69z" />
    <glyph glyph-name="uni03BC.sc" horiz-adv-x="794" 
d="M197 510l-72 -510h-65l89 595h84l164 -506h2l162 506h86l88 -595h-65l-73 510h-2l-166 -510h-67l-163 510h-2z" />
    <glyph glyph-name="nu.sc" horiz-adv-x="662" 
d="M562 595v-595h-69l-328 498v-498h-65v595h71l325 -496v496h66z" />
    <glyph glyph-name="xi.sc" horiz-adv-x="540" 
d="M58 530v65h424v-65h-424zM101 270v63h338v-63h-338zM58 0v65h424v-65h-424z" />
    <glyph glyph-name="omicron.sc" horiz-adv-x="705" 
d="M352 604c154 0 294 -121 294 -307s-140 -306 -294 -306s-293 120 -293 306s139 307 293 307zM352 539c-113 0 -225 -88 -225 -242s112 -241 225 -241s226 87 226 241s-113 242 -226 242z" />
    <glyph glyph-name="pi.sc" horiz-adv-x="641" 
d="M475 0v531h-309v-531h-66v595h441v-595h-66z" />
    <glyph glyph-name="rho.sc" horiz-adv-x="508" 
d="M100 595h132c143 0 232 -72 232 -191c0 -120 -91 -204 -233 -204h-65v-200h-66v595zM233 264c111 0 163 59 163 139c0 77 -53 127 -163 127h-67v-266h67z" />
    <glyph glyph-name="sigma.sc" horiz-adv-x="499" 
d="M141 63h308v-63h-415l172 299l-166 296h401v-62h-292v-1l128 -229l-136 -238v-2z" />
    <glyph glyph-name="tau.sc" horiz-adv-x="512" 
d="M223 0v530h-193v65h452v-65h-193v-530h-66z" />
    <glyph glyph-name="upsilon.sc" horiz-adv-x="545" 
d="M522 595l-216 -340v-255h-67v254l-216 341h76l175 -280h1l173 280h74z" />
    <glyph glyph-name="phi.sc" horiz-adv-x="730" 
d="M397 571c162 0 279 -110 279 -265s-117 -266 -279 -266v-61h-65v61c-161 0 -278 111 -278 266s117 265 278 265v63h65v-63zM332 101v409c-124 0 -209 -84 -209 -204c0 -121 85 -205 209 -205zM397 101c125 0 210 84 210 205c0 120 -85 204 -210 204v-409z" />
    <glyph glyph-name="chi.sc" horiz-adv-x="530" 
d="M494 595l-191 -294l196 -301h-75l-159 251l-160 -251h-73l193 299l-189 296h73l154 -246l156 246h75z" />
    <glyph glyph-name="psi.sc" horiz-adv-x="695" 
d="M565 595h65v-225c0 -150 -108 -234 -250 -233v-137h-65v137c-142 -1 -250 83 -250 233v225h66v-226c0 -106 69 -170 184 -170v396h65v-396c115 0 185 64 185 170v226z" />
    <glyph glyph-name="omega.sc" horiz-adv-x="725" 
d="M539 63h126v-63h-241v41c79 45 156 141 157 269c1 137 -90 229 -219 229c-128 0 -219 -92 -218 -229c1 -128 78 -224 157 -269v-41h-241v63h126c-61 51 -113 141 -113 251c0 168 120 290 289 290c170 0 289 -122 289 -290c0 -110 -52 -200 -112 -251z" />
    <glyph glyph-name="iotatonos.sc" horiz-adv-x="266" 
d="M100 0v595h66v-595h-66z" />
    <glyph glyph-name="iotadieresis.sc" horiz-adv-x="266" 
d="M36 708c-25 0 -46 20 -46 45s21 45 46 45c26 0 47 -20 47 -45s-21 -45 -47 -45zM232 708c-26 0 -46 20 -46 45s20 45 46 45s46 -20 46 -45s-20 -45 -46 -45zM100 0v595h66v-595h-66z" />
    <glyph glyph-name="upsilontonos.sc" horiz-adv-x="545" 
d="M522 595l-216 -340v-255h-67v254l-216 341h76l175 -280h1l173 280h74z" />
    <glyph glyph-name="upsilondieresis.sc" horiz-adv-x="545" 
d="M175 708c-25 0 -46 20 -46 45s21 45 46 45c26 0 47 -20 47 -45s-21 -45 -47 -45zM371 708c-26 0 -46 20 -46 45s20 45 46 45s46 -20 46 -45s-20 -45 -46 -45zM522 595l-216 -340v-255h-67v254l-216 341h76l175 -280h1l173 280h74z" />
    <glyph glyph-name="omicrontonos.sc" horiz-adv-x="705" 
d="M352 604c154 0 294 -121 294 -307s-140 -306 -294 -306s-293 120 -293 306s139 307 293 307zM352 539c-113 0 -225 -88 -225 -242s112 -241 225 -241s226 87 226 241s-113 242 -226 242z" />
    <glyph glyph-name="omegatonos.sc" horiz-adv-x="725" 
d="M539 63h126v-63h-241v41c79 45 156 141 157 269c1 137 -90 229 -219 229c-128 0 -219 -92 -218 -229c1 -128 78 -224 157 -269v-41h-241v63h126c-61 51 -113 141 -113 251c0 168 120 290 289 290c170 0 289 -122 289 -290c0 -110 -52 -200 -112 -251z" />
    <glyph glyph-name="alphatonos.sc" horiz-adv-x="563" 
d="M466 0l-65 187h-240l-66 -187h-69l217 595h78l215 -595h-70zM183 247h197l-97 280h-1z" />
    <glyph glyph-name="epsilontonos.sc" horiz-adv-x="489" 
d="M100 0v595h319v-64h-253v-196h235v-62h-235v-209h253v-64h-319z" />
    <glyph glyph-name="etatonos.sc" horiz-adv-x="654" 
d="M487 0v270h-321v-270h-66v595h66v-261h321v261h66v-595h-66z" />
    <glyph glyph-name="one.ss01" horiz-adv-x="537" 
d="M506 65v-65h-437v65h189v582l-192 -83v74l252 107h8v-680h180z" />
    <glyph glyph-name="one.osf.ss01" horiz-adv-x="452" 
d="M413 65v-65h-336v65h138v386l-148 -56v68l208 81h8v-479h130z" />
    <glyph glyph-name="zero.sc" horiz-adv-x="578" 
d="M289 -10c-123 0 -224 115 -224 308c0 191 101 307 224 307c122 0 224 -116 224 -307c0 -193 -101 -308 -224 -308zM289 54c84 0 158 89 158 244c0 154 -74 243 -158 243s-159 -89 -159 -243c0 -155 75 -244 159 -244z" />
    <glyph glyph-name="one.sc" horiz-adv-x="337" 
d="M158 0v507l-116 -48v67l173 72h8v-598h-65z" />
    <glyph glyph-name="two.sc" horiz-adv-x="490" 
d="M434 64v-64h-393c265 290 303 341 303 420c0 65 -47 115 -127 115c-60 0 -113 -28 -147 -65v77c37 32 88 53 154 53c116 0 188 -80 188 -177c0 -100 -82 -189 -235 -359h257z" />
    <glyph glyph-name="three.sc" horiz-adv-x="489" 
d="M81 564c33 25 88 41 141 41c109 0 183 -69 183 -156c0 -61 -38 -116 -99 -139v-2c56 -12 120 -60 120 -145c0 -89 -70 -173 -199 -173c-71 0 -127 24 -166 55v77c40 -40 99 -67 165 -67c79 0 134 41 134 110c0 72 -59 111 -169 111h-56v61h56c100 0 146 42 146 104
c0 63 -47 100 -118 100c-52 0 -106 -20 -138 -43v66z" />
    <glyph glyph-name="four.sc" horiz-adv-x="531" 
d="M486 211v-60h-103v-151h-64v151h-280v45l281 399h63v-384h103zM121 211h198v285h-1l-197 -283v-2z" />
    <glyph glyph-name="five.sc" horiz-adv-x="484" 
d="M399 595v-64h-206l-33 -170c19 5 41 8 63 8c118 0 204 -76 204 -186c0 -108 -81 -193 -209 -193c-64 0 -120 22 -163 58v81c45 -53 107 -75 162 -75c82 0 144 47 144 125c0 73 -56 131 -157 131c-50 0 -81 -13 -108 -23l-7 4l57 304h253z" />
    <glyph glyph-name="six.sc" horiz-adv-x="520" 
d="M275 388c111 0 192 -82 192 -193c0 -118 -86 -205 -206 -205c-116 0 -202 86 -202 202c0 64 28 117 64 161l204 242h79l-179 -211c14 3 31 4 48 4zM264 54c79 0 136 59 136 139s-60 139 -142 139c-33 0 -61 -8 -88 -23c-37 -45 -45 -83 -45 -115c0 -80 59 -140 139 -140z
" />
    <glyph glyph-name="seven.sc" horiz-adv-x="458" 
d="M54 595h390l-317 -595h-69l285 530h-289v65z" />
    <glyph glyph-name="eight.sc" horiz-adv-x="534" 
d="M267 605c106 0 185 -70 185 -161c0 -67 -39 -113 -91 -136v-1c71 -27 109 -82 109 -148c0 -95 -86 -169 -203 -169c-116 0 -203 74 -203 169c0 66 39 121 109 148v1c-52 23 -91 69 -91 136c0 91 79 161 185 161zM148 440c0 -60 51 -106 119 -106s120 46 120 106
c0 58 -52 102 -120 102s-119 -44 -119 -102zM267 278c-78 0 -137 -51 -137 -117c0 -61 59 -108 137 -108c79 0 137 47 137 108c0 66 -58 117 -137 117z" />
    <glyph glyph-name="nine.sc" horiz-adv-x="519" 
d="M258 605c117 0 203 -86 203 -201c0 -65 -28 -118 -65 -162l-203 -242h-81l182 213c-12 -4 -29 -6 -50 -6c-110 0 -192 82 -192 194c0 117 87 204 206 204zM349 286c37 46 45 83 45 115c0 81 -58 140 -139 140c-78 0 -136 -58 -136 -139c0 -80 60 -138 142 -138
c34 0 62 7 88 22z" />
    <glyph glyph-name="one.sc.ss01" horiz-adv-x="453" 
d="M419 63v-63h-352v63h148v442l-150 -61v65l206 89h9v-535h139z" />
    <glyph glyph-name="colon.tf" 
d="M340 338c-30 0 -52 22 -52 52c0 31 22 53 52 53s52 -22 52 -53c0 -30 -22 -52 -52 -52zM340 -4c-30 0 -52 22 -52 52c0 31 22 53 52 53s52 -22 52 -53c0 -30 -22 -52 -52 -52z" />
    <glyph glyph-name="comma.tf" 
d="M246 -133c19 59 43 141 43 222v41h67v-40c0 -71 -34 -166 -57 -223h-53z" />
    <glyph glyph-name="numbersign.tf" 
d="M628 456h-124l-27 -170h121v-57h-130l-37 -229h-64l37 229h-173l-37 -229h-64l37 229h-115v57h124l27 170h-120v57h129l37 230h64l-37 -230h173l37 230h64l-37 -230h115v-57zM413 286l27 170h-173l-27 -170h173z" />
    <glyph glyph-name="period.tf" 
d="M340 -4c-30 0 -52 22 -52 52c0 31 22 53 52 53s52 -22 52 -53c0 -30 -22 -52 -52 -52z" />
    <glyph glyph-name="semicolon.tf" 
d="M340 338c-30 0 -52 22 -52 52c0 31 22 53 52 53s52 -22 52 -53c0 -30 -22 -52 -52 -52zM275 -133c19 59 43 141 43 222v41h67v-40c0 -71 -34 -166 -57 -223h-53z" />
    <glyph glyph-name="parenleft.tf" 
d="M493 743c-116 -110 -194 -262 -194 -436c0 -175 79 -325 194 -437h-83c-104 112 -177 260 -177 437s73 325 177 436h83z" />
    <glyph glyph-name="parenright.tf" 
d="M188 743h83c104 -111 177 -259 177 -436s-73 -325 -177 -437h-83c115 112 194 262 194 437c0 174 -78 326 -194 436z" />
    <glyph glyph-name="endash.tf" 
d="M157 287v65h366v-65h-366z" />
    <glyph glyph-name="asterisk.sc" horiz-adv-x="476" 
d="M267 638l-10 -143l136 53l20 -58l-141 -35l93 -111l-50 -34l-79 121l-77 -121l-48 34l92 111l-139 35l19 57l134 -52l-11 143h61z" />
    <glyph glyph-name="backslash.sc" horiz-adv-x="412" 
d="M374 -36h-64l-273 666h66z" />
    <glyph glyph-name="periodcentered.sc" horiz-adv-x="272" 
d="M136 245c-30 0 -52 22 -52 52c0 31 22 53 52 53s52 -22 52 -53c0 -30 -22 -52 -52 -52z" />
    <glyph glyph-name="braceleft.sc" horiz-adv-x="353" 
d="M296 702v-60c-65 6 -92 -22 -92 -67v-152c0 -53 -16 -106 -75 -122v-2c59 -16 75 -69 75 -122v-150c0 -45 28 -73 93 -67v-61c-96 -10 -154 38 -154 117v164c0 39 -16 84 -94 94v51c78 11 94 55 94 95v165c0 78 57 128 153 117z" />
    <glyph glyph-name="braceright.sc" horiz-adv-x="353" 
d="M210 585v-165c0 -40 16 -84 94 -95v-51c-78 -10 -94 -55 -94 -94v-164c0 -79 -58 -127 -154 -117v61c65 -6 93 22 93 67v150c0 53 16 106 75 122v2c-59 16 -75 69 -75 122v152c0 45 -27 73 -92 67v60c96 11 153 -39 153 -117z" />
    <glyph glyph-name="bracketleft.sc" horiz-adv-x="312" 
d="M90 -101v804h165v-61h-102v-682h102v-61h-165z" />
    <glyph glyph-name="bracketright.sc" horiz-adv-x="312" 
d="M222 -101h-165v61h102v682h-102v61h165v-804z" />
    <glyph glyph-name="bullet.sc" horiz-adv-x="436" 
d="M218 171c-73 0 -126 53 -126 126c0 74 53 127 126 127s126 -53 126 -127c0 -73 -53 -126 -126 -126z" />
    <glyph glyph-name="emdash.sc" horiz-adv-x="784" 
d="M81 271v52h622v-52h-622z" />
    <glyph glyph-name="endash.sc" horiz-adv-x="506" 
d="M81 271v52h344v-52h-344z" />
    </font>
</defs>
</svg>
