<?xml version="1.0" standalone="no"?>
<!DOCTYPE svg PUBLIC "-//W3C//DTD SVG 1.1//EN" "http://www.w3.org/Graphics/SVG/1.1/DTD/svg11.dtd" >
<svg xmlns="http://www.w3.org/2000/svg" xmlns:xlink="http://www.w3.org/1999/xlink" version="1.1">
<metadata>
Created by FontForge 20190801 at Fri Feb  5 15:50:01 2016
 By Jimmy Wärting
Copyright \(c\) 2014-2015 by Ryoichi Tsunekawa. All rights reserved.
</metadata>
<defs>
<font id="BioSans-SemiBold" horiz-adv-x="366" >
  <font-face 
    font-family="Bio Sans SemiBold"
    font-weight="600"
    font-stretch="normal"
    units-per-em="1000"
    panose-1="2 11 6 6 2 2 2 4 2 4"
    ascent="800"
    descent="-200"
    x-height="519"
    cap-height="680"
    bbox="-174 -247 1088 1102"
    underline-thickness="62"
    underline-position="-100"
    stemh="100"
    stemv="120"
    unicode-range="U+000D-FB02"
  />
<missing-glyph horiz-adv-x="684" 
d="M81 0v680h522v-680h-522zM343 408l132 200h-265zM156 133l137 207l-137 207v-414zM528 133v414l-137 -207zM210 72h265l-132 200z" />
    <glyph glyph-name="fi" unicode="fi" horiz-adv-x="615" 
d="M97 0v426h-87v93h87v45c0 112 49 166 148 166h99v-95h-63c-47 0 -64 -20 -64 -73v-43h122v-93h-122v-426h-120zM418 602v113h128v-113h-128zM422 0v519h120v-519h-120z" />
    <glyph glyph-name="fl" unicode="fl" horiz-adv-x="615" 
d="M97 0v426h-87v93h87v45c0 112 49 166 148 166h99v-95h-63c-47 0 -64 -20 -64 -73v-43h122v-93h-122v-426h-120zM422 0v730h120v-730h-120z" />
    <glyph glyph-name=".notdef" horiz-adv-x="684" 
d="M81 0v680h522v-680h-522zM343 408l132 200h-265zM156 133l137 207l-137 207v-414zM528 133v414l-137 -207zM210 72h265l-132 200z" />
    <glyph glyph-name="space" unicode=" " horiz-adv-x="251" 
 />
    <glyph glyph-name="exclam" unicode="!" horiz-adv-x="301" 
d="M107 214l-16 279l-3 187h126l-3 -187l-17 -279h-87zM85 0v130h130v-130h-130z" />
    <glyph glyph-name="quotedbl" unicode="&#x22;" horiz-adv-x="433" 
d="M71 419l-15 261h121l-14 -261h-92zM270 419l-15 261h121l-14 -261h-92z" />
    <glyph glyph-name="numbersign" unicode="#" horiz-adv-x="599" 
d="M94 0l21 170h-75v87h86l22 176h-75v87h86l20 160h103l-20 -160h120l20 160h103l-20 -160h74v-87h-85l-22 -176h74v-87h-85l-21 -170h-103l21 170h-120l-21 -170h-103zM229 257h120l22 176h-120z" />
    <glyph glyph-name="dollar" unicode="$" horiz-adv-x="599" 
d="M253 -72v74c-133 11 -195 75 -195 198h110c0 -58 28 -89 85 -99v193c-135 25 -188 79 -188 189c0 115 65 182 188 195v74h95v-74c118 -13 177 -77 177 -193h-110c0 50 -22 80 -67 92v-185c138 -24 193 -81 193 -195c0 -118 -64 -182 -193 -195v-74h-95zM253 412v167
c-47 -11 -70 -40 -70 -82c0 -41 20 -67 70 -85zM348 101c51 10 75 38 75 83c0 44 -21 71 -75 89v-172z" />
    <glyph glyph-name="percent" unicode="%" horiz-adv-x="778" 
d="M184 312c-97 0 -149 46 -149 134v112c0 88 52 134 149 134s149 -46 149 -134v-112c0 -88 -52 -134 -149 -134zM141 -12l405 704h92l-405 -704h-92zM185 389c39 0 58 20 58 62v103c0 41 -19 61 -58 61c-40 0 -59 -20 -59 -61v-103c0 -42 19 -62 59 -62zM593 -12
c-97 0 -149 46 -149 134v112c0 88 52 134 149 134s149 -46 149 -134v-112c0 -88 -52 -134 -149 -134zM594 65c39 0 58 20 58 62v103c0 41 -19 61 -58 61c-40 0 -59 -20 -59 -61v-103c0 -42 19 -62 59 -62z" />
    <glyph glyph-name="ampersand" unicode="&#x26;" horiz-adv-x="672" 
d="M271 -12c-143 0 -229 72 -229 192c0 82 38 142 131 197c-40 52 -56 93 -56 143c0 105 70 172 189 172c111 0 176 -58 176 -152c0 -77 -40 -128 -143 -182l123 -138c13 36 21 79 24 128h117c-9 -86 -30 -158 -64 -214l119 -134h-157l-40 46c-51 -38 -115 -58 -190 -58z
M275 429c74 37 100 66 100 108c0 36 -25 62 -72 62s-76 -26 -76 -74c0 -29 11 -53 48 -96zM287 88c42 0 78 12 108 34l-159 182c-53 -35 -73 -67 -73 -112c0 -65 47 -104 124 -104z" />
    <glyph glyph-name="quotesingle" unicode="'" horiz-adv-x="236" 
d="M71 419l-15 261h123l-15 -261h-93z" />
    <glyph glyph-name="parenleft" unicode="(" horiz-adv-x="341" 
d="M323 -130c-168 44 -263 202 -263 436s95 392 263 436v-92c-100 -48 -150 -162 -150 -344s50 -296 150 -344v-92z" />
    <glyph glyph-name="parenright" unicode=")" horiz-adv-x="341" 
d="M18 -130v92c100 48 150 162 150 344s-50 296 -150 344v92c168 -44 263 -202 263 -436s-95 -392 -263 -436z" />
    <glyph glyph-name="asterisk" unicode="*" horiz-adv-x="418" 
d="M131 290l-73 54l91 117l-138 35l28 90l134 -54l-9 148h91l-9 -148l134 54l28 -90l-140 -36l91 -116l-73 -54l-77 127z" />
    <glyph glyph-name="plus" unicode="+" horiz-adv-x="599" 
d="M249 54v206h-195v98h195v206h101v-206h195v-98h-195v-206h-101z" />
    <glyph glyph-name="comma" unicode="," horiz-adv-x="286" 
d="M72 -158v69c34 1 55 23 55 66v23h-49v130h130v-128c0 -107 -42 -159 -136 -160z" />
    <glyph glyph-name="hyphen" unicode="-" horiz-adv-x="377" 
d="M33 241v109h310v-109h-310z" />
    <glyph glyph-name="period" unicode="." horiz-adv-x="286" 
d="M78 0v130h130v-130h-130z" />
    <glyph glyph-name="slash" unicode="/" horiz-adv-x="456" 
d="M4 -140l341 870h108l-341 -870h-108z" />
    <glyph glyph-name="zero" unicode="0" horiz-adv-x="599" 
d="M299 -12c-156 0 -240 79 -240 228v248c0 150 84 228 240 228c157 0 241 -78 241 -228v-248c0 -149 -84 -228 -241 -228zM299 92c83 0 121 41 121 130v236c0 89 -38 130 -121 130c-82 0 -120 -41 -120 -130v-236c0 -89 38 -130 120 -130z" />
    <glyph glyph-name="one" unicode="1" horiz-adv-x="599" 
d="M108 0v106h165v423c-58 -27 -122 -33 -185 -34v97c91 3 149 28 190 88h115v-574h164v-106h-449z" />
    <glyph glyph-name="two" unicode="2" horiz-adv-x="599" 
d="M57 0v61c0 128 59 204 214 276c111 51 148 90 148 154c0 59 -37 97 -115 97c-80 0 -122 -39 -122 -118v-17h-114v28c0 137 85 211 237 211c153 0 234 -75 234 -200c0 -111 -58 -180 -208 -247c-108 -48 -148 -83 -154 -139h361v-106h-481z" />
    <glyph glyph-name="three" unicode="3" horiz-adv-x="599" 
d="M301 -12c-160 0 -244 66 -244 194v30h116v-14c0 -70 42 -106 128 -106c80 0 125 31 125 101c0 68 -40 100 -132 100h-70v104h69c79 0 118 29 118 94c0 64 -39 97 -112 97c-77 0 -117 -37 -117 -104v-11h-115v18c0 130 83 201 235 201c146 0 228 -66 228 -189
c0 -72 -29 -122 -89 -148v-2c72 -27 105 -81 105 -165c0 -134 -84 -200 -245 -200z" />
    <glyph glyph-name="four" unicode="4" horiz-adv-x="599" 
d="M371 0v147h-332v109l321 424h131v-431h75v-102h-75v-147h-120zM160 249h211v284z" />
    <glyph glyph-name="five" unicode="5" horiz-adv-x="599" 
d="M300 -12c-155 0 -240 69 -241 195h116c3 -57 48 -91 124 -91c85 0 130 43 130 127c0 83 -44 126 -124 126c-48 0 -86 -16 -118 -46h-108l24 381h415v-106h-313l-10 -171c38 31 84 45 141 45c137 0 213 -80 213 -226c0 -157 -86 -234 -249 -234z" />
    <glyph glyph-name="six" unicode="6" horiz-adv-x="599" 
d="M306 -12c-157 0 -243 78 -243 230v240c0 154 86 234 247 234c149 0 225 -68 230 -191h-116c-5 54 -42 87 -115 87c-85 0 -126 -45 -126 -135v-80c40 43 92 63 160 63c130 0 204 -76 204 -218c0 -150 -81 -230 -241 -230zM307 92c81 0 119 44 119 123
c0 76 -36 117 -110 117c-63 0 -107 -30 -133 -90v-19c0 -87 42 -131 124 -131z" />
    <glyph glyph-name="seven" unicode="7" horiz-adv-x="599" 
d="M151 0c10 230 99 421 263 571h-362v109h492v-112c-171 -165 -255 -340 -265 -568h-128z" />
    <glyph glyph-name="eight" unicode="8" horiz-adv-x="599" 
d="M300 -12c-167 0 -256 70 -256 198c0 83 37 139 110 167v2c-61 26 -92 76 -92 147c0 122 87 190 239 190c151 0 237 -68 237 -189c0 -72 -31 -122 -92 -148v-2c72 -28 110 -84 110 -167c0 -128 -89 -198 -256 -198zM299 398c77 0 120 33 120 96s-42 95 -120 95
c-76 0 -119 -32 -119 -95s43 -96 119 -96zM299 91c91 0 136 33 136 101c0 69 -46 103 -136 103s-136 -34 -136 -103c0 -68 45 -101 136 -101z" />
    <glyph glyph-name="nine" unicode="9" horiz-adv-x="599" 
d="M289 -12c-149 0 -226 68 -230 191h116c5 -54 42 -87 114 -87c86 0 127 45 127 135v81c-41 -43 -93 -64 -160 -64c-131 0 -204 76 -204 218c0 150 81 230 240 230c158 0 244 -78 244 -230v-240c0 -154 -86 -234 -247 -234zM283 348c64 0 108 31 133 92v17
c0 87 -43 131 -124 131s-120 -44 -120 -123c0 -76 37 -117 111 -117z" />
    <glyph glyph-name="colon" unicode=":" horiz-adv-x="286" 
d="M78 360v130h130v-130h-130zM78 0v130h130v-130h-130z" />
    <glyph glyph-name="semicolon" unicode=";" horiz-adv-x="286" 
d="M78 360v130h130v-130h-130zM72 -158v69c33 1 54 23 54 66v23h-48v130h130v-128c0 -107 -43 -159 -136 -160z" />
    <glyph glyph-name="less" unicode="&#x3c;" horiz-adv-x="599" 
d="M545 59l-491 200v96l491 200v-106l-351 -142l351 -141v-107z" />
    <glyph glyph-name="equal" unicode="=" horiz-adv-x="599" 
d="M54 374v98h491v-98h-491zM54 146v98h491v-98h-491z" />
    <glyph glyph-name="greater" unicode="&#x3e;" horiz-adv-x="599" 
d="M54 61v106l351 142l-351 141v107l491 -200v-96z" />
    <glyph glyph-name="question" unicode="?" horiz-adv-x="453" 
d="M154 214v24c0 78 26 128 93 175c48 34 64 58 64 97c0 51 -33 79 -89 79c-62 0 -95 -35 -95 -103h-114c0 135 72 206 210 206c132 0 207 -65 207 -179c0 -69 -26 -114 -95 -161c-58 -39 -77 -69 -77 -118v-20h-104zM141 0v130h130v-130h-130z" />
    <glyph glyph-name="at" unicode="@" horiz-adv-x="755" 
d="M410 -68c-231 0 -378 141 -378 359c0 216 145 363 364 363c208 0 344 -133 344 -326c0 -134 -65 -210 -170 -210c-52 0 -89 18 -108 59c-27 -39 -64 -59 -114 -59c-78 0 -119 49 -119 135v72c0 88 41 135 119 135c47 0 83 -17 110 -52l4 40h79v-199c0 -33 11 -50 37 -50
c42 0 66 43 66 121c0 155 -94 248 -246 248c-166 0 -266 -111 -266 -274c0 -169 108 -276 278 -276c69 0 131 18 181 50l33 -82c-54 -34 -126 -54 -214 -54zM375 200c27 0 50 13 66 47v85c-14 32 -39 46 -67 46c-32 0 -46 -18 -46 -56v-67c0 -36 14 -55 47 -55z" />
    <glyph glyph-name="A" unicode="A" horiz-adv-x="610" 
d="M5 0l237 680h125l238 -680h-130l-52 154h-241l-53 -154h-124zM215 259h175l-87 279z" />
    <glyph glyph-name="B" unicode="B" horiz-adv-x="639" 
d="M83 0v680h268c154 0 224 -55 224 -177c0 -75 -27 -122 -91 -145v-2c80 -24 113 -77 113 -166c0 -131 -70 -190 -225 -190h-289zM205 399h131c87 0 118 23 118 88c0 64 -31 87 -114 87h-135v-175zM205 106h147c90 0 123 26 123 93c0 69 -35 94 -135 94h-135v-187z" />
    <glyph glyph-name="C" unicode="C" horiz-adv-x="615" 
d="M316 -12c-175 0 -259 88 -259 273v158c0 185 84 273 259 273c168 0 250 -80 255 -247h-118c-4 97 -44 140 -136 140c-98 0 -138 -50 -138 -168v-154c0 -118 40 -168 138 -168c92 0 132 43 136 139h118c-5 -166 -87 -246 -255 -246z" />
    <glyph glyph-name="D" unicode="D" horiz-adv-x="645" 
d="M83 0v680h245c180 0 261 -84 261 -266v-148c0 -183 -81 -266 -261 -266h-245zM205 107h106c114 0 156 44 156 161v144c0 117 -42 161 -156 161h-106v-466z" />
    <glyph glyph-name="E" unicode="E" horiz-adv-x="585" 
d="M83 0v680h456v-107h-334v-173h284v-106h-284v-187h344v-107h-466z" />
    <glyph glyph-name="F" unicode="F" horiz-adv-x="551" 
d="M83 0v680h448v-107h-326v-176h276v-107h-276v-290h-122z" />
    <glyph glyph-name="G" unicode="G" horiz-adv-x="635" 
d="M323 -12c-177 0 -266 90 -266 267v170c0 176 89 267 262 267c158 0 250 -76 256 -223h-117c-5 75 -48 116 -138 116c-98 0 -141 -51 -141 -167v-156c0 -116 44 -167 146 -167c98 0 139 47 139 158v17h-127v107h245v-125c0 -178 -85 -264 -259 -264z" />
    <glyph glyph-name="H" unicode="H" horiz-adv-x="688" 
d="M83 0v680h122v-279h278v279h122v-680h-122v293h-278v-293h-122z" />
    <glyph glyph-name="I" unicode="I" horiz-adv-x="288" 
d="M83 0v680h122v-680h-122z" />
    <glyph glyph-name="J" unicode="J" horiz-adv-x="551" 
d="M248 -12c-160 0 -232 72 -232 234v18h117v-18c0 -89 33 -127 114 -127c82 0 115 41 115 137v448h122v-453c0 -166 -73 -239 -236 -239z" />
    <glyph glyph-name="K" unicode="K" horiz-adv-x="620" 
d="M83 0v680h122v-329l271 329h143l-229 -279l232 -401h-140l-177 307l-100 -119v-188h-122z" />
    <glyph glyph-name="L" unicode="L" horiz-adv-x="518" 
d="M83 0v680h122v-571h306v-109h-428z" />
    <glyph glyph-name="M" unicode="M" horiz-adv-x="873" 
d="M83 0v680h180l173 -490l173 490h181v-680h-122v540l-192 -540h-85l-192 540v-540h-116z" />
    <glyph glyph-name="N" unicode="N" horiz-adv-x="686" 
d="M83 0v680h135l269 -472v472h116v-680h-117l-287 503v-503h-116z" />
    <glyph glyph-name="O" unicode="O" horiz-adv-x="654" 
d="M327 -12c-183 0 -270 89 -270 274v156c0 185 87 274 270 274s270 -89 270 -274v-156c0 -185 -87 -274 -270 -274zM327 95c104 0 148 51 148 168v154c0 117 -44 168 -148 168s-148 -51 -148 -168v-154c0 -117 44 -168 148 -168z" />
    <glyph glyph-name="P" unicode="P" horiz-adv-x="607" 
d="M83 0v680h263c166 0 237 -65 237 -216s-71 -214 -237 -214h-141v-250h-122zM205 356h131c90 0 125 31 125 109c0 77 -35 108 -125 108h-131v-217z" />
    <glyph glyph-name="Q" unicode="Q" horiz-adv-x="654" 
d="M552 -78l-88 89c-38 -15 -83 -23 -137 -23c-183 0 -270 89 -270 274v156c0 185 87 274 270 274s270 -89 270 -274v-156c0 -74 -14 -133 -42 -176l79 -81zM327 95c21 0 40 2 56 6l-108 110l77 77l111 -113c8 24 12 53 12 88v154c0 117 -44 168 -148 168
s-148 -51 -148 -168v-154c0 -117 44 -168 148 -168z" />
    <glyph glyph-name="R" unicode="R" horiz-adv-x="632" 
d="M83 0v680h270c161 0 226 -61 226 -209c0 -113 -39 -175 -130 -198l156 -273h-140l-148 263h-112v-263h-122zM205 369h136c86 0 116 29 116 102c0 74 -30 102 -116 102h-136v-204z" />
    <glyph glyph-name="S" unicode="S" horiz-adv-x="561" 
d="M281 -12c-168 0 -249 68 -249 211h120c0 -73 44 -108 131 -108c82 0 123 30 123 90c0 64 -40 92 -152 109c-154 23 -211 77 -211 198c0 135 84 204 242 204c155 0 233 -67 233 -205h-120c0 68 -38 101 -116 101c-77 0 -118 -31 -118 -88c0 -59 39 -86 144 -100
c161 -22 219 -81 219 -207c0 -137 -81 -205 -246 -205z" />
    <glyph glyph-name="T" unicode="T" horiz-adv-x="518" 
d="M198 0v571h-191v109h504v-109h-191v-571h-122z" />
    <glyph glyph-name="U" unicode="U" horiz-adv-x="635" 
d="M318 -12c-175 0 -250 72 -250 238v454h122v-451c0 -98 35 -134 130 -134s130 36 130 134v451h118v-454c0 -166 -74 -238 -250 -238z" />
    <glyph glyph-name="V" unicode="V" horiz-adv-x="587" 
d="M230 0l-225 680h129l162 -520l163 520h123l-225 -680h-127z" />
    <glyph glyph-name="W" unicode="W" horiz-adv-x="871" 
d="M182 0l-175 680h126l118 -496l130 496h113l130 -498l119 498h121l-175 -680h-126l-127 483l-128 -483h-126z" />
    <glyph glyph-name="X" unicode="X" horiz-adv-x="574" 
d="M6 0l203 353l-196 327h141l141 -239l133 239h132l-196 -341l204 -339h-141l-149 254l-140 -254h-132z" />
    <glyph glyph-name="Y" unicode="Y" horiz-adv-x="546" 
d="M564 680l-230 -391v-289h-122v287l-230 393h140l156 -270l155 270h131z" />
    <glyph glyph-name="Z" unicode="Z" horiz-adv-x="554" 
d="M29 0v97l335 476h-317v107h470v-96l-336 -477h344v-107h-496z" />
    <glyph glyph-name="bracketleft" unicode="[" horiz-adv-x="341" 
d="M81 -118v848h242v-89h-129v-670h129v-89h-242z" />
    <glyph glyph-name="backslash" unicode="\" horiz-adv-x="456" 
d="M345 -140l-341 870h109l340 -870h-108z" />
    <glyph glyph-name="bracketright" unicode="]" horiz-adv-x="341" 
d="M18 -118v89h129v670h-129v89h242v-848h-242z" />
    <glyph glyph-name="asciicircum" unicode="^" horiz-adv-x="599" 
d="M27 333l226 347h93l226 -347h-116l-156 241l-157 -241h-116z" />
    <glyph glyph-name="underscore" unicode="_" horiz-adv-x="500" 
d="M0 -136v90h500v-90h-500z" />
    <glyph glyph-name="grave" unicode="`" horiz-adv-x="500" 
d="M224 592l-137 136h137l111 -136h-111z" />
    <glyph glyph-name="a" unicode="a" horiz-adv-x="542" 
d="M206 -12c-104 0 -168 58 -168 160c0 107 69 166 210 166h110v23c0 66 -29 97 -94 97c-61 0 -92 -26 -95 -75h-116c8 114 78 172 215 172c143 0 210 -62 210 -195v-336h-102l-4 68c-39 -53 -93 -80 -166 -80zM236 85c55 0 96 27 122 79v64h-94c-78 0 -107 -25 -107 -73
c0 -45 27 -70 79 -70z" />
    <glyph glyph-name="b" unicode="b" horiz-adv-x="580" 
d="M341 -12c-70 0 -121 26 -162 83l-4 -71h-102v730h120v-264c39 45 86 65 148 65c119 0 188 -74 188 -215v-114c0 -141 -69 -214 -188 -214zM317 88c59 0 92 38 92 116v111c0 79 -33 116 -91 116c-55 0 -97 -33 -125 -95v-153c28 -62 70 -95 124 -95z" />
    <glyph glyph-name="c" unicode="c" horiz-adv-x="522" 
d="M273 -12c-146 0 -222 75 -222 221v102c0 145 76 220 222 220c138 0 212 -67 215 -201h-115c-4 70 -35 101 -99 101c-70 0 -103 -37 -103 -122v-99c0 -85 33 -122 103 -122c64 0 95 31 99 102h115c-3 -134 -77 -202 -215 -202z" />
    <glyph glyph-name="d" unicode="d" horiz-adv-x="580" 
d="M239 -12c-120 0 -188 73 -188 214v114c0 141 68 215 188 215c62 0 109 -20 148 -66v265h120v-730h-102l-4 72c-41 -58 -92 -84 -162 -84zM263 88c55 0 97 34 124 97v149c-27 63 -69 97 -125 97c-58 0 -91 -37 -91 -116v-111c0 -78 33 -116 92 -116z" />
    <glyph glyph-name="e" unicode="e" horiz-adv-x="551" 
d="M282 -12c-151 0 -231 76 -231 221v102c0 143 79 220 225 220c148 0 226 -78 226 -221v-86h-331v-16c0 -84 34 -123 111 -123c63 0 98 27 102 72h115c-6 -111 -83 -169 -217 -169zM171 313h217c0 84 -33 121 -108 121c-76 0 -109 -37 -109 -121z" />
    <glyph glyph-name="f" unicode="f" horiz-adv-x="349" 
d="M97 0v426h-87v93h87v45c0 112 49 166 148 166h99v-95h-63c-47 0 -64 -20 -64 -73v-43h122v-93h-122v-426h-120z" />
    <glyph glyph-name="g" unicode="g" horiz-adv-x="580" 
d="M277 -194c-135 0 -210 52 -216 166h112c5 -49 41 -69 102 -69c78 0 112 32 112 110v71c-39 -45 -86 -65 -148 -65c-120 0 -188 74 -188 215v83c0 141 68 214 188 214c70 0 121 -26 162 -83l4 71h102v-506c0 -141 -76 -207 -230 -207zM262 119c56 0 98 34 125 97v119
c-27 62 -69 96 -124 96c-59 0 -92 -38 -92 -116v-80c0 -79 33 -116 91 -116z" />
    <glyph glyph-name="h" unicode="h" horiz-adv-x="570" 
d="M73 0v730h120v-264c39 45 87 65 147 65c108 0 163 -64 163 -188v-343h-120v332c0 64 -24 93 -73 93c-50 0 -88 -29 -117 -88v-337h-120z" />
    <glyph glyph-name="i" unicode="i" horiz-adv-x="266" 
d="M69 602v113h128v-113h-128zM73 0v519h120v-519h-120z" />
    <glyph glyph-name="j" unicode="j" horiz-adv-x="266" 
d="M69 602v113h128v-113h-128zM-2 -182v97h28c36 0 47 13 47 55v549h120v-550c0 -105 -39 -151 -134 -151h-61z" />
    <glyph glyph-name="k" unicode="k" horiz-adv-x="539" 
d="M73 0v730h120v-438l202 227h144l-189 -211l192 -308h-140l-137 221l-72 -79v-142h-120z" />
    <glyph glyph-name="l" unicode="l" horiz-adv-x="266" 
d="M73 0v730h120v-730h-120z" />
    <glyph glyph-name="m" unicode="m" horiz-adv-x="859" 
d="M73 0v519h102l4 -71c39 57 87 83 154 83c69 0 117 -28 141 -81c42 58 91 81 155 81c105 0 163 -62 163 -177v-354h-120v342c0 57 -25 83 -69 83c-45 0 -80 -27 -111 -90v-335h-120v342c0 57 -25 83 -70 83c-44 0 -78 -27 -109 -91v-334h-120z" />
    <glyph glyph-name="n" unicode="n" horiz-adv-x="570" 
d="M73 0v519h102l4 -71c42 58 93 83 161 83c108 0 163 -64 163 -188v-343h-120v332c0 64 -24 93 -74 93c-49 0 -87 -29 -116 -88v-337h-120z" />
    <glyph glyph-name="o" unicode="o" horiz-adv-x="562" 
d="M281 -12c-152 0 -230 76 -230 226v91c0 150 78 226 230 226c153 0 231 -76 231 -226v-91c0 -150 -78 -226 -231 -226zM281 88c77 0 111 40 111 129v85c0 89 -34 129 -111 129c-76 0 -110 -40 -110 -129v-85c0 -89 34 -129 110 -129z" />
    <glyph glyph-name="p" unicode="p" horiz-adv-x="580" 
d="M73 -182v701h102l4 -71c41 57 92 83 162 83c119 0 188 -73 188 -214v-114c0 -141 -69 -215 -188 -215c-62 0 -109 20 -148 65v-235h-120zM318 88c58 0 91 37 91 116v111c0 78 -33 116 -92 116c-54 0 -96 -33 -124 -94v-154c28 -62 70 -95 125 -95z" />
    <glyph glyph-name="q" unicode="q" horiz-adv-x="580" 
d="M387 -182v236c-39 -46 -86 -66 -148 -66c-120 0 -188 74 -188 215v114c0 141 68 214 188 214c70 0 121 -26 162 -83l4 71h102v-701h-120zM262 88c56 0 98 34 125 97v150c-27 62 -69 96 -124 96c-59 0 -92 -38 -92 -116v-111c0 -79 33 -116 91 -116z" />
    <glyph glyph-name="r" unicode="r" horiz-adv-x="368" 
d="M73 0v519h102l5 -95c23 72 67 105 140 105h37v-114h-27c-80 0 -121 -34 -137 -117v-298h-120z" />
    <glyph glyph-name="s" unicode="s" horiz-adv-x="501" 
d="M251 -12c-147 0 -217 56 -217 168h114c0 -51 33 -76 103 -76c64 0 95 21 95 61c0 43 -31 61 -119 72c-132 16 -183 58 -183 154c0 107 74 164 207 164s202 -56 202 -163h-115c0 48 -28 71 -88 71c-57 0 -88 -22 -88 -59c0 -41 31 -58 116 -67c135 -15 186 -62 186 -161
c0 -109 -71 -164 -213 -164z" />
    <glyph glyph-name="t" unicode="t" horiz-adv-x="352" 
d="M239 0c-103 0 -147 49 -147 166v260h-82v93h84l8 133h110v-133h117v-93h-117v-256c0 -57 13 -73 64 -73h58v-97h-95z" />
    <glyph glyph-name="u" unicode="u" horiz-adv-x="574" 
d="M232 -12c-109 0 -165 64 -165 188v343h120v-332c0 -65 24 -93 75 -93c50 0 90 28 119 90v335h120v-519h-102l-4 73c-43 -59 -94 -85 -163 -85z" />
    <glyph glyph-name="v" unicode="v" horiz-adv-x="492" 
d="M182 0l-175 519h127l115 -381l114 381h122l-175 -519h-128z" />
    <glyph glyph-name="w" unicode="w" horiz-adv-x="788" 
d="M163 0l-155 519h126l98 -371l110 371h109l110 -372l98 372h121l-155 -519h-124l-106 356l-106 -356h-126z" />
    <glyph glyph-name="x" unicode="x" horiz-adv-x="492" 
d="M-4 0l172 272l-163 247h142l110 -169l101 169h131l-164 -260l171 -259h-142l-119 182l-108 -182h-131z" />
    <glyph glyph-name="y" unicode="y" horiz-adv-x="485" 
d="M60 -182v97h51c34 0 48 10 60 46l17 53l-181 505h128l115 -354l107 354h121l-193 -572c-34 -100 -69 -129 -161 -129h-64z" />
    <glyph glyph-name="z" unicode="z" horiz-adv-x="470" 
d="M27 0v85l259 338h-238v96h390v-85l-259 -338h264v-96h-416z" />
    <glyph glyph-name="braceleft" unicode="{" horiz-adv-x="341" 
d="M253 -118c-108 0 -155 49 -155 176v131c0 57 -19 73 -73 73v88c54 0 73 16 73 73v131c0 127 47 176 155 176h70v-89h-42c-56 0 -71 -21 -71 -88v-124c0 -68 -22 -109 -71 -122v-2c49 -14 71 -54 71 -122v-124c0 -67 15 -88 71 -88h42v-89h-70z" />
    <glyph glyph-name="bar" unicode="|" horiz-adv-x="290" 
d="M95 -226v1000h99v-1000h-99z" />
    <glyph glyph-name="braceright" unicode="}" horiz-adv-x="341" 
d="M18 -118v89h43c55 0 70 21 70 88v124c0 68 23 108 71 122v2c-48 13 -71 54 -71 122v124c0 67 -15 88 -70 88h-43v89h70c108 0 156 -49 156 -176v-131c0 -57 18 -73 72 -73v-88c-54 0 -72 -16 -72 -73v-131c0 -127 -48 -176 -156 -176h-70z" />
    <glyph glyph-name="asciitilde" unicode="~" horiz-adv-x="599" 
d="M403 215c-46 0 -80 14 -128 51c-35 27 -55 37 -79 37c-39 0 -60 -26 -62 -76h-88c2 111 57 175 151 175c46 0 80 -14 128 -51c35 -27 54 -37 79 -37c38 0 60 26 62 76h88c-2 -111 -57 -175 -151 -175z" />
    <glyph glyph-name="uni00A0" unicode="&#xa0;" horiz-adv-x="251" 
 />
    <glyph glyph-name="exclamdown" unicode="&#xa1;" horiz-adv-x="301" 
d="M85 389v130h130v-130h-130zM88 -161l3 188l16 278h87l17 -278l3 -188h-126z" />
    <glyph glyph-name="cent" unicode="&#xa2;" horiz-adv-x="599" 
d="M263 -72v74c-119 14 -181 84 -181 209v98c0 124 61 194 181 208v74h93v-75c113 -13 170 -77 173 -191h-116c-2 49 -20 77 -57 88v-307c38 11 55 39 57 89h116c-3 -114 -60 -179 -173 -192v-75h-93zM263 106v308c-43 -12 -61 -45 -61 -107v-95c0 -61 18 -94 61 -106z" />
    <glyph glyph-name="sterling" unicode="&#xa3;" horiz-adv-x="599" 
d="M267 247c0 -63 -18 -109 -54 -141h325v-106h-461v96c54 31 82 69 82 142c0 11 -1 22 -2 32h-101v100h71c-21 53 -29 85 -29 126c0 128 81 196 228 196s220 -68 220 -205h-114c0 65 -32 101 -108 101c-73 0 -106 -33 -106 -103c0 -35 6 -58 25 -115h241v-100h-218
c1 -7 1 -15 1 -23z" />
    <glyph glyph-name="currency" unicode="&#xa4;" horiz-adv-x="599" 
d="M99 75l-67 67l110 111c-14 26 -22 55 -22 87s8 61 22 87l-110 111l67 67l109 -111c26 15 58 24 92 24s65 -9 92 -24l108 111l67 -67l-109 -111c14 -25 22 -55 22 -87s-8 -62 -22 -87l109 -111l-67 -67l-108 111c-27 -15 -58 -24 -92 -24s-66 9 -92 24zM300 256
c49 0 84 36 84 84s-35 84 -84 84s-84 -36 -84 -84s35 -84 84 -84z" />
    <glyph glyph-name="yen" unicode="&#xa5;" horiz-adv-x="599" 
d="M239 0v111h-166v80h166v59h-166v80h154l-209 350h139l145 -257l146 257h133l-211 -350h156v-80h-167v-59h167v-80h-167v-111h-120z" />
    <glyph glyph-name="brokenbar" unicode="&#xa6;" horiz-adv-x="290" 
d="M95 374v400h99v-400h-99zM95 -226v400h99v-400h-99z" />
    <glyph glyph-name="section" unicode="&#xa7;" horiz-adv-x="603" 
d="M298 -196c-156 0 -236 62 -236 185h116c0 -63 40 -91 121 -91c77 0 116 26 116 72c0 48 -39 74 -148 96c-154 31 -215 82 -215 178c0 64 30 111 85 141v2c-45 31 -65 71 -65 129c0 114 82 176 225 176s222 -62 222 -178h-115c0 57 -37 85 -107 85
c-69 0 -107 -27 -107 -72c0 -48 39 -72 146 -94c155 -32 215 -81 215 -177c0 -65 -30 -110 -84 -140v-2c46 -31 66 -73 66 -133c0 -116 -80 -177 -235 -177zM372 156c38 13 62 38 62 76c0 51 -37 76 -148 99c-22 5 -41 9 -58 15c-38 -16 -59 -42 -59 -78
c0 -53 38 -78 148 -99c20 -4 39 -8 55 -13z" />
    <glyph glyph-name="dieresis" unicode="&#xa8;" horiz-adv-x="500" 
d="M94 602v113h118v-113h-118zM287 602v113h118v-113h-118z" />
    <glyph glyph-name="copyright" unicode="&#xa9;" horiz-adv-x="766" 
d="M383 -12c-204 0 -352 148 -352 352s148 352 352 352s352 -148 352 -352s-148 -352 -352 -352zM383 67c159 0 265 109 265 273s-106 273 -265 273c-160 0 -265 -109 -265 -273s105 -273 265 -273zM382 152c-99 0 -144 46 -144 147v82c0 101 45 147 144 147
c97 0 143 -44 144 -138h-85c-2 46 -17 63 -56 63c-43 0 -57 -20 -57 -75v-76c0 -55 14 -75 57 -75c39 0 54 17 56 63h85c-1 -94 -47 -138 -144 -138z" />
    <glyph glyph-name="ordfeminine" unicode="&#xaa;" horiz-adv-x="420" 
d="M152 309c-78 0 -122 43 -122 113c0 77 52 117 143 117h92v19c0 38 -20 58 -66 58c-42 0 -65 -17 -69 -46h-88c9 80 61 122 161 122c106 0 157 -46 157 -136v-235h-81l-3 47c-30 -40 -72 -59 -124 -59zM177 385c38 0 69 15 88 50v42h-77c-44 0 -66 -14 -66 -47
c0 -30 17 -45 55 -45zM38 158v78h322v-78h-322z" />
    <glyph glyph-name="guillemotleft" unicode="&#xab;" horiz-adv-x="522" 
d="M152 82l-135 178l135 179h124l-136 -179l136 -178h-124zM381 82l-135 178l135 179h124l-136 -179l136 -178h-124z" />
    <glyph glyph-name="logicalnot" unicode="&#xac;" horiz-adv-x="599" 
d="M444 124v206h-390v98h491v-304h-101z" />
    <glyph glyph-name="uni00AD" unicode="&#xad;" horiz-adv-x="377" 
d="M33 241v109h310v-109h-310z" />
    <glyph glyph-name="registered" unicode="&#xae;" horiz-adv-x="766" 
d="M383 -12c-204 0 -352 148 -352 352s148 352 352 352s352 -148 352 -352s-148 -352 -352 -352zM383 67c159 0 265 109 265 273s-106 273 -265 273c-160 0 -265 -109 -265 -273s105 -273 265 -273zM240 162v356h158c94 0 135 -35 135 -115c0 -56 -20 -89 -64 -104l84 -137
h-100l-74 127h-49v-127h-90zM330 358h57c42 0 56 12 56 43c0 33 -14 44 -56 44h-57v-87z" />
    <glyph glyph-name="macron" unicode="&#xaf;" horiz-adv-x="500" 
d="M112 616v86h276v-86h-276z" />
    <glyph glyph-name="degree" unicode="&#xb0;" horiz-adv-x="394" 
d="M197 380c-97 0 -168 70 -168 167s71 167 168 167c98 0 168 -70 168 -167s-70 -167 -168 -167zM197 466c46 0 77 34 77 81s-31 81 -77 81c-45 0 -76 -34 -76 -81s31 -81 76 -81z" />
    <glyph glyph-name="plusminus" unicode="&#xb1;" horiz-adv-x="599" 
d="M350 413h195v-99h-195v-168h-101v168h-195v99h195v180h101v-180zM54 0v98h491v-98h-491z" />
    <glyph glyph-name="uni00B2" unicode="&#xb2;" 
d="M36 416v44c0 76 36 125 125 164c57 25 77 46 77 76c0 28 -19 45 -54 45c-38 0 -56 -21 -56 -58v-7h-85v17c0 80 51 125 144 125c91 0 142 -44 142 -119c0 -65 -36 -108 -124 -147c-53 -24 -73 -38 -78 -61h202v-79h-293z" />
    <glyph glyph-name="uni00B3" unicode="&#xb3;" 
d="M185 404c-97 0 -149 39 -149 115v18h86v-7c0 -31 21 -49 62 -49c39 0 59 16 59 49c0 34 -21 48 -65 48h-44v74h41c40 0 60 15 60 46s-20 47 -53 47c-35 0 -55 -17 -55 -47v-6h-85v11c0 78 50 119 143 119c89 0 140 -38 140 -115c0 -42 -16 -70 -50 -85v-2
c41 -15 59 -46 59 -94c0 -82 -52 -122 -149 -122z" />
    <glyph glyph-name="acute" unicode="&#xb4;" horiz-adv-x="500" 
d="M165 592l112 136h136l-137 -136h-111z" />
    <glyph glyph-name="uni00B5" unicode="&#xb5;" horiz-adv-x="580" 
d="M73 -182v701h120v-331c0 -67 25 -94 75 -94c49 0 88 26 119 91v334h120v-519h-102l-4 72c-42 -59 -92 -84 -157 -84c-19 0 -36 2 -51 6v-176h-120z" />
    <glyph glyph-name="paragraph" unicode="&#xb6;" horiz-adv-x="603" 
d="M214 -183v455c-132 6 -190 69 -190 204c0 142 64 204 210 204h278v-863h-105v770h-88v-770h-105z" />
    <glyph glyph-name="periodcentered" unicode="&#xb7;" horiz-adv-x="286" 
d="M78 230v130h130v-130h-130z" />
    <glyph glyph-name="cedilla" unicode="&#xb8;" horiz-adv-x="500" 
d="M226 -207c-43 0 -77 6 -107 22l21 52c21 -11 39 -17 66 -17c34 0 46 10 46 27c0 16 -10 23 -55 23h-21l45 115h60l-27 -71c70 0 101 -23 101 -73c0 -46 -28 -78 -129 -78z" />
    <glyph glyph-name="uni00B9" unicode="&#xb9;" 
d="M71 416v77h89v212c-33 -12 -69 -14 -101 -15v69c54 2 86 16 108 51h84v-317h90v-77h-270z" />
    <glyph glyph-name="ordmasculine" unicode="&#xba;" horiz-adv-x="414" 
d="M207 309c-109 0 -164 53 -164 159v64c0 107 55 160 164 160s164 -53 164 -160v-64c0 -106 -55 -159 -164 -159zM207 386c48 0 70 24 70 82v65c0 57 -22 82 -70 82s-70 -25 -70 -82v-65c0 -58 22 -82 70 -82zM46 158v78h322v-78h-322z" />
    <glyph glyph-name="guillemotright" unicode="&#xbb;" horiz-adv-x="522" 
d="M17 80l135 179l-135 178h123l136 -178l-136 -179h-123zM246 80l135 179l-135 178h123l136 -178l-136 -179h-123z" />
    <glyph glyph-name="onequarter" unicode="&#xbc;" horiz-adv-x="843" 
d="M228 -12l366 704h90l-366 -704h-90zM71 286v77h89v212c-33 -12 -69 -14 -101 -15v69c54 2 86 16 108 51h84v-317h90v-77h-270zM690 0v83h-189v79l183 232h96v-238h43v-73h-43v-83h-90zM586 156h104v137z" />
    <glyph glyph-name="onehalf" unicode="&#xbd;" horiz-adv-x="843" 
d="M193 -12l366 704h90l-366 -704h-90zM71 286v77h89v212c-33 -12 -69 -14 -101 -15v69c54 2 86 16 108 51h84v-317h90v-77h-270zM513 0v44c0 76 36 125 125 164c57 25 77 46 77 76c0 28 -19 45 -54 45c-38 0 -56 -21 -56 -58v-7h-85v17c0 80 51 125 144 125
c91 0 142 -44 142 -119c0 -65 -36 -108 -124 -147c-53 -24 -73 -38 -78 -61h202v-79h-293z" />
    <glyph glyph-name="threequarters" unicode="&#xbe;" horiz-adv-x="843" 
d="M185 274c-97 0 -149 39 -149 115v18h86v-7c0 -31 21 -49 62 -49c39 0 59 16 59 49c0 34 -21 48 -65 48h-44v74h41c40 0 60 15 60 46s-20 47 -53 47c-35 0 -55 -17 -55 -47v-6h-85v11c0 78 50 119 143 119c89 0 140 -38 140 -115c0 -42 -16 -70 -50 -85v-2
c41 -15 59 -46 59 -94c0 -82 -52 -122 -149 -122zM228 -12l366 704h90l-366 -704h-90zM690 0v83h-189v79l183 232h96v-238h43v-73h-43v-83h-90zM586 156h104v137z" />
    <glyph glyph-name="questiondown" unicode="&#xbf;" horiz-adv-x="453" 
d="M182 389v130h130v-130h-130zM229 -173c-132 0 -207 65 -207 179c0 69 26 114 95 161c57 39 77 69 77 118v20h104v-24c0 -78 -26 -127 -93 -175c-48 -35 -64 -57 -64 -96c0 -52 33 -80 89 -80c62 0 95 35 95 103h114c0 -135 -72 -206 -210 -206z" />
    <glyph glyph-name="Agrave" unicode="&#xc0;" horiz-adv-x="610" 
d="M279 746l-137 136h137l111 -136h-111zM5 0l237 680h125l238 -680h-130l-52 154h-241l-53 -154h-124zM215 259h175l-87 279z" />
    <glyph glyph-name="Aacute" unicode="&#xc1;" horiz-adv-x="610" 
d="M220 746l112 136h136l-137 -136h-111zM5 0l237 680h125l238 -680h-130l-52 154h-241l-53 -154h-124zM215 259h175l-87 279z" />
    <glyph glyph-name="Acircumflex" unicode="&#xc2;" horiz-adv-x="610" 
d="M131 746l117 136h113l118 -136h-111l-63 62l-64 -62h-110zM5 0l237 680h125l238 -680h-130l-52 154h-241l-53 -154h-124zM215 259h175l-87 279z" />
    <glyph glyph-name="Atilde" unicode="&#xc3;" horiz-adv-x="610" 
d="M363 745c-26 0 -40 5 -73 28c-21 15 -28 17 -39 17c-19 0 -28 -12 -31 -42h-74c3 88 36 129 101 129c26 0 40 -5 73 -27c23 -15 29 -17 39 -17c20 0 29 11 31 41h74c-3 -88 -35 -129 -101 -129zM5 0l237 680h125l238 -680h-130l-52 154h-241l-53 -154h-124zM215 259h175
l-87 279z" />
    <glyph glyph-name="Adieresis" unicode="&#xc4;" horiz-adv-x="610" 
d="M149 756v113h118v-113h-118zM342 756v113h118v-113h-118zM5 0l237 680h125l238 -680h-130l-52 154h-241l-53 -154h-124zM215 259h175l-87 279z" />
    <glyph glyph-name="Aring" unicode="&#xc5;" horiz-adv-x="610" 
d="M305 728c-67 0 -116 45 -116 110c0 64 49 111 116 111c66 0 115 -47 115 -111c0 -65 -49 -110 -115 -110zM305 794c24 0 41 17 41 44c0 26 -17 43 -41 43s-40 -17 -40 -43c0 -27 16 -44 40 -44zM5 0l237 680h125l238 -680h-130l-52 154h-241l-53 -154h-124zM215 259h175
l-87 279z" />
    <glyph glyph-name="AE" unicode="&#xc6;" horiz-adv-x="898" 
d="M-18 0l391 680h479v-107h-308v-174h258v-106h-258v-186h318v-107h-440v154h-219l-88 -154h-133zM260 259h162v300z" />
    <glyph glyph-name="Ccedilla" unicode="&#xc7;" horiz-adv-x="615" 
d="M317 95c92 0 132 43 136 139h118c-5 -154 -76 -234 -220 -245l-17 -45c70 0 101 -23 101 -73c0 -46 -28 -78 -129 -78c-43 0 -77 6 -107 22l21 52c21 -11 39 -17 66 -17c34 0 46 10 46 27c0 16 -10 23 -55 23h-21l35 89c-158 8 -234 96 -234 272v158
c0 185 84 273 259 273c168 0 250 -80 255 -247h-118c-4 97 -44 140 -136 140c-98 0 -138 -50 -138 -168v-154c0 -118 40 -168 138 -168z" />
    <glyph glyph-name="Egrave" unicode="&#xc8;" horiz-adv-x="585" 
d="M285 746l-137 136h137l111 -136h-111zM83 0v680h456v-107h-334v-173h284v-106h-284v-187h344v-107h-466z" />
    <glyph glyph-name="Eacute" unicode="&#xc9;" horiz-adv-x="585" 
d="M226 746l112 136h136l-137 -136h-111zM83 0v680h456v-107h-334v-173h284v-106h-284v-187h344v-107h-466z" />
    <glyph glyph-name="Ecircumflex" unicode="&#xca;" horiz-adv-x="585" 
d="M137 746l117 136h113l118 -136h-111l-63 62l-64 -62h-110zM83 0v680h456v-107h-334v-173h284v-106h-284v-187h344v-107h-466z" />
    <glyph glyph-name="Edieresis" unicode="&#xcb;" horiz-adv-x="585" 
d="M155 756v113h118v-113h-118zM348 756v113h118v-113h-118zM83 0v680h456v-107h-334v-173h284v-106h-284v-187h344v-107h-466z" />
    <glyph glyph-name="Igrave" unicode="&#xcc;" horiz-adv-x="288" 
d="M118 746l-137 136h137l111 -136h-111zM83 0v680h122v-680h-122z" />
    <glyph glyph-name="Iacute" unicode="&#xcd;" horiz-adv-x="288" 
d="M59 746l112 136h136l-137 -136h-111zM83 0v680h122v-680h-122z" />
    <glyph glyph-name="Icircumflex" unicode="&#xce;" horiz-adv-x="288" 
d="M-22 746l110 136h113l110 -136h-107l-60 63l-59 -63h-107zM83 0v680h122v-680h-122z" />
    <glyph glyph-name="Idieresis" unicode="&#xcf;" horiz-adv-x="288" 
d="M1 756v113h116v-113h-116zM171 756v113h116v-113h-116zM83 0v680h122v-680h-122z" />
    <glyph glyph-name="Eth" unicode="&#xd0;" horiz-adv-x="655" 
d="M338 680c180 0 261 -84 261 -266v-148c0 -183 -81 -266 -261 -266h-245v294h-69v106h69v280h245zM477 268v144c0 117 -42 161 -156 161h-106v-173h132v-106h-132v-187h106c114 0 156 44 156 161z" />
    <glyph glyph-name="Ntilde" unicode="&#xd1;" horiz-adv-x="686" 
d="M401 745c-26 0 -40 5 -73 28c-21 15 -28 17 -39 17c-19 0 -28 -12 -31 -42h-74c3 88 36 129 101 129c26 0 40 -5 73 -27c23 -15 29 -17 39 -17c20 0 29 11 31 41h74c-3 -88 -35 -129 -101 -129zM83 0v680h135l269 -472v472h116v-680h-117l-287 503v-503h-116z" />
    <glyph glyph-name="Ograve" unicode="&#xd2;" horiz-adv-x="654" 
d="M300 746l-137 136h137l111 -136h-111zM327 -12c-183 0 -270 89 -270 274v156c0 185 87 274 270 274s270 -89 270 -274v-156c0 -185 -87 -274 -270 -274zM327 95c104 0 148 51 148 168v154c0 117 -44 168 -148 168s-148 -51 -148 -168v-154c0 -117 44 -168 148 -168z" />
    <glyph glyph-name="Oacute" unicode="&#xd3;" horiz-adv-x="654" 
d="M241 746l112 136h136l-137 -136h-111zM327 -12c-183 0 -270 89 -270 274v156c0 185 87 274 270 274s270 -89 270 -274v-156c0 -185 -87 -274 -270 -274zM327 95c104 0 148 51 148 168v154c0 117 -44 168 -148 168s-148 -51 -148 -168v-154c0 -117 44 -168 148 -168z" />
    <glyph glyph-name="Ocircumflex" unicode="&#xd4;" horiz-adv-x="654" 
d="M152 746l117 136h113l118 -136h-111l-63 62l-64 -62h-110zM327 -12c-183 0 -270 89 -270 274v156c0 185 87 274 270 274s270 -89 270 -274v-156c0 -185 -87 -274 -270 -274zM327 95c104 0 148 51 148 168v154c0 117 -44 168 -148 168s-148 -51 -148 -168v-154
c0 -117 44 -168 148 -168z" />
    <glyph glyph-name="Otilde" unicode="&#xd5;" horiz-adv-x="654" 
d="M384 745c-26 0 -40 5 -73 28c-21 15 -28 17 -39 17c-19 0 -28 -12 -31 -42h-74c3 88 36 129 101 129c26 0 40 -5 73 -27c23 -15 29 -17 39 -17c20 0 29 11 31 41h74c-3 -88 -35 -129 -101 -129zM327 -12c-183 0 -270 89 -270 274v156c0 185 87 274 270 274
s270 -89 270 -274v-156c0 -185 -87 -274 -270 -274zM327 95c104 0 148 51 148 168v154c0 117 -44 168 -148 168s-148 -51 -148 -168v-154c0 -117 44 -168 148 -168z" />
    <glyph glyph-name="Odieresis" unicode="&#xd6;" horiz-adv-x="654" 
d="M170 756v113h118v-113h-118zM363 756v113h118v-113h-118zM327 -12c-183 0 -270 89 -270 274v156c0 185 87 274 270 274s270 -89 270 -274v-156c0 -185 -87 -274 -270 -274zM327 95c104 0 148 51 148 168v154c0 117 -44 168 -148 168s-148 -51 -148 -168v-154
c0 -117 44 -168 148 -168z" />
    <glyph glyph-name="multiply" unicode="&#xd7;" horiz-adv-x="599" 
d="M123 60l-71 70l178 179l-178 179l71 70l177 -178l177 178l71 -70l-178 -179l178 -179l-71 -70l-177 178z" />
    <glyph glyph-name="Oslash" unicode="&#xd8;" horiz-adv-x="654" 
d="M597 635l-36 -51c24 -42 36 -98 36 -166v-156c0 -185 -87 -274 -270 -274c-68 0 -123 12 -165 37l-26 -37l-79 57l36 51c-24 42 -36 98 -36 166v156c0 185 87 274 270 274c68 0 123 -12 165 -37l26 37zM179 263c0 -16 1 -30 2 -43l243 340c-24 17 -56 25 -97 25
c-104 0 -148 -51 -148 -168v-154zM475 417c0 16 -1 30 -2 43l-243 -340c24 -17 56 -25 97 -25c104 0 148 51 148 168v154z" />
    <glyph glyph-name="Ugrave" unicode="&#xd9;" horiz-adv-x="635" 
d="M291 746l-137 136h137l111 -136h-111zM318 -12c-175 0 -250 72 -250 238v454h122v-451c0 -98 35 -134 130 -134s130 36 130 134v451h118v-454c0 -166 -74 -238 -250 -238z" />
    <glyph glyph-name="Uacute" unicode="&#xda;" horiz-adv-x="635" 
d="M232 746l112 136h136l-137 -136h-111zM318 -12c-175 0 -250 72 -250 238v454h122v-451c0 -98 35 -134 130 -134s130 36 130 134v451h118v-454c0 -166 -74 -238 -250 -238z" />
    <glyph glyph-name="Ucircumflex" unicode="&#xdb;" horiz-adv-x="635" 
d="M143 746l117 136h113l118 -136h-111l-63 62l-64 -62h-110zM318 -12c-175 0 -250 72 -250 238v454h122v-451c0 -98 35 -134 130 -134s130 36 130 134v451h118v-454c0 -166 -74 -238 -250 -238z" />
    <glyph glyph-name="Udieresis" unicode="&#xdc;" horiz-adv-x="635" 
d="M161 756v113h118v-113h-118zM354 756v113h118v-113h-118zM318 -12c-175 0 -250 72 -250 238v454h122v-451c0 -98 35 -134 130 -134s130 36 130 134v451h118v-454c0 -166 -74 -238 -250 -238z" />
    <glyph glyph-name="Yacute" unicode="&#xdd;" horiz-adv-x="546" 
d="M188 746l112 136h136l-137 -136h-111zM564 680l-230 -391v-289h-122v287l-230 393h140l156 -270l155 270h131z" />
    <glyph glyph-name="Thorn" unicode="&#xde;" horiz-adv-x="607" 
d="M83 0v680h122v-97h141c166 0 237 -65 237 -216s-71 -214 -237 -214h-141v-153h-122zM205 259h131c90 0 125 31 125 108c0 78 -35 109 -125 109h-131v-217z" />
    <glyph glyph-name="germandbls" unicode="&#xdf;" horiz-adv-x="598" 
d="M97 0v426h-87v93h87v36c0 123 69 187 206 187c130 0 198 -58 198 -158c0 -51 -16 -87 -60 -135c-28 -30 -36 -46 -36 -65c0 -26 14 -40 61 -62c77 -36 106 -77 106 -151c0 -112 -70 -171 -213 -171h-62v97h61c64 0 95 23 95 65c0 32 -16 50 -68 75c-71 34 -97 69 -97 134
c0 49 15 84 56 129c30 33 40 53 40 78c0 41 -27 68 -80 68c-60 0 -87 -33 -87 -91v-555h-120z" />
    <glyph glyph-name="agrave" unicode="&#xe0;" horiz-adv-x="542" 
d="M239 592l-137 136h137l111 -136h-111zM206 -12c-104 0 -168 58 -168 160c0 107 69 166 210 166h110v23c0 66 -29 97 -94 97c-61 0 -92 -26 -95 -75h-116c8 114 78 172 215 172c143 0 210 -62 210 -195v-336h-102l-4 68c-39 -53 -93 -80 -166 -80zM236 85
c55 0 96 27 122 79v64h-94c-78 0 -107 -25 -107 -73c0 -45 27 -70 79 -70z" />
    <glyph glyph-name="aacute" unicode="&#xe1;" horiz-adv-x="542" 
d="M180 592l112 136h136l-137 -136h-111zM206 -12c-104 0 -168 58 -168 160c0 107 69 166 210 166h110v23c0 66 -29 97 -94 97c-61 0 -92 -26 -95 -75h-116c8 114 78 172 215 172c143 0 210 -62 210 -195v-336h-102l-4 68c-39 -53 -93 -80 -166 -80zM236 85
c55 0 96 27 122 79v64h-94c-78 0 -107 -25 -107 -73c0 -45 27 -70 79 -70z" />
    <glyph glyph-name="acircumflex" unicode="&#xe2;" horiz-adv-x="542" 
d="M91 592l117 136h113l118 -136h-111l-63 62l-64 -62h-110zM206 -12c-104 0 -168 58 -168 160c0 107 69 166 210 166h110v23c0 66 -29 97 -94 97c-61 0 -92 -26 -95 -75h-116c8 114 78 172 215 172c143 0 210 -62 210 -195v-336h-102l-4 68c-39 -53 -93 -80 -166 -80z
M236 85c55 0 96 27 122 79v64h-94c-78 0 -107 -25 -107 -73c0 -45 27 -70 79 -70z" />
    <glyph glyph-name="atilde" unicode="&#xe3;" horiz-adv-x="542" 
d="M323 591c-26 0 -40 5 -73 28c-21 15 -28 17 -39 17c-19 0 -28 -12 -31 -42h-74c3 88 36 129 101 129c26 0 40 -5 73 -27c23 -15 29 -17 39 -17c20 0 29 11 31 41h74c-3 -88 -35 -129 -101 -129zM206 -12c-104 0 -168 58 -168 160c0 107 69 166 210 166h110v23
c0 66 -29 97 -94 97c-61 0 -92 -26 -95 -75h-116c8 114 78 172 215 172c143 0 210 -62 210 -195v-336h-102l-4 68c-39 -53 -93 -80 -166 -80zM236 85c55 0 96 27 122 79v64h-94c-78 0 -107 -25 -107 -73c0 -45 27 -70 79 -70z" />
    <glyph glyph-name="adieresis" unicode="&#xe4;" horiz-adv-x="542" 
d="M109 602v113h118v-113h-118zM302 602v113h118v-113h-118zM206 -12c-104 0 -168 58 -168 160c0 107 69 166 210 166h110v23c0 66 -29 97 -94 97c-61 0 -92 -26 -95 -75h-116c8 114 78 172 215 172c143 0 210 -62 210 -195v-336h-102l-4 68c-39 -53 -93 -80 -166 -80z
M236 85c55 0 96 27 122 79v64h-94c-78 0 -107 -25 -107 -73c0 -45 27 -70 79 -70z" />
    <glyph glyph-name="aring" unicode="&#xe5;" horiz-adv-x="542" 
d="M265 574c-67 0 -116 45 -116 110c0 64 49 111 116 111c66 0 115 -47 115 -111c0 -65 -49 -110 -115 -110zM265 640c24 0 41 17 41 44c0 26 -17 43 -41 43s-40 -17 -40 -43c0 -27 16 -44 40 -44zM206 -12c-104 0 -168 58 -168 160c0 107 69 166 210 166h110v23
c0 66 -29 97 -94 97c-61 0 -92 -26 -95 -75h-116c8 114 78 172 215 172c143 0 210 -62 210 -195v-336h-102l-4 68c-39 -53 -93 -80 -166 -80zM236 85c55 0 96 27 122 79v64h-94c-78 0 -107 -25 -107 -73c0 -45 27 -70 79 -70z" />
    <glyph glyph-name="ae" unicode="&#xe6;" horiz-adv-x="858" 
d="M213 -12c-110 0 -175 56 -175 160c0 106 69 166 210 166h110v24c0 65 -28 96 -94 96c-63 0 -91 -27 -95 -75h-116c9 117 80 172 204 172c84 0 140 -25 168 -78c32 52 87 78 169 78c140 0 215 -76 215 -221v-86h-331v-16c0 -84 35 -123 112 -123c63 0 97 27 101 72h115
c-6 -110 -82 -169 -217 -169c-94 0 -160 28 -197 84c-45 -58 -104 -84 -179 -84zM478 313h217c0 84 -32 121 -107 121c-77 0 -110 -37 -110 -121zM236 85c57 0 98 29 124 83c-1 13 -2 27 -2 41v19h-94c-77 0 -107 -26 -107 -73c0 -45 27 -70 79 -70z" />
    <glyph glyph-name="ccedilla" unicode="&#xe7;" horiz-adv-x="522" 
d="M274 88c64 0 95 31 99 102h115c-3 -123 -65 -191 -183 -201l-17 -45c70 0 101 -23 101 -73c0 -46 -28 -78 -129 -78c-43 0 -77 6 -107 22l21 52c21 -11 39 -17 66 -17c34 0 46 10 46 27c0 16 -10 23 -55 23h-21l35 89c-128 9 -194 84 -194 220v102c0 145 76 220 222 220
c138 0 212 -67 215 -201h-115c-4 70 -35 101 -99 101c-70 0 -103 -37 -103 -122v-99c0 -85 33 -122 103 -122z" />
    <glyph glyph-name="egrave" unicode="&#xe8;" horiz-adv-x="551" 
d="M248 592l-137 136h137l111 -136h-111zM282 -12c-151 0 -231 76 -231 221v102c0 143 79 220 225 220c148 0 226 -78 226 -221v-86h-331v-16c0 -84 34 -123 111 -123c63 0 98 27 102 72h115c-6 -111 -83 -169 -217 -169zM171 313h217c0 84 -33 121 -108 121
c-76 0 -109 -37 -109 -121z" />
    <glyph glyph-name="eacute" unicode="&#xe9;" horiz-adv-x="551" 
d="M189 592l112 136h136l-137 -136h-111zM282 -12c-151 0 -231 76 -231 221v102c0 143 79 220 225 220c148 0 226 -78 226 -221v-86h-331v-16c0 -84 34 -123 111 -123c63 0 98 27 102 72h115c-6 -111 -83 -169 -217 -169zM171 313h217c0 84 -33 121 -108 121
c-76 0 -109 -37 -109 -121z" />
    <glyph glyph-name="ecircumflex" unicode="&#xea;" horiz-adv-x="551" 
d="M100 592l117 136h113l118 -136h-111l-63 62l-64 -62h-110zM282 -12c-151 0 -231 76 -231 221v102c0 143 79 220 225 220c148 0 226 -78 226 -221v-86h-331v-16c0 -84 34 -123 111 -123c63 0 98 27 102 72h115c-6 -111 -83 -169 -217 -169zM171 313h217
c0 84 -33 121 -108 121c-76 0 -109 -37 -109 -121z" />
    <glyph glyph-name="edieresis" unicode="&#xeb;" horiz-adv-x="551" 
d="M118 602v113h118v-113h-118zM311 602v113h118v-113h-118zM282 -12c-151 0 -231 76 -231 221v102c0 143 79 220 225 220c148 0 226 -78 226 -221v-86h-331v-16c0 -84 34 -123 111 -123c63 0 98 27 102 72h115c-6 -111 -83 -169 -217 -169zM171 313h217
c0 84 -33 121 -108 121c-76 0 -109 -37 -109 -121z" />
    <glyph glyph-name="igrave" unicode="&#xec;" horiz-adv-x="266" 
d="M107 592l-137 136h137l111 -136h-111zM73 0v519h120v-519h-120z" />
    <glyph glyph-name="iacute" unicode="&#xed;" horiz-adv-x="266" 
d="M48 592l112 136h136l-137 -136h-111zM73 0v519h120v-519h-120z" />
    <glyph glyph-name="icircumflex" unicode="&#xee;" horiz-adv-x="266" 
d="M-33 592l110 136h113l110 -136h-107l-60 63l-59 -63h-107zM73 0v519h120v-519h-120z" />
    <glyph glyph-name="idieresis" unicode="&#xef;" horiz-adv-x="266" 
d="M-10 602v113h116v-113h-116zM160 602v113h116v-113h-116zM73 0v519h120v-519h-120z" />
    <glyph glyph-name="eth" unicode="&#xf0;" horiz-adv-x="558" 
d="M278 -12c-153 0 -230 75 -230 226v59c0 142 67 218 185 218c60 0 102 -20 136 -60c-18 47 -45 94 -81 138l-136 -52l-29 77l105 40c-37 34 -79 67 -126 96h164c25 -17 48 -36 69 -55l96 36l29 -76l-65 -25c73 -92 114 -202 114 -319v-77c0 -151 -77 -226 -231 -226z
M278 88c77 0 111 40 111 130v74c-17 59 -57 99 -123 99c-63 0 -98 -38 -98 -120v-53c0 -90 33 -130 110 -130z" />
    <glyph glyph-name="ntilde" unicode="&#xf1;" horiz-adv-x="570" 
d="M344 591c-26 0 -40 5 -73 28c-21 15 -28 17 -39 17c-19 0 -28 -12 -31 -42h-74c3 88 36 129 101 129c26 0 40 -5 73 -27c23 -15 29 -17 39 -17c20 0 29 11 31 41h74c-3 -88 -35 -129 -101 -129zM73 0v519h102l4 -71c42 58 93 83 161 83c108 0 163 -64 163 -188v-343h-120
v332c0 64 -24 93 -74 93c-49 0 -87 -29 -116 -88v-337h-120z" />
    <glyph glyph-name="ograve" unicode="&#xf2;" horiz-adv-x="562" 
d="M255 592l-137 136h137l111 -136h-111zM281 -12c-152 0 -230 76 -230 226v91c0 150 78 226 230 226c153 0 231 -76 231 -226v-91c0 -150 -78 -226 -231 -226zM281 88c77 0 111 40 111 129v85c0 89 -34 129 -111 129c-76 0 -110 -40 -110 -129v-85c0 -89 34 -129 110 -129z
" />
    <glyph glyph-name="oacute" unicode="&#xf3;" horiz-adv-x="562" 
d="M196 592l112 136h136l-137 -136h-111zM281 -12c-152 0 -230 76 -230 226v91c0 150 78 226 230 226c153 0 231 -76 231 -226v-91c0 -150 -78 -226 -231 -226zM281 88c77 0 111 40 111 129v85c0 89 -34 129 -111 129c-76 0 -110 -40 -110 -129v-85c0 -89 34 -129 110 -129z
" />
    <glyph glyph-name="ocircumflex" unicode="&#xf4;" horiz-adv-x="562" 
d="M107 592l117 136h113l118 -136h-111l-63 62l-64 -62h-110zM281 -12c-152 0 -230 76 -230 226v91c0 150 78 226 230 226c153 0 231 -76 231 -226v-91c0 -150 -78 -226 -231 -226zM281 88c77 0 111 40 111 129v85c0 89 -34 129 -111 129c-76 0 -110 -40 -110 -129v-85
c0 -89 34 -129 110 -129z" />
    <glyph glyph-name="otilde" unicode="&#xf5;" horiz-adv-x="562" 
d="M339 591c-26 0 -40 5 -73 28c-21 15 -28 17 -39 17c-19 0 -28 -12 -31 -42h-74c3 88 36 129 101 129c26 0 40 -5 73 -27c23 -15 29 -17 39 -17c20 0 29 11 31 41h74c-3 -88 -35 -129 -101 -129zM281 -12c-152 0 -230 76 -230 226v91c0 150 78 226 230 226
c153 0 231 -76 231 -226v-91c0 -150 -78 -226 -231 -226zM281 88c77 0 111 40 111 129v85c0 89 -34 129 -111 129c-76 0 -110 -40 -110 -129v-85c0 -89 34 -129 110 -129z" />
    <glyph glyph-name="odieresis" unicode="&#xf6;" horiz-adv-x="562" 
d="M125 602v113h118v-113h-118zM318 602v113h118v-113h-118zM281 -12c-152 0 -230 76 -230 226v91c0 150 78 226 230 226c153 0 231 -76 231 -226v-91c0 -150 -78 -226 -231 -226zM281 88c77 0 111 40 111 129v85c0 89 -34 129 -111 129c-76 0 -110 -40 -110 -129v-85
c0 -89 34 -129 110 -129z" />
    <glyph glyph-name="divide" unicode="&#xf7;" horiz-adv-x="599" 
d="M234 461v117h130v-117h-130zM54 260v98h491v-98h-491zM234 40v117h130v-117h-130z" />
    <glyph glyph-name="oslash" unicode="&#xf8;" horiz-adv-x="562" 
d="M512 474l-30 -37c20 -34 30 -78 30 -132v-91c0 -150 -78 -226 -231 -226c-56 0 -102 10 -138 31l-25 -31l-68 57l30 37c-19 35 -29 79 -29 132v91c0 150 78 226 230 226c56 0 102 -10 138 -31l25 31zM171 217c0 -8 0 -15 1 -22l177 219c-17 12 -40 17 -68 17
c-76 0 -110 -40 -110 -129v-85zM392 302c0 8 0 16 -1 23l-178 -220c17 -11 40 -17 68 -17c77 0 111 40 111 129v85z" />
    <glyph glyph-name="ugrave" unicode="&#xf9;" horiz-adv-x="574" 
d="M258 592l-137 136h137l111 -136h-111zM232 -12c-109 0 -165 64 -165 188v343h120v-332c0 -65 24 -93 75 -93c50 0 90 28 119 90v335h120v-519h-102l-4 73c-43 -59 -94 -85 -163 -85z" />
    <glyph glyph-name="uacute" unicode="&#xfa;" horiz-adv-x="574" 
d="M199 592l112 136h136l-137 -136h-111zM232 -12c-109 0 -165 64 -165 188v343h120v-332c0 -65 24 -93 75 -93c50 0 90 28 119 90v335h120v-519h-102l-4 73c-43 -59 -94 -85 -163 -85z" />
    <glyph glyph-name="ucircumflex" unicode="&#xfb;" horiz-adv-x="574" 
d="M110 592l117 136h113l118 -136h-111l-63 62l-64 -62h-110zM232 -12c-109 0 -165 64 -165 188v343h120v-332c0 -65 24 -93 75 -93c50 0 90 28 119 90v335h120v-519h-102l-4 73c-43 -59 -94 -85 -163 -85z" />
    <glyph glyph-name="udieresis" unicode="&#xfc;" horiz-adv-x="574" 
d="M128 602v113h118v-113h-118zM321 602v113h118v-113h-118zM232 -12c-109 0 -165 64 -165 188v343h120v-332c0 -65 24 -93 75 -93c50 0 90 28 119 90v335h120v-519h-102l-4 73c-43 -59 -94 -85 -163 -85z" />
    <glyph glyph-name="yacute" unicode="&#xfd;" horiz-adv-x="485" 
d="M158 592l112 136h136l-137 -136h-111zM60 -182v97h51c34 0 48 10 60 46l17 53l-181 505h128l115 -354l107 354h121l-193 -572c-34 -100 -69 -129 -161 -129h-64z" />
    <glyph glyph-name="thorn" unicode="&#xfe;" horiz-adv-x="580" 
d="M73 -182v912h120v-264c39 45 86 65 148 65c119 0 188 -73 188 -214v-114c0 -141 -69 -215 -188 -215c-62 0 -109 20 -148 65v-235h-120zM318 88c58 0 91 37 91 116v111c0 78 -33 116 -92 116c-54 0 -96 -33 -124 -94v-154c28 -62 70 -95 125 -95z" />
    <glyph glyph-name="ydieresis" unicode="&#xff;" horiz-adv-x="485" 
d="M87 602v113h118v-113h-118zM280 602v113h118v-113h-118zM60 -182v97h51c34 0 48 10 60 46l17 53l-181 505h128l115 -354l107 354h121l-193 -572c-34 -100 -69 -129 -161 -129h-64z" />
    <glyph glyph-name="Amacron" unicode="&#x100;" horiz-adv-x="610" 
d="M167 770v86h276v-86h-276zM5 0l237 680h125l238 -680h-130l-52 154h-241l-53 -154h-124zM215 259h175l-87 279z" />
    <glyph glyph-name="amacron" unicode="&#x101;" horiz-adv-x="542" 
d="M127 616v86h276v-86h-276zM206 -12c-104 0 -168 58 -168 160c0 107 69 166 210 166h110v23c0 66 -29 97 -94 97c-61 0 -92 -26 -95 -75h-116c8 114 78 172 215 172c143 0 210 -62 210 -195v-336h-102l-4 68c-39 -53 -93 -80 -166 -80zM236 85c55 0 96 27 122 79v64h-94
c-78 0 -107 -25 -107 -73c0 -45 27 -70 79 -70z" />
    <glyph glyph-name="Abreve" unicode="&#x102;" horiz-adv-x="610" 
d="M305 740c-91 0 -147 55 -151 139h84c3 -37 26 -58 67 -58c42 0 65 21 67 58h85c-4 -84 -60 -139 -152 -139zM5 0l237 680h125l238 -680h-130l-52 154h-241l-53 -154h-124zM215 259h175l-87 279z" />
    <glyph glyph-name="abreve" unicode="&#x103;" horiz-adv-x="542" 
d="M265 586c-91 0 -147 55 -151 139h84c3 -37 26 -58 67 -58c42 0 65 21 67 58h85c-4 -84 -60 -139 -152 -139zM206 -12c-104 0 -168 58 -168 160c0 107 69 166 210 166h110v23c0 66 -29 97 -94 97c-61 0 -92 -26 -95 -75h-116c8 114 78 172 215 172c143 0 210 -62 210 -195
v-336h-102l-4 68c-39 -53 -93 -80 -166 -80zM236 85c55 0 96 27 122 79v64h-94c-78 0 -107 -25 -107 -73c0 -45 27 -70 79 -70z" />
    <glyph glyph-name="Aogonek" unicode="&#x104;" horiz-adv-x="610" 
d="M509 -87c0 -24 16 -37 45 -37c16 0 32 4 51 13v-80c-21 -8 -46 -13 -75 -13c-74 0 -117 31 -117 90c0 41 22 79 68 114h-6l-52 154h-241l-53 -154h-124l237 680h125l238 -680h-28c-42 -26 -68 -55 -68 -87zM215 259h175l-87 279z" />
    <glyph glyph-name="aogonek" unicode="&#x105;" horiz-adv-x="542" 
d="M450 0c-42 -26 -68 -55 -68 -87c0 -24 16 -37 45 -37c16 0 32 4 51 13v-80c-21 -8 -46 -13 -75 -13c-74 0 -117 31 -117 90c0 47 28 90 89 129l-3 53c-39 -53 -93 -80 -166 -80c-104 0 -168 58 -168 160c0 107 69 166 210 166h110v23c0 66 -29 97 -94 97
c-61 0 -92 -26 -95 -75h-116c8 114 78 172 215 172c143 0 210 -62 210 -195v-336h-28zM358 164v64h-94c-78 0 -107 -25 -107 -73c0 -45 27 -70 79 -70c55 0 96 27 122 79z" />
    <glyph glyph-name="Cacute" unicode="&#x106;" horiz-adv-x="615" 
d="M230 746l112 136h136l-137 -136h-111zM316 -12c-175 0 -259 88 -259 273v158c0 185 84 273 259 273c168 0 250 -80 255 -247h-118c-4 97 -44 140 -136 140c-98 0 -138 -50 -138 -168v-154c0 -118 40 -168 138 -168c92 0 132 43 136 139h118c-5 -166 -87 -246 -255 -246z
" />
    <glyph glyph-name="cacute" unicode="&#x107;" horiz-adv-x="522" 
d="M185 592l112 136h136l-137 -136h-111zM273 -12c-146 0 -222 75 -222 221v102c0 145 76 220 222 220c138 0 212 -67 215 -201h-115c-4 70 -35 101 -99 101c-70 0 -103 -37 -103 -122v-99c0 -85 33 -122 103 -122c64 0 95 31 99 102h115c-3 -134 -77 -202 -215 -202z" />
    <glyph glyph-name="Ccircumflex" unicode="&#x108;" horiz-adv-x="615" 
d="M141 746l117 136h113l118 -136h-111l-63 62l-64 -62h-110zM316 -12c-175 0 -259 88 -259 273v158c0 185 84 273 259 273c168 0 250 -80 255 -247h-118c-4 97 -44 140 -136 140c-98 0 -138 -50 -138 -168v-154c0 -118 40 -168 138 -168c92 0 132 43 136 139h118
c-5 -166 -87 -246 -255 -246z" />
    <glyph glyph-name="ccircumflex" unicode="&#x109;" horiz-adv-x="522" 
d="M96 592l117 136h113l118 -136h-111l-63 62l-64 -62h-110zM273 -12c-146 0 -222 75 -222 221v102c0 145 76 220 222 220c138 0 212 -67 215 -201h-115c-4 70 -35 101 -99 101c-70 0 -103 -37 -103 -122v-99c0 -85 33 -122 103 -122c64 0 95 31 99 102h115
c-3 -134 -77 -202 -215 -202z" />
    <glyph glyph-name="Cdotaccent" unicode="&#x10a;" horiz-adv-x="615" 
d="M254 756v113h123v-113h-123zM316 -12c-175 0 -259 88 -259 273v158c0 185 84 273 259 273c168 0 250 -80 255 -247h-118c-4 97 -44 140 -136 140c-98 0 -138 -50 -138 -168v-154c0 -118 40 -168 138 -168c92 0 132 43 136 139h118c-5 -166 -87 -246 -255 -246z" />
    <glyph glyph-name="cdotaccent" unicode="&#x10b;" horiz-adv-x="522" 
d="M209 602v113h123v-113h-123zM273 -12c-146 0 -222 75 -222 221v102c0 145 76 220 222 220c138 0 212 -67 215 -201h-115c-4 70 -35 101 -99 101c-70 0 -103 -37 -103 -122v-99c0 -85 33 -122 103 -122c64 0 95 31 99 102h115c-3 -134 -77 -202 -215 -202z" />
    <glyph glyph-name="Ccaron" unicode="&#x10c;" horiz-adv-x="615" 
d="M258 746l-117 136h110l64 -62l63 62h111l-118 -136h-113zM316 -12c-175 0 -259 88 -259 273v158c0 185 84 273 259 273c168 0 250 -80 255 -247h-118c-4 97 -44 140 -136 140c-98 0 -138 -50 -138 -168v-154c0 -118 40 -168 138 -168c92 0 132 43 136 139h118
c-5 -166 -87 -246 -255 -246z" />
    <glyph glyph-name="ccaron" unicode="&#x10d;" horiz-adv-x="522" 
d="M213 592l-117 136h110l64 -62l63 62h111l-118 -136h-113zM273 -12c-146 0 -222 75 -222 221v102c0 145 76 220 222 220c138 0 212 -67 215 -201h-115c-4 70 -35 101 -99 101c-70 0 -103 -37 -103 -122v-99c0 -85 33 -122 103 -122c64 0 95 31 99 102h115
c-3 -134 -77 -202 -215 -202z" />
    <glyph glyph-name="Dcaron" unicode="&#x10e;" horiz-adv-x="645" 
d="M254 746l-117 136h110l64 -62l63 62h111l-118 -136h-113zM83 0v680h245c180 0 261 -84 261 -266v-148c0 -183 -81 -266 -261 -266h-245zM205 107h106c114 0 156 44 156 161v144c0 117 -42 161 -156 161h-106v-466z" />
    <glyph glyph-name="dcaron" unicode="&#x10f;" horiz-adv-x="608" 
d="M239 -12c-120 0 -188 73 -188 214v114c0 141 68 215 188 215c62 0 109 -20 148 -66v265h120v-730h-102l-4 72c-41 -58 -92 -84 -162 -84zM539 515l40 215h118l-77 -215h-81zM263 88c55 0 97 34 124 97v149c-27 63 -69 97 -125 97c-58 0 -91 -37 -91 -116v-111
c0 -78 33 -116 92 -116z" />
    <glyph glyph-name="Dcroat" unicode="&#x110;" horiz-adv-x="655" 
d="M338 680c180 0 261 -84 261 -266v-148c0 -183 -81 -266 -261 -266h-245v294h-69v106h69v280h245zM477 268v144c0 117 -42 161 -156 161h-106v-173h132v-106h-132v-187h106c114 0 156 44 156 161z" />
    <glyph glyph-name="dcroat" unicode="&#x111;" horiz-adv-x="588" 
d="M583 663v-85h-76v-578h-102l-4 72c-41 -58 -92 -84 -162 -84c-120 0 -188 73 -188 214v114c0 141 68 215 188 215c62 0 109 -20 148 -66v113h-128v85h128v67h120v-67h76zM387 185v149c-27 63 -69 97 -125 97c-58 0 -91 -37 -91 -116v-111c0 -78 33 -116 92 -116
c55 0 97 34 124 97z" />
    <glyph glyph-name="Emacron" unicode="&#x112;" horiz-adv-x="585" 
d="M173 770v86h276v-86h-276zM83 0v680h456v-107h-334v-173h284v-106h-284v-187h344v-107h-466z" />
    <glyph glyph-name="emacron" unicode="&#x113;" horiz-adv-x="551" 
d="M136 616v86h276v-86h-276zM282 -12c-151 0 -231 76 -231 221v102c0 143 79 220 225 220c148 0 226 -78 226 -221v-86h-331v-16c0 -84 34 -123 111 -123c63 0 98 27 102 72h115c-6 -111 -83 -169 -217 -169zM171 313h217c0 84 -33 121 -108 121c-76 0 -109 -37 -109 -121z
" />
    <glyph glyph-name="Ebreve" unicode="&#x114;" horiz-adv-x="585" 
d="M311 740c-91 0 -147 55 -151 139h84c3 -37 26 -58 67 -58c42 0 65 21 67 58h85c-4 -84 -60 -139 -152 -139zM83 0v680h456v-107h-334v-173h284v-106h-284v-187h344v-107h-466z" />
    <glyph glyph-name="ebreve" unicode="&#x115;" horiz-adv-x="551" 
d="M274 586c-91 0 -147 55 -151 139h84c3 -37 26 -58 67 -58c42 0 65 21 67 58h85c-4 -84 -60 -139 -152 -139zM282 -12c-151 0 -231 76 -231 221v102c0 143 79 220 225 220c148 0 226 -78 226 -221v-86h-331v-16c0 -84 34 -123 111 -123c63 0 98 27 102 72h115
c-6 -111 -83 -169 -217 -169zM171 313h217c0 84 -33 121 -108 121c-76 0 -109 -37 -109 -121z" />
    <glyph glyph-name="Edotaccent" unicode="&#x116;" horiz-adv-x="585" 
d="M250 756v113h123v-113h-123zM83 0v680h456v-107h-334v-173h284v-106h-284v-187h344v-107h-466z" />
    <glyph glyph-name="edotaccent" unicode="&#x117;" horiz-adv-x="551" 
d="M213 602v113h123v-113h-123zM282 -12c-151 0 -231 76 -231 221v102c0 143 79 220 225 220c148 0 226 -78 226 -221v-86h-331v-16c0 -84 34 -123 111 -123c63 0 98 27 102 72h115c-6 -111 -83 -169 -217 -169zM171 313h217c0 84 -33 121 -108 121
c-76 0 -109 -37 -109 -121z" />
    <glyph glyph-name="Eogonek" unicode="&#x118;" horiz-adv-x="585" 
d="M521 0c-42 -26 -68 -55 -68 -87c0 -24 16 -37 45 -37c16 0 32 4 51 13v-80c-21 -8 -46 -13 -75 -13c-74 0 -117 31 -117 90c0 41 22 79 68 114h-342v680h456v-107h-334v-173h284v-106h-284v-187h344v-107h-28z" />
    <glyph glyph-name="eogonek" unicode="&#x119;" horiz-adv-x="551" 
d="M502 224h-331v-16c0 -84 34 -123 111 -123c63 0 98 27 102 72h115c-3 -60 -27 -104 -69 -132c-42 -35 -65 -76 -65 -110c0 -26 15 -39 45 -39c18 0 34 4 51 13v-80c-20 -9 -45 -13 -74 -13c-77 0 -118 31 -118 92c0 35 15 69 42 101c-9 -1 -19 -1 -29 -1
c-151 0 -231 76 -231 221v102c0 143 79 220 225 220c148 0 226 -78 226 -221v-86zM280 434c-76 0 -109 -37 -109 -121h217c0 84 -33 121 -108 121z" />
    <glyph glyph-name="Ecaron" unicode="&#x11a;" horiz-adv-x="585" 
d="M254 746l-117 136h110l64 -62l63 62h111l-118 -136h-113zM83 0v680h456v-107h-334v-173h284v-106h-284v-187h344v-107h-466z" />
    <glyph glyph-name="ecaron" unicode="&#x11b;" horiz-adv-x="551" 
d="M217 592l-117 136h110l64 -62l63 62h111l-118 -136h-113zM282 -12c-151 0 -231 76 -231 221v102c0 143 79 220 225 220c148 0 226 -78 226 -221v-86h-331v-16c0 -84 34 -123 111 -123c63 0 98 27 102 72h115c-6 -111 -83 -169 -217 -169zM171 313h217
c0 84 -33 121 -108 121c-76 0 -109 -37 -109 -121z" />
    <glyph glyph-name="Gcircumflex" unicode="&#x11c;" horiz-adv-x="635" 
d="M143 746l117 136h113l118 -136h-111l-63 62l-64 -62h-110zM323 -12c-177 0 -266 90 -266 267v170c0 176 89 267 262 267c158 0 250 -76 256 -223h-117c-5 75 -48 116 -138 116c-98 0 -141 -51 -141 -167v-156c0 -116 44 -167 146 -167c98 0 139 47 139 158v17h-127v107
h245v-125c0 -178 -85 -264 -259 -264z" />
    <glyph glyph-name="gcircumflex" unicode="&#x11d;" horiz-adv-x="580" 
d="M108 592l117 136h113l118 -136h-111l-63 62l-64 -62h-110zM277 -194c-135 0 -210 52 -216 166h112c5 -49 41 -69 102 -69c78 0 112 32 112 110v71c-39 -45 -86 -65 -148 -65c-120 0 -188 74 -188 215v83c0 141 68 214 188 214c70 0 121 -26 162 -83l4 71h102v-506
c0 -141 -76 -207 -230 -207zM262 119c56 0 98 34 125 97v119c-27 62 -69 96 -124 96c-59 0 -92 -38 -92 -116v-80c0 -79 33 -116 91 -116z" />
    <glyph glyph-name="Gbreve" unicode="&#x11e;" horiz-adv-x="635" 
d="M317 740c-91 0 -147 55 -151 139h84c3 -37 26 -58 67 -58c42 0 65 21 67 58h85c-4 -84 -60 -139 -152 -139zM323 -12c-177 0 -266 90 -266 267v170c0 176 89 267 262 267c158 0 250 -76 256 -223h-117c-5 75 -48 116 -138 116c-98 0 -141 -51 -141 -167v-156
c0 -116 44 -167 146 -167c98 0 139 47 139 158v17h-127v107h245v-125c0 -178 -85 -264 -259 -264z" />
    <glyph glyph-name="gbreve" unicode="&#x11f;" horiz-adv-x="580" 
d="M282 586c-91 0 -147 55 -151 139h84c3 -37 26 -58 67 -58c42 0 65 21 67 58h85c-4 -84 -60 -139 -152 -139zM277 -194c-135 0 -210 52 -216 166h112c5 -49 41 -69 102 -69c78 0 112 32 112 110v71c-39 -45 -86 -65 -148 -65c-120 0 -188 74 -188 215v83
c0 141 68 214 188 214c70 0 121 -26 162 -83l4 71h102v-506c0 -141 -76 -207 -230 -207zM262 119c56 0 98 34 125 97v119c-27 62 -69 96 -124 96c-59 0 -92 -38 -92 -116v-80c0 -79 33 -116 91 -116z" />
    <glyph glyph-name="Gdotaccent" unicode="&#x120;" horiz-adv-x="635" 
d="M256 756v113h123v-113h-123zM323 -12c-177 0 -266 90 -266 267v170c0 176 89 267 262 267c158 0 250 -76 256 -223h-117c-5 75 -48 116 -138 116c-98 0 -141 -51 -141 -167v-156c0 -116 44 -167 146 -167c98 0 139 47 139 158v17h-127v107h245v-125
c0 -178 -85 -264 -259 -264z" />
    <glyph glyph-name="gdotaccent" unicode="&#x121;" horiz-adv-x="580" 
d="M221 602v113h123v-113h-123zM277 -194c-135 0 -210 52 -216 166h112c5 -49 41 -69 102 -69c78 0 112 32 112 110v71c-39 -45 -86 -65 -148 -65c-120 0 -188 74 -188 215v83c0 141 68 214 188 214c70 0 121 -26 162 -83l4 71h102v-506c0 -141 -76 -207 -230 -207zM262 119
c56 0 98 34 125 97v119c-27 62 -69 96 -124 96c-59 0 -92 -38 -92 -116v-80c0 -79 33 -116 91 -116z" />
    <glyph glyph-name="Gcommaaccent" unicode="&#x122;" horiz-adv-x="635" 
d="M323 -12c-177 0 -266 90 -266 267v170c0 176 89 267 262 267c158 0 250 -76 256 -223h-117c-5 75 -48 116 -138 116c-98 0 -141 -51 -141 -167v-156c0 -116 44 -167 146 -167c98 0 139 47 139 158v17h-127v107h245v-125c0 -178 -85 -264 -259 -264zM260 -247v49
c41 0 55 15 55 43h-52v89h122v-63c0 -83 -23 -118 -125 -118z" />
    <glyph glyph-name="gcommaaccent" unicode="&#x123;" horiz-adv-x="580" 
d="M346 766v-49c-41 0 -55 -15 -55 -43h52v-89h-122v63c0 83 23 118 125 118zM277 -194c-135 0 -210 52 -216 166h112c5 -49 41 -69 102 -69c78 0 112 32 112 110v71c-39 -45 -86 -65 -148 -65c-120 0 -188 74 -188 215v83c0 141 68 214 188 214c70 0 121 -26 162 -83l4 71
h102v-506c0 -141 -76 -207 -230 -207zM262 119c56 0 98 34 125 97v119c-27 62 -69 96 -124 96c-59 0 -92 -38 -92 -116v-80c0 -79 33 -116 91 -116z" />
    <glyph glyph-name="Hcircumflex" unicode="&#x124;" horiz-adv-x="688" 
d="M170 746l117 136h113l118 -136h-111l-63 62l-64 -62h-110zM83 0v680h122v-279h278v279h122v-680h-122v293h-278v-293h-122z" />
    <glyph glyph-name="hcircumflex" unicode="&#x125;" horiz-adv-x="570" 
d="M-41 796l117 136h113l118 -136h-111l-63 62l-64 -62h-110zM73 0v730h120v-264c39 45 87 65 147 65c108 0 163 -64 163 -188v-343h-120v332c0 64 -24 93 -73 93c-50 0 -88 -29 -117 -88v-337h-120z" />
    <glyph glyph-name="Hbar" unicode="&#x126;" horiz-adv-x="708" 
d="M684 578v-91h-69v-487h-122v293h-278v-293h-122v487h-69v91h69v102h122v-102h278v102h122v-102h69zM493 401v86h-278v-86h278z" />
    <glyph glyph-name="hbar" unicode="&#x127;" horiz-adv-x="578" 
d="M348 531c108 0 163 -64 163 -188v-343h-120v332c0 64 -24 93 -73 93c-50 0 -88 -29 -117 -88v-337h-120v578h-76v85h76v67h120v-67h128v-85h-128v-112c39 45 87 65 147 65z" />
    <glyph glyph-name="Itilde" unicode="&#x128;" horiz-adv-x="288" 
d="M196 745c-20 0 -30 4 -66 28c-18 12 -27 17 -37 17c-20 0 -27 -14 -29 -42h-72c3 84 30 129 98 129c21 0 31 -4 67 -28c19 -12 28 -16 37 -16c19 0 27 13 29 41h72c-2 -83 -29 -129 -99 -129zM83 0v680h122v-680h-122z" />
    <glyph glyph-name="itilde" unicode="&#x129;" horiz-adv-x="266" 
d="M185 591c-20 0 -30 4 -66 28c-18 12 -27 17 -37 17c-20 0 -27 -14 -29 -42h-72c3 84 30 129 98 129c21 0 31 -4 67 -28c19 -12 28 -16 37 -16c19 0 27 13 29 41h72c-2 -83 -29 -129 -99 -129zM73 0v519h120v-519h-120z" />
    <glyph glyph-name="Imacron" unicode="&#x12a;" horiz-adv-x="288" 
d="M17 770v86h254v-86h-254zM83 0v680h122v-680h-122z" />
    <glyph glyph-name="imacron" unicode="&#x12b;" horiz-adv-x="266" 
d="M6 616v86h254v-86h-254zM73 0v519h120v-519h-120z" />
    <glyph glyph-name="Ibreve" unicode="&#x12c;" horiz-adv-x="288" 
d="M144 740c-87 0 -143 55 -145 139h83c2 -37 24 -58 62 -58s59 21 61 58h83c-2 -84 -57 -139 -144 -139zM83 0v680h122v-680h-122z" />
    <glyph glyph-name="ibreve" unicode="&#x12d;" horiz-adv-x="266" 
d="M133 586c-87 0 -143 55 -145 139h83c2 -37 24 -58 62 -58s59 21 61 58h83c-2 -84 -57 -139 -144 -139zM73 0v519h120v-519h-120z" />
    <glyph glyph-name="Iogonek" unicode="&#x12e;" horiz-adv-x="288" 
d="M174 -124c18 0 35 4 53 13v-80c-23 -9 -49 -13 -77 -13c-75 0 -118 32 -118 89c0 42 24 81 71 115h-20v680h122v-680h-18c-38 -26 -59 -56 -59 -86c0 -25 16 -38 46 -38z" />
    <glyph glyph-name="iogonek" unicode="&#x12f;" horiz-adv-x="266" 
d="M197 715v-113h-128v113h128zM162 -124c18 0 35 4 53 13v-80c-23 -9 -49 -13 -77 -13c-75 0 -118 32 -118 89c0 42 24 81 71 115h-18v519h120v-519h-18c-38 -26 -59 -56 -59 -86c0 -25 16 -38 46 -38z" />
    <glyph glyph-name="Idotaccent" unicode="&#x130;" horiz-adv-x="288" 
d="M83 756v113h123v-113h-123zM83 0v680h122v-680h-122z" />
    <glyph glyph-name="dotlessi" unicode="&#x131;" horiz-adv-x="266" 
d="M73 0v519h120v-519h-120z" />
    <glyph glyph-name="IJ" unicode="&#x132;" horiz-adv-x="839" 
d="M83 0v680h122v-680h-122zM536 -12c-160 0 -232 72 -232 234v18h117v-18c0 -89 33 -127 114 -127c82 0 115 41 115 137v448h122v-453c0 -166 -73 -239 -236 -239z" />
    <glyph glyph-name="ij" unicode="&#x133;" horiz-adv-x="532" 
d="M69 602v113h128v-113h-128zM335 602v113h128v-113h-128zM73 0v519h120v-519h-120zM264 -182v97h28c36 0 47 13 47 55v549h120v-550c0 -105 -39 -151 -134 -151h-61z" />
    <glyph glyph-name="Jcircumflex" unicode="&#x134;" horiz-adv-x="551" 
d="M257 746l110 136h113l110 -136h-107l-60 63l-59 -63h-107zM248 -12c-160 0 -232 72 -232 234v18h117v-18c0 -89 33 -127 114 -127c82 0 115 41 115 137v448h122v-453c0 -166 -73 -239 -236 -239z" />
    <glyph glyph-name="jcircumflex" unicode="&#x135;" horiz-adv-x="266" 
d="M-33 592l110 136h113l110 -136h-107l-60 63l-59 -63h-107zM-2 -182v97h28c36 0 47 13 47 55v549h120v-550c0 -105 -39 -151 -134 -151h-61z" />
    <glyph glyph-name="Kcommaaccent" unicode="&#x136;" horiz-adv-x="620" 
d="M83 0v680h122v-329l271 329h143l-229 -279l232 -401h-140l-177 307l-100 -119v-188h-122zM275 -247v49c41 0 55 15 55 43h-52v89h122v-63c0 -83 -23 -118 -125 -118z" />
    <glyph glyph-name="kcommaaccent" unicode="&#x137;" horiz-adv-x="539" 
d="M73 0v730h120v-438l202 227h144l-189 -211l192 -308h-140l-137 221l-72 -79v-142h-120zM229 -247v49c41 0 55 15 55 43h-52v89h122v-63c0 -83 -23 -118 -125 -118z" />
    <glyph glyph-name="kgreenlandic" unicode="&#x138;" horiz-adv-x="539" 
d="M73 0v519h120v-227l202 227h144l-189 -211l192 -308h-140l-137 221l-72 -79v-142h-120z" />
    <glyph glyph-name="Lacute" unicode="&#x139;" horiz-adv-x="518" 
d="M59 746l112 136h136l-137 -136h-111zM83 0v680h122v-571h306v-109h-428z" />
    <glyph glyph-name="lacute" unicode="&#x13a;" horiz-adv-x="266" 
d="M48 796l112 136h136l-137 -136h-111zM73 0v730h120v-730h-120z" />
    <glyph glyph-name="Lcommaaccent" unicode="&#x13b;" horiz-adv-x="518" 
d="M83 0v680h122v-571h306v-109h-428zM233 -247v49c41 0 55 15 55 43h-52v89h122v-63c0 -83 -23 -118 -125 -118z" />
    <glyph glyph-name="lcommaaccent" unicode="&#x13c;" horiz-adv-x="266" 
d="M73 0v730h120v-730h-120zM69 -247v49c41 0 55 15 55 43h-52v89h122v-63c0 -83 -23 -118 -125 -118z" />
    <glyph glyph-name="Lcaron" unicode="&#x13d;" horiz-adv-x="518" 
d="M83 0v680h122v-571h306v-109h-428zM255 465l40 215h118l-77 -215h-81z" />
    <glyph glyph-name="lcaron" unicode="&#x13e;" horiz-adv-x="293" 
d="M73 0v730h120v-730h-120zM224 515l40 215h118l-77 -215h-81z" />
    <glyph glyph-name="Ldot" unicode="&#x13f;" horiz-adv-x="518" 
d="M83 0v680h122v-571h306v-109h-428zM342 314v122h122v-122h-122z" />
    <glyph glyph-name="ldot" unicode="&#x140;" horiz-adv-x="330" 
d="M73 0v730h120v-730h-120zM239 303v113h119v-113h-119z" />
    <glyph glyph-name="Lslash" unicode="&#x141;" horiz-adv-x="528" 
d="M215 109h306v-109h-428v181l-69 -47v121l69 47v378h122v-296l188 127v-120l-188 -127v-155z" />
    <glyph glyph-name="lslash" unicode="&#x142;" horiz-adv-x="294" 
d="M289 526v-111l-82 -56v-359h-120v276l-82 -56v111l82 56v343h120v-260z" />
    <glyph glyph-name="Nacute" unicode="&#x143;" horiz-adv-x="686" 
d="M258 746l112 136h136l-137 -136h-111zM83 0v680h135l269 -472v472h116v-680h-117l-287 503v-503h-116z" />
    <glyph glyph-name="nacute" unicode="&#x144;" horiz-adv-x="570" 
d="M201 592l112 136h136l-137 -136h-111zM73 0v519h102l4 -71c42 58 93 83 161 83c108 0 163 -64 163 -188v-343h-120v332c0 64 -24 93 -74 93c-49 0 -87 -29 -116 -88v-337h-120z" />
    <glyph glyph-name="Ncommaaccent" unicode="&#x145;" horiz-adv-x="686" 
d="M83 0v680h135l269 -472v472h116v-680h-117l-287 503v-503h-116zM278 -247v49c41 0 55 15 55 43h-52v89h122v-63c0 -83 -23 -118 -125 -118z" />
    <glyph glyph-name="ncommaaccent" unicode="&#x146;" horiz-adv-x="570" 
d="M73 0v519h102l4 -71c42 58 93 83 161 83c108 0 163 -64 163 -188v-343h-120v332c0 64 -24 93 -74 93c-49 0 -87 -29 -116 -88v-337h-120zM224 -247v49c41 0 55 15 55 43h-52v89h122v-63c0 -83 -23 -118 -125 -118z" />
    <glyph glyph-name="Ncaron" unicode="&#x147;" horiz-adv-x="686" 
d="M286 746l-117 136h110l64 -62l63 62h111l-118 -136h-113zM83 0v680h135l269 -472v472h116v-680h-117l-287 503v-503h-116z" />
    <glyph glyph-name="ncaron" unicode="&#x148;" horiz-adv-x="570" 
d="M229 592l-117 136h110l64 -62l63 62h111l-118 -136h-113zM73 0v519h102l4 -71c42 58 93 83 161 83c108 0 163 -64 163 -188v-343h-120v332c0 64 -24 93 -74 93c-49 0 -87 -29 -116 -88v-337h-120z" />
    <glyph glyph-name="napostrophe" unicode="&#x149;" horiz-adv-x="613" 
d="M-3 524v55c41 0 53 17 53 46h-50v105h120v-84c0 -80 -26 -122 -123 -122zM116 0v519h102l4 -71c42 58 93 83 161 83c108 0 163 -64 163 -188v-343h-120v332c0 64 -24 93 -74 93c-49 0 -87 -29 -116 -88v-337h-120z" />
    <glyph glyph-name="Eng" unicode="&#x14a;" horiz-adv-x="686" 
d="M407 -182v97h32c37 0 48 13 48 55v29l-288 504v-503h-116v680h135l269 -472v472h116v-711c0 -105 -39 -151 -133 -151h-63z" />
    <glyph glyph-name="eng" unicode="&#x14b;" horiz-adv-x="570" 
d="M340 531c108 0 163 -64 163 -188v-374c0 -105 -39 -151 -133 -151h-62v95h28c36 0 47 13 47 55v364c0 64 -24 93 -74 93c-49 0 -87 -29 -116 -88v-337h-120v519h102l4 -71c42 58 93 83 161 83z" />
    <glyph glyph-name="Omacron" unicode="&#x14c;" horiz-adv-x="654" 
d="M188 770v86h276v-86h-276zM327 -12c-183 0 -270 89 -270 274v156c0 185 87 274 270 274s270 -89 270 -274v-156c0 -185 -87 -274 -270 -274zM327 95c104 0 148 51 148 168v154c0 117 -44 168 -148 168s-148 -51 -148 -168v-154c0 -117 44 -168 148 -168z" />
    <glyph glyph-name="omacron" unicode="&#x14d;" horiz-adv-x="562" 
d="M143 616v86h276v-86h-276zM281 -12c-152 0 -230 76 -230 226v91c0 150 78 226 230 226c153 0 231 -76 231 -226v-91c0 -150 -78 -226 -231 -226zM281 88c77 0 111 40 111 129v85c0 89 -34 129 -111 129c-76 0 -110 -40 -110 -129v-85c0 -89 34 -129 110 -129z" />
    <glyph glyph-name="Obreve" unicode="&#x14e;" horiz-adv-x="654" 
d="M326 740c-91 0 -147 55 -151 139h84c3 -37 26 -58 67 -58c42 0 65 21 67 58h85c-4 -84 -60 -139 -152 -139zM327 -12c-183 0 -270 89 -270 274v156c0 185 87 274 270 274s270 -89 270 -274v-156c0 -185 -87 -274 -270 -274zM327 95c104 0 148 51 148 168v154
c0 117 -44 168 -148 168s-148 -51 -148 -168v-154c0 -117 44 -168 148 -168z" />
    <glyph glyph-name="obreve" unicode="&#x14f;" horiz-adv-x="562" 
d="M281 586c-91 0 -147 55 -151 139h84c3 -37 26 -58 67 -58c42 0 65 21 67 58h85c-4 -84 -60 -139 -152 -139zM281 -12c-152 0 -230 76 -230 226v91c0 150 78 226 230 226c153 0 231 -76 231 -226v-91c0 -150 -78 -226 -231 -226zM281 88c77 0 111 40 111 129v85
c0 89 -34 129 -111 129c-76 0 -110 -40 -110 -129v-85c0 -89 34 -129 110 -129z" />
    <glyph glyph-name="Ohungarumlaut" unicode="&#x150;" horiz-adv-x="654" 
d="M160 746l87 136h129l-114 -136h-102zM354 746l87 136h129l-114 -136h-102zM327 -12c-183 0 -270 89 -270 274v156c0 185 87 274 270 274s270 -89 270 -274v-156c0 -185 -87 -274 -270 -274zM327 95c104 0 148 51 148 168v154c0 117 -44 168 -148 168s-148 -51 -148 -168
v-154c0 -117 44 -168 148 -168z" />
    <glyph glyph-name="ohungarumlaut" unicode="&#x151;" horiz-adv-x="562" 
d="M115 592l87 136h129l-114 -136h-102zM309 592l87 136h129l-114 -136h-102zM281 -12c-152 0 -230 76 -230 226v91c0 150 78 226 230 226c153 0 231 -76 231 -226v-91c0 -150 -78 -226 -231 -226zM281 88c77 0 111 40 111 129v85c0 89 -34 129 -111 129
c-76 0 -110 -40 -110 -129v-85c0 -89 34 -129 110 -129z" />
    <glyph glyph-name="OE" unicode="&#x152;" horiz-adv-x="900" 
d="M318 0c-181 0 -262 83 -262 266v148c0 182 81 266 262 266h536v-107h-309v-173h259v-106h-259v-187h319v-107h-546zM334 107h89v466h-89c-113 0 -156 -44 -156 -161v-144c0 -117 43 -161 156 -161z" />
    <glyph glyph-name="oe" unicode="&#x153;" horiz-adv-x="892" 
d="M273 -12c-145 0 -222 78 -222 226v91c0 148 77 226 222 226c85 0 144 -27 178 -81c33 54 91 81 174 81c141 0 218 -76 218 -220v-87h-332v-16c0 -84 34 -123 111 -123c64 0 98 27 102 72h115c-6 -110 -81 -169 -208 -169c-86 0 -146 27 -180 82c-34 -55 -93 -82 -178 -82
zM511 313h217c0 84 -32 121 -108 121s-109 -37 -109 -121zM281 88c76 0 111 40 111 129v85c0 89 -35 129 -111 129s-110 -40 -110 -129v-85c0 -89 34 -129 110 -129z" />
    <glyph glyph-name="Racute" unicode="&#x154;" horiz-adv-x="632" 
d="M221 746l112 136h136l-137 -136h-111zM83 0v680h270c161 0 226 -61 226 -209c0 -113 -39 -175 -130 -198l156 -273h-140l-148 263h-112v-263h-122zM205 369h136c86 0 116 29 116 102c0 74 -30 102 -116 102h-136v-204z" />
    <glyph glyph-name="racute" unicode="&#x155;" horiz-adv-x="368" 
d="M119 592l112 136h136l-137 -136h-111zM73 0v519h102l5 -95c23 72 67 105 140 105h37v-114h-27c-80 0 -121 -34 -137 -117v-298h-120z" />
    <glyph glyph-name="Rcommaaccent" unicode="&#x156;" horiz-adv-x="632" 
d="M83 0v680h270c161 0 226 -61 226 -209c0 -113 -39 -175 -130 -198l156 -273h-140l-148 263h-112v-263h-122zM205 369h136c86 0 116 29 116 102c0 74 -30 102 -116 102h-136v-204zM268 -247v49c41 0 55 15 55 43h-52v89h122v-63c0 -83 -23 -118 -125 -118z" />
    <glyph glyph-name="rcommaaccent" unicode="&#x157;" horiz-adv-x="368" 
d="M73 0v519h102l5 -95c23 72 67 105 140 105h37v-114h-27c-80 0 -121 -34 -137 -117v-298h-120zM69 -247v49c41 0 55 15 55 43h-52v89h122v-63c0 -83 -23 -118 -125 -118z" />
    <glyph glyph-name="Rcaron" unicode="&#x158;" horiz-adv-x="632" 
d="M249 746l-117 136h110l64 -62l63 62h111l-118 -136h-113zM83 0v680h270c161 0 226 -61 226 -209c0 -113 -39 -175 -130 -198l156 -273h-140l-148 263h-112v-263h-122zM205 369h136c86 0 116 29 116 102c0 74 -30 102 -116 102h-136v-204z" />
    <glyph glyph-name="rcaron" unicode="&#x159;" horiz-adv-x="368" 
d="M147 592l-117 136h110l64 -62l63 62h111l-118 -136h-113zM73 0v519h102l5 -95c23 72 67 105 140 105h37v-114h-27c-80 0 -121 -34 -137 -117v-298h-120z" />
    <glyph glyph-name="Sacute" unicode="&#x15a;" horiz-adv-x="561" 
d="M188 746l112 136h136l-137 -136h-111zM281 -12c-168 0 -249 68 -249 211h120c0 -73 44 -108 131 -108c82 0 123 30 123 90c0 64 -40 92 -152 109c-154 23 -211 77 -211 198c0 135 84 204 242 204c155 0 233 -67 233 -205h-120c0 68 -38 101 -116 101
c-77 0 -118 -31 -118 -88c0 -59 39 -86 144 -100c161 -22 219 -81 219 -207c0 -137 -81 -205 -246 -205z" />
    <glyph glyph-name="sacute" unicode="&#x15b;" horiz-adv-x="501" 
d="M162 592l112 136h136l-137 -136h-111zM251 -12c-147 0 -217 56 -217 168h114c0 -51 33 -76 103 -76c64 0 95 21 95 61c0 43 -31 61 -119 72c-132 16 -183 58 -183 154c0 107 74 164 207 164s202 -56 202 -163h-115c0 48 -28 71 -88 71c-57 0 -88 -22 -88 -59
c0 -41 31 -58 116 -67c135 -15 186 -62 186 -161c0 -109 -71 -164 -213 -164z" />
    <glyph glyph-name="Scircumflex" unicode="&#x15c;" horiz-adv-x="561" 
d="M99 746l117 136h113l118 -136h-111l-63 62l-64 -62h-110zM281 -12c-168 0 -249 68 -249 211h120c0 -73 44 -108 131 -108c82 0 123 30 123 90c0 64 -40 92 -152 109c-154 23 -211 77 -211 198c0 135 84 204 242 204c155 0 233 -67 233 -205h-120c0 68 -38 101 -116 101
c-77 0 -118 -31 -118 -88c0 -59 39 -86 144 -100c161 -22 219 -81 219 -207c0 -137 -81 -205 -246 -205z" />
    <glyph glyph-name="scircumflex" unicode="&#x15d;" horiz-adv-x="501" 
d="M73 592l117 136h113l118 -136h-111l-63 62l-64 -62h-110zM251 -12c-147 0 -217 56 -217 168h114c0 -51 33 -76 103 -76c64 0 95 21 95 61c0 43 -31 61 -119 72c-132 16 -183 58 -183 154c0 107 74 164 207 164s202 -56 202 -163h-115c0 48 -28 71 -88 71
c-57 0 -88 -22 -88 -59c0 -41 31 -58 116 -67c135 -15 186 -62 186 -161c0 -109 -71 -164 -213 -164z" />
    <glyph glyph-name="Scedilla" unicode="&#x15e;" horiz-adv-x="561" 
d="M527 193c0 -128 -70 -196 -214 -204l-17 -45c70 0 101 -23 101 -73c0 -46 -28 -78 -129 -78c-43 0 -77 6 -107 22l21 52c21 -11 39 -17 66 -17c34 0 46 10 46 27c0 16 -10 23 -55 23h-21l35 89c-149 7 -221 75 -221 210h120c0 -73 44 -108 131 -108c82 0 123 30 123 90
c0 64 -40 92 -152 109c-154 23 -211 77 -211 198c0 135 84 204 242 204c155 0 233 -67 233 -205h-120c0 68 -38 101 -116 101c-77 0 -118 -31 -118 -88c0 -59 39 -86 144 -100c161 -22 219 -81 219 -207z" />
    <glyph glyph-name="scedilla" unicode="&#x15f;" horiz-adv-x="501" 
d="M464 152c0 -101 -61 -156 -183 -163l-17 -45c70 0 101 -23 101 -73c0 -46 -28 -78 -129 -78c-43 0 -77 6 -107 22l21 52c21 -11 39 -17 66 -17c34 0 46 10 46 27c0 16 -10 23 -55 23h-21l35 89c-127 7 -187 63 -187 167h114c0 -51 33 -76 103 -76c64 0 95 21 95 61
c0 43 -31 61 -119 72c-132 16 -183 58 -183 154c0 107 74 164 207 164s202 -56 202 -163h-115c0 48 -28 71 -88 71c-57 0 -88 -22 -88 -59c0 -41 31 -58 116 -67c135 -15 186 -62 186 -161z" />
    <glyph glyph-name="Scaron" unicode="&#x160;" horiz-adv-x="561" 
d="M216 746l-117 136h110l64 -62l63 62h111l-118 -136h-113zM281 -12c-168 0 -249 68 -249 211h120c0 -73 44 -108 131 -108c82 0 123 30 123 90c0 64 -40 92 -152 109c-154 23 -211 77 -211 198c0 135 84 204 242 204c155 0 233 -67 233 -205h-120c0 68 -38 101 -116 101
c-77 0 -118 -31 -118 -88c0 -59 39 -86 144 -100c161 -22 219 -81 219 -207c0 -137 -81 -205 -246 -205z" />
    <glyph glyph-name="scaron" unicode="&#x161;" horiz-adv-x="501" 
d="M190 592l-117 136h110l64 -62l63 62h111l-118 -136h-113zM251 -12c-147 0 -217 56 -217 168h114c0 -51 33 -76 103 -76c64 0 95 21 95 61c0 43 -31 61 -119 72c-132 16 -183 58 -183 154c0 107 74 164 207 164s202 -56 202 -163h-115c0 48 -28 71 -88 71
c-57 0 -88 -22 -88 -59c0 -41 31 -58 116 -67c135 -15 186 -62 186 -161c0 -109 -71 -164 -213 -164z" />
    <glyph glyph-name="uni0162" unicode="&#x162;" horiz-adv-x="518" 
d="M320 0h-29l-25 -56c67 -1 98 -24 98 -73c0 -46 -28 -78 -129 -78c-43 0 -77 6 -107 22l21 52c21 -11 39 -17 66 -17c34 0 46 10 46 27c0 16 -10 23 -55 23h-21l45 100h-32v571h-191v109h504v-109h-191v-571z" />
    <glyph glyph-name="uni0163" unicode="&#x163;" horiz-adv-x="352" 
d="M228 0l-21 -56c70 0 101 -23 101 -73c0 -46 -28 -78 -129 -78c-43 0 -77 6 -107 22l21 52c21 -11 39 -17 66 -17c34 0 46 10 46 27c0 16 -10 23 -55 23h-21l43 110c-55 19 -80 69 -80 156v260h-82v93h84l8 133h110v-133h117v-93h-117v-256c0 -57 13 -73 64 -73h58v-97
h-106z" />
    <glyph glyph-name="Tcaron" unicode="&#x164;" horiz-adv-x="518" 
d="M202 746l-117 136h110l64 -62l63 62h111l-118 -136h-113zM198 0v571h-191v109h504v-109h-191v-571h-122z" />
    <glyph glyph-name="tcaron" unicode="&#x165;" horiz-adv-x="352" 
d="M242 563l40 215h118l-77 -215h-81zM239 0c-103 0 -147 49 -147 166v260h-82v93h84l8 133h110v-133h117v-93h-117v-256c0 -57 13 -73 64 -73h58v-97h-95z" />
    <glyph glyph-name="Tbar" unicode="&#x166;" horiz-adv-x="518" 
d="M511 571h-191v-176h127v-107h-127v-288h-122v288h-128v107h128v176h-191v109h504v-109z" />
    <glyph glyph-name="tbar" unicode="&#x167;" horiz-adv-x="352" 
d="M276 97h58v-97h-95c-103 0 -147 49 -147 166v90h-75v87h75v83h-82v93h84l8 133h110v-133h117v-93h-117v-83h108v-87h-108v-86c0 -57 13 -73 64 -73z" />
    <glyph glyph-name="Utilde" unicode="&#x168;" horiz-adv-x="635" 
d="M375 745c-26 0 -40 5 -73 28c-21 15 -28 17 -39 17c-19 0 -28 -12 -31 -42h-74c3 88 36 129 101 129c26 0 40 -5 73 -27c23 -15 29 -17 39 -17c20 0 29 11 31 41h74c-3 -88 -35 -129 -101 -129zM318 -12c-175 0 -250 72 -250 238v454h122v-451c0 -98 35 -134 130 -134
s130 36 130 134v451h118v-454c0 -166 -74 -238 -250 -238z" />
    <glyph glyph-name="utilde" unicode="&#x169;" horiz-adv-x="574" 
d="M342 591c-26 0 -40 5 -73 28c-21 15 -28 17 -39 17c-19 0 -28 -12 -31 -42h-74c3 88 36 129 101 129c26 0 40 -5 73 -27c23 -15 29 -17 39 -17c20 0 29 11 31 41h74c-3 -88 -35 -129 -101 -129zM232 -12c-109 0 -165 64 -165 188v343h120v-332c0 -65 24 -93 75 -93
c50 0 90 28 119 90v335h120v-519h-102l-4 73c-43 -59 -94 -85 -163 -85z" />
    <glyph glyph-name="Umacron" unicode="&#x16a;" horiz-adv-x="635" 
d="M179 770v86h276v-86h-276zM318 -12c-175 0 -250 72 -250 238v454h122v-451c0 -98 35 -134 130 -134s130 36 130 134v451h118v-454c0 -166 -74 -238 -250 -238z" />
    <glyph glyph-name="umacron" unicode="&#x16b;" horiz-adv-x="574" 
d="M146 616v86h276v-86h-276zM232 -12c-109 0 -165 64 -165 188v343h120v-332c0 -65 24 -93 75 -93c50 0 90 28 119 90v335h120v-519h-102l-4 73c-43 -59 -94 -85 -163 -85z" />
    <glyph glyph-name="Ubreve" unicode="&#x16c;" horiz-adv-x="635" 
d="M317 740c-91 0 -147 55 -151 139h84c3 -37 26 -58 67 -58c42 0 65 21 67 58h85c-4 -84 -60 -139 -152 -139zM318 -12c-175 0 -250 72 -250 238v454h122v-451c0 -98 35 -134 130 -134s130 36 130 134v451h118v-454c0 -166 -74 -238 -250 -238z" />
    <glyph glyph-name="ubreve" unicode="&#x16d;" horiz-adv-x="574" 
d="M284 586c-91 0 -147 55 -151 139h84c3 -37 26 -58 67 -58c42 0 65 21 67 58h85c-4 -84 -60 -139 -152 -139zM232 -12c-109 0 -165 64 -165 188v343h120v-332c0 -65 24 -93 75 -93c50 0 90 28 119 90v335h120v-519h-102l-4 73c-43 -59 -94 -85 -163 -85z" />
    <glyph glyph-name="Uring" unicode="&#x16e;" horiz-adv-x="635" 
d="M317 728c-67 0 -116 45 -116 110c0 64 49 111 116 111c66 0 115 -47 115 -111c0 -65 -49 -110 -115 -110zM317 794c24 0 41 17 41 44c0 26 -17 43 -41 43s-40 -17 -40 -43c0 -27 16 -44 40 -44zM318 -12c-175 0 -250 72 -250 238v454h122v-451c0 -98 35 -134 130 -134
s130 36 130 134v451h118v-454c0 -166 -74 -238 -250 -238z" />
    <glyph glyph-name="uring" unicode="&#x16f;" horiz-adv-x="574" 
d="M284 574c-67 0 -116 45 -116 110c0 64 49 111 116 111c66 0 115 -47 115 -111c0 -65 -49 -110 -115 -110zM284 640c24 0 41 17 41 44c0 26 -17 43 -41 43s-40 -17 -40 -43c0 -27 16 -44 40 -44zM232 -12c-109 0 -165 64 -165 188v343h120v-332c0 -65 24 -93 75 -93
c50 0 90 28 119 90v335h120v-519h-102l-4 73c-43 -59 -94 -85 -163 -85z" />
    <glyph glyph-name="Uhungarumlaut" unicode="&#x170;" horiz-adv-x="635" 
d="M151 746l87 136h129l-114 -136h-102zM345 746l87 136h129l-114 -136h-102zM318 -12c-175 0 -250 72 -250 238v454h122v-451c0 -98 35 -134 130 -134s130 36 130 134v451h118v-454c0 -166 -74 -238 -250 -238z" />
    <glyph glyph-name="uhungarumlaut" unicode="&#x171;" horiz-adv-x="574" 
d="M118 592l87 136h129l-114 -136h-102zM312 592l87 136h129l-114 -136h-102zM232 -12c-109 0 -165 64 -165 188v343h120v-332c0 -65 24 -93 75 -93c50 0 90 28 119 90v335h120v-519h-102l-4 73c-43 -59 -94 -85 -163 -85z" />
    <glyph glyph-name="Uogonek" unicode="&#x172;" horiz-adv-x="635" 
d="M450 680h118v-454c0 -128 -44 -200 -144 -226c-52 -21 -82 -52 -82 -87c0 -24 16 -37 46 -37c16 0 32 4 50 13v-80c-20 -9 -45 -13 -73 -13c-76 0 -119 32 -119 90c0 39 20 73 58 102c-165 4 -236 76 -236 238v454h122v-451c0 -98 35 -134 130 -134s130 36 130 134v451z
" />
    <glyph glyph-name="uogonek" unicode="&#x173;" horiz-adv-x="574" 
d="M473 0c-42 -26 -68 -55 -68 -87c0 -24 16 -37 45 -37c16 0 32 4 51 13v-80c-21 -8 -46 -13 -75 -13c-74 0 -117 31 -117 90c0 47 28 90 89 129l-3 58c-43 -59 -94 -85 -163 -85c-109 0 -165 64 -165 188v343h120v-332c0 -65 24 -93 75 -93c50 0 90 28 119 90v335h120
v-519h-28z" />
    <glyph glyph-name="Wcircumflex" unicode="&#x174;" horiz-adv-x="871" 
d="M261 746l117 136h113l118 -136h-111l-63 62l-64 -62h-110zM182 0l-175 680h126l118 -496l130 496h113l130 -498l119 498h121l-175 -680h-126l-127 483l-128 -483h-126z" />
    <glyph glyph-name="wcircumflex" unicode="&#x175;" horiz-adv-x="788" 
d="M220 592l117 136h113l118 -136h-111l-63 62l-64 -62h-110zM163 0l-155 519h126l98 -371l110 371h109l110 -372l98 372h121l-155 -519h-124l-106 356l-106 -356h-126z" />
    <glyph glyph-name="Ycircumflex" unicode="&#x176;" horiz-adv-x="546" 
d="M99 746l117 136h113l118 -136h-111l-63 62l-64 -62h-110zM564 680l-230 -391v-289h-122v287l-230 393h140l156 -270l155 270h131z" />
    <glyph glyph-name="ycircumflex" unicode="&#x177;" horiz-adv-x="485" 
d="M69 592l117 136h113l118 -136h-111l-63 62l-64 -62h-110zM60 -182v97h51c34 0 48 10 60 46l17 53l-181 505h128l115 -354l107 354h121l-193 -572c-34 -100 -69 -129 -161 -129h-64z" />
    <glyph glyph-name="Ydieresis" unicode="&#x178;" horiz-adv-x="546" 
d="M117 756v113h118v-113h-118zM310 756v113h118v-113h-118zM564 680l-230 -391v-289h-122v287l-230 393h140l156 -270l155 270h131z" />
    <glyph glyph-name="Zacute" unicode="&#x179;" horiz-adv-x="554" 
d="M197 746l112 136h136l-137 -136h-111zM29 0v97l335 476h-317v107h470v-96l-336 -477h344v-107h-496z" />
    <glyph glyph-name="zacute" unicode="&#x17a;" horiz-adv-x="470" 
d="M153 592l112 136h136l-137 -136h-111zM27 0v85l259 338h-238v96h390v-85l-259 -338h264v-96h-416z" />
    <glyph glyph-name="Zdotaccent" unicode="&#x17b;" horiz-adv-x="554" 
d="M221 756v113h123v-113h-123zM29 0v97l335 476h-317v107h470v-96l-336 -477h344v-107h-496z" />
    <glyph glyph-name="zdotaccent" unicode="&#x17c;" horiz-adv-x="470" 
d="M177 602v113h123v-113h-123zM27 0v85l259 338h-238v96h390v-85l-259 -338h264v-96h-416z" />
    <glyph glyph-name="Zcaron" unicode="&#x17d;" horiz-adv-x="554" 
d="M225 746l-117 136h110l64 -62l63 62h111l-118 -136h-113zM29 0v97l335 476h-317v107h470v-96l-336 -477h344v-107h-496z" />
    <glyph glyph-name="zcaron" unicode="&#x17e;" horiz-adv-x="470" 
d="M181 592l-117 136h110l64 -62l63 62h111l-118 -136h-113zM27 0v85l259 338h-238v96h390v-85l-259 -338h264v-96h-416z" />
    <glyph glyph-name="florin" unicode="&#x192;" horiz-adv-x="599" 
d="M54 -60l11 95h54c53 0 76 23 83 84l30 249h-119v96h131l8 69c14 120 62 167 169 167h108l-11 -95h-65c-52 0 -75 -23 -82 -84l-7 -57h134v-96h-146l-32 -261c-15 -120 -62 -167 -169 -167h-97z" />
    <glyph glyph-name="Aringacute" unicode="&#x1fa;" horiz-adv-x="610" 
d="M220 966l112 136h136l-137 -136h-111zM305 717c-67 0 -116 45 -116 110c0 64 49 111 116 111c66 0 115 -47 115 -111c0 -65 -49 -110 -115 -110zM305 783c24 0 41 17 41 44c0 26 -17 43 -41 43s-40 -17 -40 -43c0 -27 16 -44 40 -44zM5 0l237 680h125l238 -680h-130
l-52 154h-241l-53 -154h-124zM215 259h175l-87 279z" />
    <glyph glyph-name="aringacute" unicode="&#x1fb;" horiz-adv-x="542" 
d="M180 812l112 136h136l-137 -136h-111zM265 563c-67 0 -116 45 -116 110c0 64 49 111 116 111c66 0 115 -47 115 -111c0 -65 -49 -110 -115 -110zM265 629c24 0 41 17 41 44c0 26 -17 43 -41 43s-40 -17 -40 -43c0 -27 16 -44 40 -44zM206 -12c-104 0 -168 58 -168 160
c0 107 69 166 210 166h110v23c0 66 -29 97 -94 97c-61 0 -92 -26 -95 -75h-116c8 114 78 172 215 172c143 0 210 -62 210 -195v-336h-102l-4 68c-39 -53 -93 -80 -166 -80zM236 85c55 0 96 27 122 79v64h-94c-78 0 -107 -25 -107 -73c0 -45 27 -70 79 -70z" />
    <glyph glyph-name="AEacute" unicode="&#x1fc;" horiz-adv-x="898" 
d="M374 746l112 136h136l-137 -136h-111zM-18 0l391 680h479v-107h-308v-174h258v-106h-258v-186h318v-107h-440v154h-219l-88 -154h-133zM260 259h162v300z" />
    <glyph glyph-name="aeacute" unicode="&#x1fd;" horiz-adv-x="858" 
d="M338 592l112 136h136l-137 -136h-111zM213 -12c-110 0 -175 56 -175 160c0 106 69 166 210 166h110v24c0 65 -28 96 -94 96c-63 0 -91 -27 -95 -75h-116c9 117 80 172 204 172c84 0 140 -25 168 -78c32 52 87 78 169 78c140 0 215 -76 215 -221v-86h-331v-16
c0 -84 35 -123 112 -123c63 0 97 27 101 72h115c-6 -110 -82 -169 -217 -169c-94 0 -160 28 -197 84c-45 -58 -104 -84 -179 -84zM478 313h217c0 84 -32 121 -107 121c-77 0 -110 -37 -110 -121zM236 85c57 0 98 29 124 83c-1 13 -2 27 -2 41v19h-94
c-77 0 -107 -26 -107 -73c0 -45 27 -70 79 -70z" />
    <glyph glyph-name="Oslashacute" unicode="&#x1fe;" horiz-adv-x="654" 
d="M489 882l-137 -136h-111l112 136h136zM597 635l-36 -51c24 -42 36 -98 36 -166v-156c0 -185 -87 -274 -270 -274c-68 0 -123 12 -165 37l-26 -37l-79 57l36 51c-24 42 -36 98 -36 166v156c0 185 87 274 270 274c68 0 123 -12 165 -37l26 37zM179 263c0 -16 1 -30 2 -43
l243 340c-24 17 -56 25 -97 25c-104 0 -148 -51 -148 -168v-154zM475 417c0 16 -1 30 -2 43l-243 -340c24 -17 56 -25 97 -25c104 0 148 51 148 168v154z" />
    <glyph glyph-name="oslashacute" unicode="&#x1ff;" horiz-adv-x="562" 
d="M444 728l-137 -136h-111l112 136h136zM512 474l-30 -37c20 -34 30 -78 30 -132v-91c0 -150 -78 -226 -231 -226c-56 0 -102 10 -138 31l-25 -31l-68 57l30 37c-19 35 -29 79 -29 132v91c0 150 78 226 230 226c56 0 102 -10 138 -31l25 31zM171 217c0 -8 0 -15 1 -22
l177 219c-17 12 -40 17 -68 17c-76 0 -110 -40 -110 -129v-85zM392 302c0 8 0 16 -1 23l-178 -220c17 -11 40 -17 68 -17c77 0 111 40 111 129v85z" />
    <glyph glyph-name="Scommaaccent" unicode="&#x218;" horiz-adv-x="561" 
d="M281 -12c-168 0 -249 68 -249 211h120c0 -73 44 -108 131 -108c82 0 123 30 123 90c0 64 -40 92 -152 109c-154 23 -211 77 -211 198c0 135 84 204 242 204c155 0 233 -67 233 -205h-120c0 68 -38 101 -116 101c-77 0 -118 -31 -118 -88c0 -59 39 -86 144 -100
c161 -22 219 -81 219 -207c0 -137 -81 -205 -246 -205zM228 -247v49c41 0 55 15 55 43h-52v89h122v-63c0 -83 -23 -118 -125 -118z" />
    <glyph glyph-name="scommaaccent" unicode="&#x219;" horiz-adv-x="501" 
d="M251 -12c-147 0 -217 56 -217 168h114c0 -51 33 -76 103 -76c64 0 95 21 95 61c0 43 -31 61 -119 72c-132 16 -183 58 -183 154c0 107 74 164 207 164s202 -56 202 -163h-115c0 48 -28 71 -88 71c-57 0 -88 -22 -88 -59c0 -41 31 -58 116 -67c135 -15 186 -62 186 -161
c0 -109 -71 -164 -213 -164zM196 -247v49c41 0 55 15 55 43h-52v89h122v-63c0 -83 -23 -118 -125 -118z" />
    <glyph glyph-name="uni021A" unicode="&#x21a;" horiz-adv-x="518" 
d="M198 0v571h-191v109h504v-109h-191v-571h-122zM195 -247v49c41 0 55 15 55 43h-52v89h122v-63c0 -83 -23 -118 -125 -118z" />
    <glyph glyph-name="uni021B" unicode="&#x21b;" horiz-adv-x="352" 
d="M239 0c-103 0 -147 49 -147 166v260h-82v93h84l8 133h110v-133h117v-93h-117v-256c0 -57 13 -73 64 -73h58v-97h-95zM139 -247v49c41 0 55 15 55 43h-52v89h122v-63c0 -83 -23 -118 -125 -118z" />
    <glyph glyph-name="uni0237" unicode="&#x237;" horiz-adv-x="266" 
d="M-2 -182v97h28c36 0 47 13 47 55v549h120v-550c0 -105 -39 -151 -134 -151h-61z" />
    <glyph glyph-name="uni02BC" unicode="&#x2bc;" horiz-adv-x="168" 
d="M22 524v55c41 0 53 17 53 46h-50v105h120v-84c0 -80 -26 -122 -123 -122z" />
    <glyph glyph-name="circumflex" unicode="&#x2c6;" horiz-adv-x="500" 
d="M76 592l117 136h113l118 -136h-111l-63 62l-64 -62h-110z" />
    <glyph glyph-name="caron" unicode="&#x2c7;" horiz-adv-x="500" 
d="M193 592l-117 136h110l64 -62l63 62h111l-118 -136h-113z" />
    <glyph glyph-name="uni02C9" unicode="&#x2c9;" horiz-adv-x="500" 
d="M112 616v86h276v-86h-276z" />
    <glyph glyph-name="breve" unicode="&#x2d8;" horiz-adv-x="500" 
d="M250 586c-91 0 -147 55 -151 139h84c3 -37 26 -58 67 -58c42 0 65 21 67 58h85c-4 -84 -60 -139 -152 -139z" />
    <glyph glyph-name="dotaccent" unicode="&#x2d9;" horiz-adv-x="500" 
d="M189 602v113h123v-113h-123z" />
    <glyph glyph-name="ring" unicode="&#x2da;" horiz-adv-x="500" 
d="M250 574c-67 0 -116 45 -116 110c0 64 49 111 116 111c66 0 115 -47 115 -111c0 -65 -49 -110 -115 -110zM250 640c24 0 41 17 41 44c0 26 -17 43 -41 43s-40 -17 -40 -43c0 -27 16 -44 40 -44z" />
    <glyph glyph-name="ogonek" unicode="&#x2db;" horiz-adv-x="500" 
d="M271 -204c-74 0 -117 31 -117 90c0 61 47 114 149 161l37 -34c-55 -30 -90 -63 -90 -100c0 -24 16 -37 45 -37c16 0 32 4 51 13v-80c-21 -8 -46 -13 -75 -13z" />
    <glyph glyph-name="tilde" unicode="&#x2dc;" horiz-adv-x="500" 
d="M308 591c-26 0 -40 5 -73 28c-21 15 -28 17 -39 17c-19 0 -28 -12 -31 -42h-74c3 88 36 129 101 129c26 0 40 -5 73 -27c23 -15 29 -17 39 -17c20 0 29 11 31 41h74c-3 -88 -35 -129 -101 -129z" />
    <glyph glyph-name="hungarumlaut" unicode="&#x2dd;" horiz-adv-x="500" 
d="M84 592l87 136h129l-114 -136h-102zM278 592l87 136h129l-114 -136h-102z" />
    <glyph glyph-name="gravecomb" unicode="&#x300;" horiz-adv-x="0" 
d="M-26 592l-137 136h137l111 -136h-111z" />
    <glyph glyph-name="acutecomb" unicode="&#x301;" horiz-adv-x="0" 
d="M-85 592l112 136h136l-137 -136h-111z" />
    <glyph glyph-name="uni0302" unicode="&#x302;" horiz-adv-x="0" 
d="M-174 592l117 136h113l118 -136h-111l-63 62l-64 -62h-110z" />
    <glyph glyph-name="tildecomb" unicode="&#x303;" horiz-adv-x="0" 
d="M58 591c-26 0 -40 5 -73 28c-21 15 -28 17 -39 17c-19 0 -28 -12 -31 -42h-74c3 88 36 129 101 129c26 0 40 -5 73 -27c23 -15 29 -17 39 -17c20 0 29 11 31 41h74c-3 -88 -35 -129 -101 -129z" />
    <glyph glyph-name="uni0304" unicode="&#x304;" horiz-adv-x="0" 
d="M-138 616v86h276v-86h-276z" />
    <glyph glyph-name="uni0306" unicode="&#x306;" horiz-adv-x="0" 
d="M0 586c-91 0 -147 55 -151 139h84c3 -37 26 -58 67 -58c42 0 65 21 67 58h85c-4 -84 -60 -139 -152 -139z" />
    <glyph glyph-name="uni0307" unicode="&#x307;" horiz-adv-x="0" 
d="M-61 602v113h123v-113h-123z" />
    <glyph glyph-name="uni0308" unicode="&#x308;" horiz-adv-x="0" 
d="M-156 602v113h118v-113h-118zM37 602v113h118v-113h-118z" />
    <glyph glyph-name="uni030A" unicode="&#x30a;" horiz-adv-x="0" 
d="M0 574c-67 0 -116 45 -116 110c0 64 49 111 116 111c66 0 115 -47 115 -111c0 -65 -49 -110 -115 -110zM0 640c24 0 41 17 41 44c0 26 -17 43 -41 43s-40 -17 -40 -43c0 -27 16 -44 40 -44z" />
    <glyph glyph-name="uni030B" unicode="&#x30b;" horiz-adv-x="0" 
d="M-166 592l87 136h129l-114 -136h-102zM28 592l87 136h129l-114 -136h-102z" />
    <glyph glyph-name="uni030C" unicode="&#x30c;" horiz-adv-x="0" 
d="M-57 592l-117 136h110l64 -62l63 62h111l-118 -136h-113z" />
    <glyph glyph-name="uni0312" unicode="&#x312;" horiz-adv-x="0" 
d="M-62 585v67c0 80 25 114 126 114v-49c-42 0 -55 -15 -55 -43h51v-89h-122z" />
    <glyph glyph-name="uni0326" unicode="&#x326;" horiz-adv-x="0" 
d="M-64 -247v49c41 0 55 15 55 43h-52v89h122v-63c0 -83 -23 -118 -125 -118z" />
    <glyph glyph-name="uni0327" unicode="&#x327;" horiz-adv-x="0" 
d="M-24 -207c-43 0 -77 6 -107 22l21 52c21 -11 39 -17 66 -17c34 0 46 10 46 27c0 16 -10 23 -55 23h-21l45 115h60l-27 -71c70 0 101 -23 101 -73c0 -46 -28 -78 -129 -78z" />
    <glyph glyph-name="uni0328" unicode="&#x328;" horiz-adv-x="0" 
d="M21 -204c-74 0 -117 31 -117 90c0 61 47 114 149 161l37 -34c-55 -30 -90 -63 -90 -100c0 -24 16 -37 45 -37c16 0 32 4 51 13v-80c-21 -8 -46 -13 -75 -13z" />
    <glyph glyph-name="uni0394" unicode="&#x394;" horiz-adv-x="600" 
d="M5 0l231 680h129l230 -680h-590zM163 105h269l-134 418z" />
    <glyph glyph-name="uni03A9" unicode="&#x3a9;" horiz-adv-x="654" 
d="M597 302c0 -91 -30 -159 -83 -198h78v-104h-223v96c70 22 106 77 106 173v148c0 115 -46 168 -148 168c-103 0 -148 -53 -148 -168v-148c0 -96 36 -151 106 -173v-96h-223v104h78c-54 39 -83 107 -83 198v116c0 185 86 274 270 274c183 0 270 -89 270 -274v-116z" />
    <glyph glyph-name="uni03BC" unicode="&#x3bc;" horiz-adv-x="580" 
d="M73 -182v701h120v-331c0 -67 25 -94 75 -94c49 0 88 26 119 91v334h120v-519h-102l-4 72c-42 -59 -92 -84 -157 -84c-19 0 -36 2 -51 6v-176h-120z" />
    <glyph glyph-name="pi" unicode="&#x3c0;" horiz-adv-x="600" 
d="M97 0v422h-87v97h571v-97h-86v-265c0 -48 13 -60 53 -60h34v-97h-79c-93 0 -128 43 -128 151v271h-158v-422h-120z" />
    <glyph glyph-name="Wgrave" unicode="&#x1e80;" horiz-adv-x="871" 
d="M409 746l-137 136h137l111 -136h-111zM182 0l-175 680h126l118 -496l130 496h113l130 -498l119 498h121l-175 -680h-126l-127 483l-128 -483h-126z" />
    <glyph glyph-name="wgrave" unicode="&#x1e81;" horiz-adv-x="788" 
d="M368 592l-137 136h137l111 -136h-111zM163 0l-155 519h126l98 -371l110 371h109l110 -372l98 372h121l-155 -519h-124l-106 356l-106 -356h-126z" />
    <glyph glyph-name="Wacute" unicode="&#x1e82;" horiz-adv-x="871" 
d="M350 746l112 136h136l-137 -136h-111zM182 0l-175 680h126l118 -496l130 496h113l130 -498l119 498h121l-175 -680h-126l-127 483l-128 -483h-126z" />
    <glyph glyph-name="wacute" unicode="&#x1e83;" horiz-adv-x="788" 
d="M309 592l112 136h136l-137 -136h-111zM163 0l-155 519h126l98 -371l110 371h109l110 -372l98 372h121l-155 -519h-124l-106 356l-106 -356h-126z" />
    <glyph glyph-name="Wdieresis" unicode="&#x1e84;" horiz-adv-x="871" 
d="M279 756v113h118v-113h-118zM472 756v113h118v-113h-118zM182 0l-175 680h126l118 -496l130 496h113l130 -498l119 498h121l-175 -680h-126l-127 483l-128 -483h-126z" />
    <glyph glyph-name="wdieresis" unicode="&#x1e85;" horiz-adv-x="788" 
d="M238 602v113h118v-113h-118zM431 602v113h118v-113h-118zM163 0l-155 519h126l98 -371l110 371h109l110 -372l98 372h121l-155 -519h-124l-106 356l-106 -356h-126z" />
    <glyph glyph-name="uni1E9E" unicode="&#x1e9e;" horiz-adv-x="638" 
d="M70 0v462c0 149 74 218 235 218h256v-95l-142 -192c135 -13 191 -73 191 -197c0 -139 -71 -196 -239 -196h-109v106h99c91 0 126 23 126 92c0 71 -38 93 -136 93h-71v91l141 192h-104c-87 0 -125 -34 -125 -112v-462h-122z" />
    <glyph glyph-name="Ygrave" unicode="&#x1ef2;" horiz-adv-x="546" 
d="M247 746l-137 136h137l111 -136h-111zM564 680l-230 -391v-289h-122v287l-230 393h140l156 -270l155 270h131z" />
    <glyph glyph-name="ygrave" unicode="&#x1ef3;" horiz-adv-x="485" 
d="M217 592l-137 136h137l111 -136h-111zM60 -182v97h51c34 0 48 10 60 46l17 53l-181 505h128l115 -354l107 354h121l-193 -572c-34 -100 -69 -129 -161 -129h-64z" />
    <glyph glyph-name="uni2002" unicode="&#x2002;" horiz-adv-x="500" 
 />
    <glyph glyph-name="uni2003" unicode="&#x2003;" horiz-adv-x="900" 
 />
    <glyph glyph-name="uni2007" unicode="&#x2007;" horiz-adv-x="599" 
 />
    <glyph glyph-name="uni2008" unicode="&#x2008;" horiz-adv-x="286" 
 />
    <glyph glyph-name="uni200B" unicode="&#x200b;" horiz-adv-x="0" 
 />
    <glyph glyph-name="figuredash" unicode="&#x2012;" horiz-adv-x="599" 
d="M30 247v97h539v-97h-539z" />
    <glyph glyph-name="endash" unicode="&#x2013;" horiz-adv-x="500" 
d="M30 247v97h440v-97h-440z" />
    <glyph glyph-name="emdash" unicode="&#x2014;" horiz-adv-x="900" 
d="M30 247v97h840v-97h-840z" />
    <glyph glyph-name="quoteleft" unicode="&#x2018;" horiz-adv-x="263" 
d="M65 409v126c0 105 42 156 134 157v-68c-33 -1 -54 -22 -54 -64v-23h48v-128h-128z" />
    <glyph glyph-name="quoteright" unicode="&#x2019;" horiz-adv-x="263" 
d="M63 397v67c33 1 55 23 55 65v23h-49v128h128v-126c0 -105 -41 -156 -134 -157z" />
    <glyph glyph-name="quotesinglbase" unicode="&#x201a;" horiz-adv-x="263" 
d="M63 -155v67c33 1 55 23 55 65v23h-49v128h128v-126c0 -105 -41 -156 -134 -157z" />
    <glyph glyph-name="quotedblleft" unicode="&#x201c;" horiz-adv-x="475" 
d="M65 409v126c0 105 42 156 134 157v-68c-33 -1 -54 -22 -54 -64v-23h48v-128h-128zM277 409v126c0 105 42 156 134 157v-68c-33 -1 -54 -22 -54 -64v-23h48v-128h-128z" />
    <glyph glyph-name="quotedblright" unicode="&#x201d;" horiz-adv-x="475" 
d="M63 397v67c33 1 55 23 55 65v23h-49v128h128v-126c0 -105 -41 -156 -134 -157zM275 397v67c33 1 55 23 55 65v23h-49v128h128v-126c0 -105 -41 -156 -134 -157z" />
    <glyph glyph-name="quotedblbase" unicode="&#x201e;" horiz-adv-x="475" 
d="M63 -155v67c33 1 55 23 55 65v23h-49v128h128v-126c0 -105 -41 -156 -134 -157zM275 -155v67c33 1 55 23 55 65v23h-49v128h128v-126c0 -105 -41 -156 -134 -157z" />
    <glyph glyph-name="dagger" unicode="&#x2020;" horiz-adv-x="603" 
d="M241 -182v528l-203 -9v116l203 -8v235h119v-236l204 9v-116l-204 9v-528h-119z" />
    <glyph glyph-name="daggerdbl" unicode="&#x2021;" horiz-adv-x="603" 
d="M241 -182v215l-203 -8v116l203 -10v235l-203 -9v116l203 -9v216h119v-216l204 9v-116l-204 9v-234l204 9v-116l-204 9v-216h-119z" />
    <glyph glyph-name="bullet" unicode="&#x2022;" horiz-adv-x="500" 
d="M132 175v240h236v-240h-236z" />
    <glyph glyph-name="ellipsis" unicode="&#x2026;" horiz-adv-x="900" 
d="M85 0v130h130v-130h-130zM385 0v130h130v-130h-130zM685 0v130h130v-130h-130z" />
    <glyph glyph-name="perthousand" unicode="&#x2030;" horiz-adv-x="1124" 
d="M184 312c-97 0 -149 46 -149 134v112c0 88 52 134 149 134s149 -46 149 -134v-112c0 -88 -52 -134 -149 -134zM141 -12l405 704h92l-405 -704h-92zM185 389c39 0 58 20 58 62v103c0 41 -19 61 -58 61c-40 0 -59 -20 -59 -61v-103c0 -42 19 -62 59 -62zM593 -12
c-97 0 -149 46 -149 134v112c0 88 52 134 149 134s149 -46 149 -134v-112c0 -88 -52 -134 -149 -134zM939 -12c-97 0 -149 46 -149 134v112c0 88 52 134 149 134s149 -46 149 -134v-112c0 -88 -52 -134 -149 -134zM594 65c39 0 58 20 58 62v103c0 41 -19 61 -58 61
c-40 0 -59 -20 -59 -61v-103c0 -42 19 -62 59 -62zM939 65c39 0 58 20 58 62v103c0 41 -19 61 -58 61c-40 0 -59 -20 -59 -61v-103c0 -42 19 -62 59 -62z" />
    <glyph glyph-name="guilsinglleft" unicode="&#x2039;" horiz-adv-x="293" 
d="M152 82l-135 178l135 179h124l-136 -179l136 -178h-124z" />
    <glyph glyph-name="guilsinglright" unicode="&#x203a;" horiz-adv-x="293" 
d="M17 80l135 179l-135 178h123l136 -178l-136 -179h-123z" />
    <glyph glyph-name="fraction" unicode="&#x2044;" horiz-adv-x="111" 
d="M-173 -12l366 704h90l-366 -704h-90z" />
    <glyph glyph-name="uni2070" unicode="&#x2070;" 
d="M183 404c-96 0 -148 46 -148 134v150c0 88 52 134 148 134s148 -46 148 -134v-150c0 -88 -52 -134 -148 -134zM183 481c39 0 57 20 57 62v141c0 41 -18 61 -57 61c-38 0 -57 -20 -57 -61v-141c0 -42 19 -62 57 -62z" />
    <glyph glyph-name="uni2074" unicode="&#x2074;" 
d="M213 416v83h-189v79l183 232h96v-238h43v-73h-43v-83h-90zM109 572h104v137z" />
    <glyph glyph-name="uni2075" unicode="&#x2075;" 
d="M182 404c-95 0 -146 41 -146 118h87c1 -25 23 -41 59 -41c41 0 61 19 61 58c0 38 -20 58 -59 58c-23 0 -46 -7 -59 -21h-76l13 234h252v-79h-180l-4 -82c21 14 48 22 81 22c79 0 123 -47 123 -130c0 -91 -52 -137 -152 -137z" />
    <glyph glyph-name="uni2076" unicode="&#x2076;" 
d="M187 404c-96 0 -149 47 -149 134v146c0 91 53 138 151 138c97 0 141 -46 142 -116h-87c-1 23 -19 39 -54 39c-42 0 -61 -21 -61 -65v-41c22 21 50 31 86 31c77 0 120 -46 120 -128c0 -91 -50 -138 -148 -138zM188 481c38 0 56 19 56 60c0 38 -16 56 -52 56
c-29 0 -50 -12 -63 -38v-16c0 -41 20 -62 59 -62z" />
    <glyph glyph-name="uni2077" unicode="&#x2077;" 
d="M86 416c6 130 58 237 152 314h-207v80h303v-84c-102 -90 -146 -183 -152 -310h-96z" />
    <glyph glyph-name="uni2078" unicode="&#x2078;" 
d="M184 404c-105 0 -157 39 -157 117c0 50 21 83 62 99v2c-35 15 -52 44 -52 86c0 74 51 114 146 114s146 -40 146 -114c0 -43 -17 -71 -52 -86v-2c41 -16 62 -50 62 -99c0 -78 -51 -117 -155 -117zM183 653c38 0 57 16 57 47s-19 45 -57 45s-58 -14 -58 -45s20 -47 58 -47z
M183 481c43 0 65 15 65 48s-22 49 -65 49c-44 0 -66 -16 -66 -49s22 -48 66 -48z" />
    <glyph glyph-name="uni2079" unicode="&#x2079;" 
d="M177 404c-97 0 -141 46 -142 116h87c1 -23 19 -39 54 -39c42 0 61 21 61 65v41c-22 -21 -50 -31 -86 -31c-77 0 -120 46 -120 128c0 91 50 138 148 138c96 0 149 -47 149 -134v-146c0 -91 -53 -138 -151 -138zM174 629c29 0 50 12 63 38v16c0 41 -20 62 -59 62
c-38 0 -56 -19 -56 -60c0 -38 16 -56 52 -56z" />
    <glyph glyph-name="uni2080" unicode="&#x2080;" 
d="M183 -132c-96 0 -148 46 -148 134v150c0 88 52 134 148 134s148 -46 148 -134v-150c0 -88 -52 -134 -148 -134zM183 -55c39 0 57 20 57 62v141c0 41 -18 61 -57 61c-38 0 -57 -20 -57 -61v-141c0 -42 19 -62 57 -62z" />
    <glyph glyph-name="uni2081" unicode="&#x2081;" 
d="M71 -120v77h89v212c-33 -12 -69 -14 -101 -15v69c54 2 86 16 108 51h84v-317h90v-77h-270z" />
    <glyph glyph-name="uni2082" unicode="&#x2082;" 
d="M36 -120v44c0 76 36 125 125 164c57 25 77 46 77 76c0 28 -19 45 -54 45c-38 0 -56 -21 -56 -58v-7h-85v17c0 80 51 125 144 125c91 0 142 -44 142 -119c0 -65 -36 -108 -124 -147c-53 -24 -73 -38 -78 -61h202v-79h-293z" />
    <glyph glyph-name="uni2083" unicode="&#x2083;" 
d="M185 -132c-97 0 -149 39 -149 115v18h86v-7c0 -31 21 -49 62 -49c39 0 59 16 59 49c0 34 -21 48 -65 48h-44v74h41c40 0 60 15 60 46s-20 47 -53 47c-35 0 -55 -17 -55 -47v-6h-85v11c0 78 50 119 143 119c89 0 140 -38 140 -115c0 -42 -16 -70 -50 -85v-2
c41 -15 59 -46 59 -94c0 -82 -52 -122 -149 -122z" />
    <glyph glyph-name="uni2084" unicode="&#x2084;" 
d="M213 -120v83h-189v79l183 232h96v-238h43v-73h-43v-83h-90zM109 36h104v137z" />
    <glyph glyph-name="uni2085" unicode="&#x2085;" 
d="M182 -132c-95 0 -146 41 -146 118h87c1 -25 23 -41 59 -41c41 0 61 19 61 58c0 38 -20 58 -59 58c-23 0 -46 -7 -59 -21h-76l13 234h252v-79h-180l-4 -82c21 14 48 22 81 22c79 0 123 -47 123 -130c0 -91 -52 -137 -152 -137z" />
    <glyph glyph-name="uni2086" unicode="&#x2086;" 
d="M187 -132c-96 0 -149 47 -149 134v146c0 91 53 138 151 138c97 0 141 -46 142 -116h-87c-1 23 -19 39 -54 39c-42 0 -61 -21 -61 -65v-41c22 21 50 31 86 31c77 0 120 -46 120 -128c0 -91 -50 -138 -148 -138zM188 -55c38 0 56 19 56 60c0 38 -16 56 -52 56
c-29 0 -50 -12 -63 -38v-16c0 -41 20 -62 59 -62z" />
    <glyph glyph-name="uni2087" unicode="&#x2087;" 
d="M86 -120c6 130 58 237 152 314h-207v80h303v-84c-102 -90 -146 -183 -152 -310h-96z" />
    <glyph glyph-name="uni2088" unicode="&#x2088;" 
d="M184 -132c-105 0 -157 39 -157 117c0 50 21 83 62 99v2c-35 15 -52 44 -52 86c0 74 51 114 146 114s146 -40 146 -114c0 -43 -17 -71 -52 -86v-2c41 -16 62 -50 62 -99c0 -78 -51 -117 -155 -117zM183 117c38 0 57 16 57 47s-19 45 -57 45s-58 -14 -58 -45s20 -47 58 -47
zM183 -55c43 0 65 15 65 48s-22 49 -65 49c-44 0 -66 -16 -66 -49s22 -48 66 -48z" />
    <glyph glyph-name="uni2089" unicode="&#x2089;" 
d="M177 -132c-97 0 -141 46 -142 116h87c1 -23 19 -39 54 -39c42 0 61 21 61 65v41c-22 -21 -50 -31 -86 -31c-77 0 -120 46 -120 128c0 91 50 138 148 138c96 0 149 -47 149 -134v-146c0 -91 -53 -138 -151 -138zM174 93c29 0 50 12 63 38v16c0 41 -20 62 -59 62
c-38 0 -56 -19 -56 -60c0 -38 16 -56 52 -56z" />
    <glyph glyph-name="Euro" unicode="&#x20ac;" horiz-adv-x="599" 
d="M326 -12c-154 0 -237 80 -237 230v11h-48v79h48v64h-48v79h48v11c0 150 82 230 237 230c144 0 223 -69 228 -215h-113c-3 75 -42 111 -115 111c-79 0 -119 -43 -119 -127v-10h191l-13 -79h-178v-64h166l-13 -79h-153v-10c0 -84 40 -127 119 -127c73 0 112 36 115 111h113
c-5 -142 -81 -215 -228 -215z" />
    <glyph glyph-name="uni20B9" unicode="&#x20b9;" horiz-adv-x="599" 
d="M348 0l-281 255v78h113c97 0 142 28 153 98h-280l18 85h259c-14 57 -56 79 -140 79h-137l18 85h493l-18 -85h-141c23 -20 37 -46 44 -79h115l-18 -85h-92c-9 -113 -78 -170 -213 -181l276 -250h-169z" />
    <glyph glyph-name="uni2113" unicode="&#x2113;" horiz-adv-x="477" 
d="M264 -12c-130 0 -196 71 -196 207v347c0 132 63 200 185 200c114 0 172 -60 172 -177c0 -134 -76 -244 -237 -349v-18c0 -70 34 -104 98 -104c41 0 74 13 112 44l42 -88c-51 -44 -111 -62 -176 -62zM188 337c91 69 130 140 130 220c0 56 -20 81 -62 81
c-47 0 -68 -32 -68 -101v-200z" />
    <glyph glyph-name="uni2116" unicode="&#x2116;" horiz-adv-x="1072" 
d="M83 0v680h135l269 -472v472h116v-680h-117l-287 503v-503h-116zM855 151c-109 0 -164 53 -164 159v64c0 107 55 160 164 160s164 -53 164 -160v-64c0 -106 -55 -159 -164 -159zM855 228c48 0 70 24 70 82v65c0 57 -22 82 -70 82s-70 -25 -70 -82v-65c0 -58 22 -82 70 -82
zM694 0v78h322v-78h-322z" />
    <glyph glyph-name="uni2117" unicode="&#x2117;" horiz-adv-x="766" 
d="M383 -12c-204 0 -352 148 -352 352s148 352 352 352s352 -148 352 -352s-148 -352 -352 -352zM383 67c159 0 265 109 265 273s-106 273 -265 273c-160 0 -265 -109 -265 -273s105 -273 265 -273zM257 162v356h153c97 0 139 -36 139 -119s-42 -119 -139 -119h-63v-118h-90
zM347 353h54c42 0 58 13 58 46s-16 46 -58 46h-54v-92z" />
    <glyph glyph-name="uni2120" unicode="&#x2120;" horiz-adv-x="708" 
d="M135 344c-84 0 -122 32 -122 105h76c0 -29 15 -44 47 -44c30 0 45 14 45 35c0 24 -15 34 -64 44c-71 15 -100 43 -100 101c0 68 42 103 119 103c76 0 116 -34 116 -102h-76c0 27 -14 41 -41 41s-41 -13 -41 -35c0 -23 17 -35 62 -43c72 -13 102 -43 102 -105
c0 -67 -38 -100 -123 -100zM320 352v328h112l65 -207l64 207h115v-328h-78v241l-77 -241h-53l-75 234v-234h-73z" />
    <glyph glyph-name="trademark" unicode="&#x2122;" horiz-adv-x="688" 
d="M86 352v262h-86v66h250v-66h-86v-262h-78zM300 352v328h113l65 -207l64 207h114v-328h-78v237l-76 -237h-53l-76 237v-237h-73z" />
    <glyph glyph-name="uni2126" unicode="&#x2126;" horiz-adv-x="654" 
d="M597 302c0 -91 -30 -159 -83 -198h78v-104h-223v96c70 22 106 77 106 173v148c0 115 -46 168 -148 168c-103 0 -148 -53 -148 -168v-148c0 -96 36 -151 106 -173v-96h-223v104h78c-54 39 -83 107 -83 198v116c0 185 86 274 270 274c183 0 270 -89 270 -274v-116z" />
    <glyph glyph-name="estimated" unicode="&#x212e;" horiz-adv-x="796" 
d="M405 -12c-205 0 -371 157 -371 352c0 194 166 352 371 352s371 -158 371 -352v-9h-601c-3 0 -5 -2 -5 -5v-191c0 -9 4 -15 9 -21c56 -66 138 -105 228 -105c94 0 181 46 239 117h54c-68 -84 -175 -138 -295 -138zM175 351h461c4 0 6 2 6 6v193c0 8 -4 16 -10 22
c-59 62 -139 99 -225 99c-90 0 -170 -39 -228 -103c-5 -6 -9 -14 -9 -22v-190c0 -3 2 -5 5 -5z" />
    <glyph glyph-name="uni2153" unicode="&#x2153;" horiz-adv-x="843" 
d="M193 -12l366 704h90l-366 -704h-90zM71 286v77h89v212c-33 -12 -69 -14 -101 -15v69c54 2 86 16 108 51h84v-317h90v-77h-270zM662 -12c-97 0 -149 39 -149 115v18h86v-7c0 -31 21 -49 62 -49c39 0 59 16 59 49c0 34 -21 48 -65 48h-44v74h41c40 0 60 15 60 46
s-20 47 -53 47c-35 0 -55 -17 -55 -47v-6h-85v11c0 78 50 119 143 119c89 0 140 -38 140 -115c0 -42 -16 -70 -50 -85v-2c41 -15 59 -46 59 -94c0 -82 -52 -122 -149 -122z" />
    <glyph glyph-name="uni2154" unicode="&#x2154;" horiz-adv-x="843" 
d="M36 286v44c0 76 36 125 125 164c57 25 77 46 77 76c0 28 -19 45 -54 45c-38 0 -56 -21 -56 -58v-7h-85v17c0 80 51 125 144 125c91 0 142 -44 142 -119c0 -65 -36 -108 -124 -147c-53 -24 -73 -38 -78 -61h202v-79h-293zM193 -12l366 704h90l-366 -704h-90zM662 -12
c-97 0 -149 39 -149 115v18h86v-7c0 -31 21 -49 62 -49c39 0 59 16 59 49c0 34 -21 48 -65 48h-44v74h41c40 0 60 15 60 46s-20 47 -53 47c-35 0 -55 -17 -55 -47v-6h-85v11c0 78 50 119 143 119c89 0 140 -38 140 -115c0 -42 -16 -70 -50 -85v-2c41 -15 59 -46 59 -94
c0 -82 -52 -122 -149 -122z" />
    <glyph glyph-name="uni2155" unicode="&#x2155;" horiz-adv-x="843" 
d="M193 -12l366 704h90l-366 -704h-90zM71 286v77h89v212c-33 -12 -69 -14 -101 -15v69c54 2 86 16 108 51h84v-317h90v-77h-270zM659 -12c-95 0 -146 41 -146 118h87c1 -25 23 -41 59 -41c41 0 61 19 61 58c0 38 -20 58 -59 58c-23 0 -46 -7 -59 -21h-76l13 234h252v-79
h-180l-4 -82c21 14 48 22 81 22c79 0 123 -47 123 -130c0 -91 -52 -137 -152 -137z" />
    <glyph glyph-name="uni2156" unicode="&#x2156;" horiz-adv-x="843" 
d="M36 286v44c0 76 36 125 125 164c57 25 77 46 77 76c0 28 -19 45 -54 45c-38 0 -56 -21 -56 -58v-7h-85v17c0 80 51 125 144 125c91 0 142 -44 142 -119c0 -65 -36 -108 -124 -147c-53 -24 -73 -38 -78 -61h202v-79h-293zM193 -12l366 704h90l-366 -704h-90zM659 -12
c-95 0 -146 41 -146 118h87c1 -25 23 -41 59 -41c41 0 61 19 61 58c0 38 -20 58 -59 58c-23 0 -46 -7 -59 -21h-76l13 234h252v-79h-180l-4 -82c21 14 48 22 81 22c79 0 123 -47 123 -130c0 -91 -52 -137 -152 -137z" />
    <glyph glyph-name="uni2157" unicode="&#x2157;" horiz-adv-x="843" 
d="M185 274c-97 0 -149 39 -149 115v18h86v-7c0 -31 21 -49 62 -49c39 0 59 16 59 49c0 34 -21 48 -65 48h-44v74h41c40 0 60 15 60 46s-20 47 -53 47c-35 0 -55 -17 -55 -47v-6h-85v11c0 78 50 119 143 119c89 0 140 -38 140 -115c0 -42 -16 -70 -50 -85v-2
c41 -15 59 -46 59 -94c0 -82 -52 -122 -149 -122zM193 -12l366 704h90l-366 -704h-90zM659 -12c-95 0 -146 41 -146 118h87c1 -25 23 -41 59 -41c41 0 61 19 61 58c0 38 -20 58 -59 58c-23 0 -46 -7 -59 -21h-76l13 234h252v-79h-180l-4 -82c21 14 48 22 81 22
c79 0 123 -47 123 -130c0 -91 -52 -137 -152 -137z" />
    <glyph glyph-name="uni2158" unicode="&#x2158;" horiz-adv-x="843" 
d="M193 -12l366 704h90l-366 -704h-90zM213 286v83h-189v79l183 232h96v-238h43v-73h-43v-83h-90zM109 442h104v137zM659 -12c-95 0 -146 41 -146 118h87c1 -25 23 -41 59 -41c41 0 61 19 61 58c0 38 -20 58 -59 58c-23 0 -46 -7 -59 -21h-76l13 234h252v-79h-180l-4 -82
c21 14 48 22 81 22c79 0 123 -47 123 -130c0 -91 -52 -137 -152 -137z" />
    <glyph glyph-name="uni2159" unicode="&#x2159;" horiz-adv-x="843" 
d="M193 -12l366 704h90l-366 -704h-90zM71 286v77h89v212c-33 -12 -69 -14 -101 -15v69c54 2 86 16 108 51h84v-317h90v-77h-270zM664 -12c-96 0 -149 47 -149 134v146c0 91 53 138 151 138c97 0 141 -46 142 -116h-87c-1 23 -19 39 -54 39c-42 0 -61 -21 -61 -65v-41
c22 21 50 31 86 31c77 0 120 -46 120 -128c0 -91 -50 -138 -148 -138zM665 65c38 0 56 19 56 60c0 38 -16 56 -52 56c-29 0 -50 -12 -63 -38v-16c0 -41 20 -62 59 -62z" />
    <glyph glyph-name="uni215A" unicode="&#x215a;" horiz-adv-x="843" 
d="M193 -12l366 704h90l-366 -704h-90zM182 274c-95 0 -146 41 -146 118h87c1 -25 23 -41 59 -41c41 0 61 19 61 58c0 38 -20 58 -59 58c-23 0 -46 -7 -59 -21h-76l13 234h252v-79h-180l-4 -82c21 14 48 22 81 22c79 0 123 -47 123 -130c0 -91 -52 -137 -152 -137zM664 -12
c-96 0 -149 47 -149 134v146c0 91 53 138 151 138c97 0 141 -46 142 -116h-87c-1 23 -19 39 -54 39c-42 0 -61 -21 -61 -65v-41c22 21 50 31 86 31c77 0 120 -46 120 -128c0 -91 -50 -138 -148 -138zM665 65c38 0 56 19 56 60c0 38 -16 56 -52 56c-29 0 -50 -12 -63 -38v-16
c0 -41 20 -62 59 -62z" />
    <glyph glyph-name="oneeighth" unicode="&#x215b;" horiz-adv-x="843" 
d="M193 -12l366 704h90l-366 -704h-90zM71 286v77h89v212c-33 -12 -69 -14 -101 -15v69c54 2 86 16 108 51h84v-317h90v-77h-270zM661 -12c-105 0 -157 39 -157 117c0 50 21 83 62 99v2c-35 15 -52 44 -52 86c0 74 51 114 146 114s146 -40 146 -114c0 -43 -17 -71 -52 -86
v-2c41 -16 62 -50 62 -99c0 -78 -51 -117 -155 -117zM660 237c38 0 57 16 57 47s-19 45 -57 45s-58 -14 -58 -45s20 -47 58 -47zM660 65c43 0 65 15 65 48s-22 49 -65 49c-44 0 -66 -16 -66 -49s22 -48 66 -48z" />
    <glyph glyph-name="threeeighths" unicode="&#x215c;" horiz-adv-x="843" 
d="M185 274c-97 0 -149 39 -149 115v18h86v-7c0 -31 21 -49 62 -49c39 0 59 16 59 49c0 34 -21 48 -65 48h-44v74h41c40 0 60 15 60 46s-20 47 -53 47c-35 0 -55 -17 -55 -47v-6h-85v11c0 78 50 119 143 119c89 0 140 -38 140 -115c0 -42 -16 -70 -50 -85v-2
c41 -15 59 -46 59 -94c0 -82 -52 -122 -149 -122zM193 -12l366 704h90l-366 -704h-90zM661 -12c-105 0 -157 39 -157 117c0 50 21 83 62 99v2c-35 15 -52 44 -52 86c0 74 51 114 146 114s146 -40 146 -114c0 -43 -17 -71 -52 -86v-2c41 -16 62 -50 62 -99
c0 -78 -51 -117 -155 -117zM660 237c38 0 57 16 57 47s-19 45 -57 45s-58 -14 -58 -45s20 -47 58 -47zM660 65c43 0 65 15 65 48s-22 49 -65 49c-44 0 -66 -16 -66 -49s22 -48 66 -48z" />
    <glyph glyph-name="fiveeighths" unicode="&#x215d;" horiz-adv-x="843" 
d="M193 -12l366 704h90l-366 -704h-90zM182 274c-95 0 -146 41 -146 118h87c1 -25 23 -41 59 -41c41 0 61 19 61 58c0 38 -20 58 -59 58c-23 0 -46 -7 -59 -21h-76l13 234h252v-79h-180l-4 -82c21 14 48 22 81 22c79 0 123 -47 123 -130c0 -91 -52 -137 -152 -137zM661 -12
c-105 0 -157 39 -157 117c0 50 21 83 62 99v2c-35 15 -52 44 -52 86c0 74 51 114 146 114s146 -40 146 -114c0 -43 -17 -71 -52 -86v-2c41 -16 62 -50 62 -99c0 -78 -51 -117 -155 -117zM660 237c38 0 57 16 57 47s-19 45 -57 45s-58 -14 -58 -45s20 -47 58 -47zM660 65
c43 0 65 15 65 48s-22 49 -65 49c-44 0 -66 -16 -66 -49s22 -48 66 -48z" />
    <glyph glyph-name="seveneighths" unicode="&#x215e;" horiz-adv-x="843" 
d="M166 -12l366 704h90l-366 -704h-90zM86 286c6 130 58 237 152 314h-207v80h303v-84c-102 -90 -146 -183 -152 -310h-96zM661 -12c-105 0 -157 39 -157 117c0 50 21 83 62 99v2c-35 15 -52 44 -52 86c0 74 51 114 146 114s146 -40 146 -114c0 -43 -17 -71 -52 -86v-2
c41 -16 62 -50 62 -99c0 -78 -51 -117 -155 -117zM660 237c38 0 57 16 57 47s-19 45 -57 45s-58 -14 -58 -45s20 -47 58 -47zM660 65c43 0 65 15 65 48s-22 49 -65 49c-44 0 -66 -16 -66 -49s22 -48 66 -48z" />
    <glyph glyph-name="arrowleft" unicode="&#x2190;" horiz-adv-x="800" 
d="M372 22l-318 318l318 318l66 -66l-203 -200h511v-104h-511l203 -200z" />
    <glyph glyph-name="arrowup" unicode="&#x2191;" horiz-adv-x="800" 
d="M346 0v509l-204 -207l-66 66l324 324l324 -324l-66 -66l-203 206v-508h-109z" />
    <glyph glyph-name="arrowright" unicode="&#x2192;" horiz-adv-x="800" 
d="M428 23l-66 66l203 200h-511v104h511l-203 200l66 66l318 -318z" />
    <glyph glyph-name="arrowdown" unicode="&#x2193;" horiz-adv-x="800" 
d="M400 -12l-324 324l66 66l204 -207v509h109v-508l203 206l66 -66z" />
    <glyph glyph-name="arrowboth" unicode="&#x2194;" horiz-adv-x="1000" 
d="M351 42l-297 298l297 298l66 -66l-182 -180h530l-182 180l66 66l297 -298l-297 -298l-66 66l182 180h-530l182 -180z" />
    <glyph glyph-name="arrowupdn" unicode="&#x2195;" horiz-adv-x="800" 
d="M400 -84l-295 295l66 66l175 -177v480l-175 -177l-66 66l295 295l295 -295l-66 -66l-174 176v-478l174 176l66 -66z" />
    <glyph glyph-name="uni2196" unicode="&#x2196;" horiz-adv-x="800" 
d="M623 44l-395 396l2 -281h-96v449h448v-90l-285 1l401 -401z" />
    <glyph glyph-name="uni2197" unicode="&#x2197;" horiz-adv-x="800" 
d="M176 44l-74 74l400 401l-284 -1v90h448v-449h-96l2 281z" />
    <glyph glyph-name="uni2198" unicode="&#x2198;" horiz-adv-x="800" 
d="M218 72v90l284 -1l-400 401l74 74l396 -396l-2 281h96v-449h-448z" />
    <glyph glyph-name="uni2199" unicode="&#x2199;" horiz-adv-x="800" 
d="M134 72v449h96l-2 -281l395 396l75 -74l-401 -401l285 1v-90h-448z" />
    <glyph glyph-name="partialdiff" unicode="&#x2202;" horiz-adv-x="602" 
d="M260 -12c-140 0 -221 86 -221 227c0 152 93 256 237 256c66 0 117 -22 153 -66c-2 155 -40 237 -169 237c-52 0 -94 -13 -131 -41v106c42 24 95 35 155 35c182 0 264 -103 264 -341c0 -263 -102 -413 -288 -413zM267 88c85 0 136 64 154 186c-20 61 -65 97 -127 97
c-82 0 -135 -61 -135 -158c0 -81 38 -125 108 -125z" />
    <glyph glyph-name="emptyset" unicode="&#x2205;" horiz-adv-x="823" 
d="M129 -12l-70 70l68 68c-43 59 -68 132 -68 214c0 201 151 352 353 352c82 0 155 -25 213 -68l68 68l71 -70l-68 -68c43 -58 68 -132 68 -214c0 -201 -150 -352 -352 -352c-82 0 -156 25 -215 68zM200 199l354 354c-39 26 -88 41 -142 41c-146 0 -250 -105 -250 -254
c0 -54 14 -102 38 -141zM412 86c146 0 250 105 250 254c0 54 -14 102 -38 142l-356 -355c40 -26 89 -41 144 -41z" />
    <glyph glyph-name="uni2206" unicode="&#x2206;" horiz-adv-x="600" 
d="M5 0l231 680h129l230 -680h-590zM163 105h269l-134 418z" />
    <glyph glyph-name="product" unicode="&#x220f;" horiz-adv-x="773" 
d="M87 -183v954h599v-954h-114v850h-371v-850h-114z" />
    <glyph glyph-name="summation" unicode="&#x2211;" horiz-adv-x="624" 
d="M23 -183v107l298 370l-298 370v107h578v-103h-437l301 -374l-301 -374h437v-103h-578z" />
    <glyph glyph-name="minus" unicode="&#x2212;" horiz-adv-x="599" 
d="M54 260v98h491v-98h-491z" />
    <glyph glyph-name="uni2215" unicode="&#x2215;" horiz-adv-x="411" 
d="M-10 -12l320 704h111l-319 -704h-112z" />
    <glyph glyph-name="uni2219" unicode="&#x2219;" horiz-adv-x="286" 
d="M78 243v130h130v-130h-130z" />
    <glyph glyph-name="radical" unicode="&#x221a;" horiz-adv-x="599" 
d="M232 -183l-99 330h-79v98h153l78 -265l225 791h105l-275 -954h-108z" />
    <glyph glyph-name="infinity" unicode="&#x221e;" horiz-adv-x="913" 
d="M251 102c-122 0 -201 86 -201 217c0 130 79 216 204 216c107 0 164 -59 208 -128c50 82 106 128 200 128c123 0 201 -86 201 -217c0 -130 -79 -216 -204 -216c-107 0 -164 60 -207 128c-53 -86 -110 -128 -201 -128zM654 202c64 0 104 48 104 120c0 71 -41 116 -111 116
c-62 0 -96 -31 -141 -109c38 -68 75 -127 148 -127zM267 200c61 0 95 30 140 109c-37 68 -75 126 -147 126c-65 0 -105 -48 -105 -120c0 -71 40 -115 112 -115z" />
    <glyph glyph-name="integral" unicode="&#x222b;" horiz-adv-x="316" 
d="M56 -194c-23 0 -44 3 -65 10v95c16 -7 30 -10 47 -10c48 0 69 30 69 98v598c0 128 47 188 151 188c24 0 45 -3 67 -9v-96c-17 7 -31 10 -48 10c-48 0 -69 -30 -69 -98v-598c0 -128 -48 -188 -152 -188z" />
    <glyph glyph-name="approxequal" unicode="&#x2248;" horiz-adv-x="599" 
d="M403 321c-46 0 -80 14 -128 51c-35 27 -55 37 -79 37c-39 0 -60 -26 -62 -76h-88c2 111 57 175 151 175c46 0 80 -14 128 -51c35 -27 54 -37 79 -37c38 0 60 26 62 76h88c-2 -111 -57 -175 -151 -175zM403 89c-46 0 -80 14 -128 51c-35 27 -55 37 -79 37
c-39 0 -60 -26 -62 -76h-88c2 111 57 175 151 175c46 0 80 -14 128 -51c35 -27 54 -37 79 -37c38 0 60 26 62 76h88c-2 -111 -57 -175 -151 -175z" />
    <glyph glyph-name="notequal" unicode="&#x2260;" horiz-adv-x="599" 
d="M545 374h-152l-80 -130h232v-98h-292l-80 -129h-108l80 129h-91v98h151l80 130h-231v98h292l79 128h108l-79 -128h91v-98z" />
    <glyph glyph-name="lessequal" unicode="&#x2264;" horiz-adv-x="599" 
d="M545 140l-491 175v94l491 176v-106l-337 -116l337 -117v-106zM54 0v98h491v-98h-491z" />
    <glyph glyph-name="greaterequal" unicode="&#x2265;" horiz-adv-x="599" 
d="M54 140v106l337 117l-337 116v106l491 -176v-94zM54 0v98h491v-98h-491z" />
    <glyph glyph-name="lozenge" unicode="&#x25ca;" horiz-adv-x="599" 
d="M299 -32l-272 372l272 372l273 -372zM300 135l149 205l-149 205l-150 -205z" />
    <glyph glyph-name="uniF8FF" unicode="&#xf8ff;" horiz-adv-x="649" 
d="M263 50c-134 0 -225 88 -225 224c0 130 83 225 250 225h50v116h157v-116h132v-149h-132v-51c0 -156 -94 -249 -232 -249zM266 205c43 0 72 28 72 92v53h-49c-62 0 -89 -31 -89 -76c0 -43 24 -69 66 -69z" />
    <glyph glyph-name="Iacute_J.loclNLD" horiz-adv-x="839" 
d="M59 746l112 136h136l-137 -136h-111zM626 746l112 136h136l-137 -136h-111zM83 0v680h122v-680h-122zM536 -12c-160 0 -232 72 -232 234v18h117v-18c0 -89 33 -127 114 -127c82 0 115 41 115 137v448h122v-453c0 -166 -73 -239 -236 -239z" />
    <glyph glyph-name="iacute_j.loclNLD" horiz-adv-x="532" 
d="M48 592l112 136h136l-137 -136h-111zM314 592l112 136h136l-137 -136h-111zM73 0v519h120v-519h-120zM264 -182v97h28c36 0 47 13 47 55v549h120v-550c0 -105 -39 -151 -134 -151h-61z" />
    <glyph glyph-name="i.loclTRK" horiz-adv-x="266" 
d="M69 602v113h128v-113h-128zM73 0v519h120v-519h-120z" />
    <glyph glyph-name="germandbls.calt" horiz-adv-x="638" 
d="M70 0v462c0 149 74 218 235 218h256v-95l-142 -192c135 -13 191 -73 191 -197c0 -139 -71 -196 -239 -196h-109v106h99c91 0 126 23 126 92c0 71 -38 93 -136 93h-71v91l141 192h-104c-87 0 -125 -34 -125 -112v-462h-122z" />
    <glyph glyph-name="zero.pf" horiz-adv-x="625" 
d="M312 -12c-156 0 -240 79 -240 228v248c0 150 84 228 240 228c157 0 241 -78 241 -228v-248c0 -149 -84 -228 -241 -228zM312 92c83 0 121 41 121 130v236c0 89 -38 130 -121 130c-82 0 -120 -41 -120 -130v-236c0 -89 38 -130 120 -130z" />
    <glyph glyph-name="one.pf" horiz-adv-x="443" 
d="M228 0v528c-57 -24 -121 -29 -184 -31v95c91 3 149 28 190 88h114v-680h-120z" />
    <glyph glyph-name="two.pf" horiz-adv-x="571" 
d="M47 0v61c0 128 59 204 214 276c111 51 148 90 148 154c0 59 -37 97 -115 97c-80 0 -122 -39 -122 -118v-17h-114v28c0 137 85 211 237 211c153 0 234 -75 234 -200c0 -111 -58 -180 -208 -247c-108 -48 -148 -83 -154 -139h361v-106h-481z" />
    <glyph glyph-name="three.pf" horiz-adv-x="596" 
d="M300 -12c-160 0 -244 66 -244 194v30h116v-14c0 -70 42 -106 128 -106c80 0 125 31 125 101c0 68 -40 100 -132 100h-70v104h69c79 0 118 29 118 94c0 64 -39 97 -112 97c-77 0 -117 -37 -117 -104v-11h-115v18c0 130 83 201 235 201c146 0 228 -66 228 -189
c0 -72 -29 -122 -89 -148v-2c72 -27 105 -81 105 -165c0 -134 -84 -200 -245 -200z" />
    <glyph glyph-name="four.pf" horiz-adv-x="596" 
d="M369 0v147h-332v109l321 424h131v-431h75v-102h-75v-147h-120zM158 249h211v284z" />
    <glyph glyph-name="five.pf" horiz-adv-x="573" 
d="M288 -12c-155 0 -240 69 -241 195h116c3 -57 48 -91 124 -91c85 0 130 43 130 127c0 83 -44 126 -124 126c-48 0 -86 -16 -118 -46h-108l24 381h415v-106h-313l-10 -171c38 31 84 45 141 45c137 0 213 -80 213 -226c0 -157 -86 -234 -249 -234z" />
    <glyph glyph-name="six.pf" horiz-adv-x="622" 
d="M318 -12c-157 0 -243 78 -243 230v240c0 154 86 234 247 234c149 0 225 -68 230 -191h-116c-5 54 -42 87 -115 87c-85 0 -126 -45 -126 -135v-80c40 43 92 63 160 63c130 0 204 -76 204 -218c0 -150 -81 -230 -241 -230zM319 92c81 0 119 44 119 123
c0 76 -36 117 -110 117c-63 0 -107 -30 -133 -90v-19c0 -87 42 -131 124 -131z" />
    <glyph glyph-name="seven.pf" horiz-adv-x="539" 
d="M121 0c10 230 99 421 263 571h-362v109h492v-112c-171 -165 -255 -340 -265 -568h-128z" />
    <glyph glyph-name="eight.pf" horiz-adv-x="615" 
d="M308 -12c-167 0 -256 70 -256 198c0 83 37 139 110 167v2c-61 26 -92 76 -92 147c0 122 87 190 239 190c151 0 237 -68 237 -189c0 -72 -31 -122 -92 -148v-2c72 -28 110 -84 110 -167c0 -128 -89 -198 -256 -198zM307 398c77 0 120 33 120 96s-42 95 -120 95
c-76 0 -119 -32 -119 -95s43 -96 119 -96zM307 91c91 0 136 33 136 101c0 69 -46 103 -136 103s-136 -34 -136 -103c0 -68 45 -101 136 -101z" />
    <glyph glyph-name="nine.pf" horiz-adv-x="622" 
d="M300 -12c-149 0 -226 68 -230 191h116c5 -54 42 -87 114 -87c86 0 127 45 127 135v81c-41 -43 -93 -64 -160 -64c-131 0 -204 76 -204 218c0 150 81 230 240 230c158 0 244 -78 244 -230v-240c0 -154 -86 -234 -247 -234zM294 348c64 0 108 31 133 92v17
c0 87 -43 131 -124 131s-120 -44 -120 -123c0 -76 37 -117 111 -117z" />
    <glyph glyph-name="zero.numr" 
d="M183 274c-96 0 -148 46 -148 134v150c0 88 52 134 148 134s148 -46 148 -134v-150c0 -88 -52 -134 -148 -134zM183 351c39 0 57 20 57 62v141c0 41 -18 61 -57 61c-38 0 -57 -20 -57 -61v-141c0 -42 19 -62 57 -62z" />
    <glyph glyph-name="one.numr" 
d="M71 286v77h89v212c-33 -12 -69 -14 -101 -15v69c54 2 86 16 108 51h84v-317h90v-77h-270z" />
    <glyph glyph-name="two.numr" 
d="M36 286v44c0 76 36 125 125 164c57 25 77 46 77 76c0 28 -19 45 -54 45c-38 0 -56 -21 -56 -58v-7h-85v17c0 80 51 125 144 125c91 0 142 -44 142 -119c0 -65 -36 -108 -124 -147c-53 -24 -73 -38 -78 -61h202v-79h-293z" />
    <glyph glyph-name="three.numr" 
d="M185 274c-97 0 -149 39 -149 115v18h86v-7c0 -31 21 -49 62 -49c39 0 59 16 59 49c0 34 -21 48 -65 48h-44v74h41c40 0 60 15 60 46s-20 47 -53 47c-35 0 -55 -17 -55 -47v-6h-85v11c0 78 50 119 143 119c89 0 140 -38 140 -115c0 -42 -16 -70 -50 -85v-2
c41 -15 59 -46 59 -94c0 -82 -52 -122 -149 -122z" />
    <glyph glyph-name="four.numr" 
d="M213 286v83h-189v79l183 232h96v-238h43v-73h-43v-83h-90zM109 442h104v137z" />
    <glyph glyph-name="five.numr" 
d="M182 274c-95 0 -146 41 -146 118h87c1 -25 23 -41 59 -41c41 0 61 19 61 58c0 38 -20 58 -59 58c-23 0 -46 -7 -59 -21h-76l13 234h252v-79h-180l-4 -82c21 14 48 22 81 22c79 0 123 -47 123 -130c0 -91 -52 -137 -152 -137z" />
    <glyph glyph-name="six.numr" 
d="M187 274c-96 0 -149 47 -149 134v146c0 91 53 138 151 138c97 0 141 -46 142 -116h-87c-1 23 -19 39 -54 39c-42 0 -61 -21 -61 -65v-41c22 21 50 31 86 31c77 0 120 -46 120 -128c0 -91 -50 -138 -148 -138zM188 351c38 0 56 19 56 60c0 38 -16 56 -52 56
c-29 0 -50 -12 -63 -38v-16c0 -41 20 -62 59 -62z" />
    <glyph glyph-name="seven.numr" 
d="M86 286c6 130 58 237 152 314h-207v80h303v-84c-102 -90 -146 -183 -152 -310h-96z" />
    <glyph glyph-name="eight.numr" 
d="M184 274c-105 0 -157 39 -157 117c0 50 21 83 62 99v2c-35 15 -52 44 -52 86c0 74 51 114 146 114s146 -40 146 -114c0 -43 -17 -71 -52 -86v-2c41 -16 62 -50 62 -99c0 -78 -51 -117 -155 -117zM183 523c38 0 57 16 57 47s-19 45 -57 45s-58 -14 -58 -45s20 -47 58 -47z
M183 351c43 0 65 15 65 48s-22 49 -65 49c-44 0 -66 -16 -66 -49s22 -48 66 -48z" />
    <glyph glyph-name="nine.numr" 
d="M177 274c-97 0 -141 46 -142 116h87c1 -23 19 -39 54 -39c42 0 61 21 61 65v41c-22 -21 -50 -31 -86 -31c-77 0 -120 46 -120 128c0 91 50 138 148 138c96 0 149 -47 149 -134v-146c0 -91 -53 -138 -151 -138zM174 499c29 0 50 12 63 38v16c0 41 -20 62 -59 62
c-38 0 -56 -19 -56 -60c0 -38 16 -56 52 -56z" />
    <glyph glyph-name="zero.dnom" 
d="M183 -12c-96 0 -148 46 -148 134v150c0 88 52 134 148 134s148 -46 148 -134v-150c0 -88 -52 -134 -148 -134zM183 65c39 0 57 20 57 62v141c0 41 -18 61 -57 61c-38 0 -57 -20 -57 -61v-141c0 -42 19 -62 57 -62z" />
    <glyph glyph-name="one.dnom" 
d="M71 0v77h89v212c-33 -12 -69 -14 -101 -15v69c54 2 86 16 108 51h84v-317h90v-77h-270z" />
    <glyph glyph-name="two.dnom" 
d="M36 0v44c0 76 36 125 125 164c57 25 77 46 77 76c0 28 -19 45 -54 45c-38 0 -56 -21 -56 -58v-7h-85v17c0 80 51 125 144 125c91 0 142 -44 142 -119c0 -65 -36 -108 -124 -147c-53 -24 -73 -38 -78 -61h202v-79h-293z" />
    <glyph glyph-name="three.dnom" 
d="M185 -12c-97 0 -149 39 -149 115v18h86v-7c0 -31 21 -49 62 -49c39 0 59 16 59 49c0 34 -21 48 -65 48h-44v74h41c40 0 60 15 60 46s-20 47 -53 47c-35 0 -55 -17 -55 -47v-6h-85v11c0 78 50 119 143 119c89 0 140 -38 140 -115c0 -42 -16 -70 -50 -85v-2
c41 -15 59 -46 59 -94c0 -82 -52 -122 -149 -122z" />
    <glyph glyph-name="four.dnom" 
d="M213 0v83h-189v79l183 232h96v-238h43v-73h-43v-83h-90zM109 156h104v137z" />
    <glyph glyph-name="five.dnom" 
d="M182 -12c-95 0 -146 41 -146 118h87c1 -25 23 -41 59 -41c41 0 61 19 61 58c0 38 -20 58 -59 58c-23 0 -46 -7 -59 -21h-76l13 234h252v-79h-180l-4 -82c21 14 48 22 81 22c79 0 123 -47 123 -130c0 -91 -52 -137 -152 -137z" />
    <glyph glyph-name="six.dnom" 
d="M187 -12c-96 0 -149 47 -149 134v146c0 91 53 138 151 138c97 0 141 -46 142 -116h-87c-1 23 -19 39 -54 39c-42 0 -61 -21 -61 -65v-41c22 21 50 31 86 31c77 0 120 -46 120 -128c0 -91 -50 -138 -148 -138zM188 65c38 0 56 19 56 60c0 38 -16 56 -52 56
c-29 0 -50 -12 -63 -38v-16c0 -41 20 -62 59 -62z" />
    <glyph glyph-name="seven.dnom" 
d="M86 0c6 130 58 237 152 314h-207v80h303v-84c-102 -90 -146 -183 -152 -310h-96z" />
    <glyph glyph-name="eight.dnom" 
d="M184 -12c-105 0 -157 39 -157 117c0 50 21 83 62 99v2c-35 15 -52 44 -52 86c0 74 51 114 146 114s146 -40 146 -114c0 -43 -17 -71 -52 -86v-2c41 -16 62 -50 62 -99c0 -78 -51 -117 -155 -117zM183 237c38 0 57 16 57 47s-19 45 -57 45s-58 -14 -58 -45s20 -47 58 -47z
M183 65c43 0 65 15 65 48s-22 49 -65 49c-44 0 -66 -16 -66 -49s22 -48 66 -48z" />
    <glyph glyph-name="nine.dnom" 
d="M177 -12c-97 0 -141 46 -142 116h87c1 -23 19 -39 54 -39c42 0 61 21 61 65v41c-22 -21 -50 -31 -86 -31c-77 0 -120 46 -120 128c0 91 50 138 148 138c96 0 149 -47 149 -134v-146c0 -91 -53 -138 -151 -138zM174 213c29 0 50 12 63 38v16c0 41 -20 62 -59 62
c-38 0 -56 -19 -56 -60c0 -38 16 -56 52 -56z" />
    <glyph glyph-name="exclamdown.case" horiz-adv-x="301" 
d="M85 550v130h130v-130h-130zM88 0l3 188l16 278h87l17 -278l3 -188h-126z" />
    <glyph glyph-name="questiondown.case" horiz-adv-x="453" 
d="M182 550v130h130v-130h-130zM229 -12c-132 0 -207 65 -207 179c0 69 26 114 95 161c57 39 77 69 77 118v20h104v-24c0 -78 -26 -127 -93 -175c-48 -35 -64 -57 -64 -96c0 -52 33 -80 89 -80c62 0 95 35 95 103h114c0 -135 -72 -206 -210 -206z" />
    <glyph glyph-name="at.case" horiz-adv-x="755" 
d="M410 -21c-231 0 -378 141 -378 359c0 216 145 363 364 363c208 0 344 -133 344 -326c0 -134 -65 -210 -170 -210c-52 0 -89 18 -108 59c-27 -39 -64 -59 -114 -59c-78 0 -119 49 -119 135v72c0 88 41 135 119 135c47 0 83 -17 110 -52l4 40h79v-199c0 -33 11 -50 37 -50
c42 0 66 43 66 121c0 155 -94 248 -246 248c-166 0 -266 -111 -266 -274c0 -169 108 -276 278 -276c69 0 131 18 181 50l33 -82c-54 -34 -126 -54 -214 -54zM375 247c27 0 50 13 66 47v85c-14 32 -39 46 -67 46c-32 0 -46 -18 -46 -56v-67c0 -36 14 -55 47 -55z" />
    <glyph glyph-name="parenleft.case" horiz-adv-x="341" 
d="M323 -96c-168 44 -263 202 -263 436s95 392 263 436v-92c-100 -48 -150 -162 -150 -344s50 -296 150 -344v-92z" />
    <glyph glyph-name="parenright.case" horiz-adv-x="341" 
d="M18 -96v92c100 48 150 162 150 344s-50 296 -150 344v92c168 -44 263 -202 263 -436s-95 -392 -263 -436z" />
    <glyph glyph-name="braceleft.case" horiz-adv-x="341" 
d="M253 -84c-108 0 -155 49 -155 176v131c0 57 -19 73 -73 73v88c54 0 73 16 73 73v131c0 127 47 176 155 176h70v-89h-42c-56 0 -71 -21 -71 -88v-124c0 -68 -22 -109 -71 -122v-2c49 -14 71 -54 71 -122v-124c0 -67 15 -88 71 -88h42v-89h-70z" />
    <glyph glyph-name="braceright.case" horiz-adv-x="341" 
d="M18 -84v89h43c55 0 70 21 70 88v124c0 68 23 108 71 122v2c-48 13 -71 54 -71 122v124c0 67 -15 88 -70 88h-43v89h70c108 0 156 -49 156 -176v-131c0 -57 18 -73 72 -73v-88c-54 0 -72 -16 -72 -73v-131c0 -127 -48 -176 -156 -176h-70z" />
    <glyph glyph-name="bracketleft.case" horiz-adv-x="341" 
d="M81 -84v848h242v-89h-129v-670h129v-89h-242z" />
    <glyph glyph-name="bracketright.case" horiz-adv-x="341" 
d="M18 -84v89h129v670h-129v89h242v-848h-242z" />
    <glyph glyph-name="bar.case" horiz-adv-x="290" 
d="M95 -160v1000h99v-1000h-99z" />
    <glyph glyph-name="brokenbar.case" horiz-adv-x="290" 
d="M95 440v400h99v-400h-99zM95 -160v400h99v-400h-99z" />
    <glyph glyph-name="periodcentered.case" horiz-adv-x="286" 
d="M78 274v130h130v-130h-130z" />
    <glyph glyph-name="bullet.case" horiz-adv-x="500" 
d="M132 219v240h236v-240h-236z" />
    <glyph glyph-name="hyphen.case" horiz-adv-x="377" 
d="M33 285v109h310v-109h-310z" />
    <glyph glyph-name="uni00AD.case" horiz-adv-x="377" 
d="M33 285v109h310v-109h-310z" />
    <glyph glyph-name="figuredash.case" horiz-adv-x="599" 
d="M30 291v97h539v-97h-539z" />
    <glyph glyph-name="endash.case" horiz-adv-x="500" 
d="M30 291v97h440v-97h-440z" />
    <glyph glyph-name="emdash.case" horiz-adv-x="900" 
d="M30 291v97h840v-97h-840z" />
    <glyph glyph-name="guillemotleft.case" horiz-adv-x="522" 
d="M152 161l-135 178l135 179h124l-136 -179l136 -178h-124zM381 161l-135 178l135 179h124l-136 -179l136 -178h-124z" />
    <glyph glyph-name="guillemotright.case" horiz-adv-x="522" 
d="M17 161l135 179l-135 178h123l136 -178l-136 -179h-123zM246 161l135 179l-135 178h123l136 -178l-136 -179h-123z" />
    <glyph glyph-name="guilsinglleft.case" horiz-adv-x="293" 
d="M152 161l-135 178l135 179h124l-136 -179l136 -178h-124z" />
    <glyph glyph-name="guilsinglright.case" horiz-adv-x="293" 
d="M17 161l135 179l-135 178h123l136 -178l-136 -179h-123z" />
    <glyph glyph-name="caron.alt" horiz-adv-x="169" 
d="M16 515l40 215h118l-77 -215h-81z" />
    <glyph glyph-name="ringacute" horiz-adv-x="500" 
d="M165 812l112 136h136l-137 -136h-111zM250 563c-67 0 -116 45 -116 110c0 64 49 111 116 111c66 0 115 -47 115 -111c0 -65 -49 -110 -115 -110zM250 629c24 0 41 17 41 44c0 26 -17 43 -41 43s-40 -17 -40 -43c0 -27 16 -44 40 -44z" />
    <glyph glyph-name="NULL" horiz-adv-x="0" 
 />
    <glyph glyph-name="CR" unicode="&#xd;" horiz-adv-x="251" 
 />
    </font>
</defs>
</svg>
