<?xml version="1.0" standalone="no"?>
<!DOCTYPE svg PUBLIC "-//W3C//DTD SVG 1.1//EN" "http://www.w3.org/Graphics/SVG/1.1/DTD/svg11.dtd" >
<svg xmlns="http://www.w3.org/2000/svg" xmlns:xlink="http://www.w3.org/1999/xlink" version="1.1">
<metadata>
Created by FontForge 20190801 at Fri Feb  5 15:50:45 2016
 By Jimmy Wärting
Copyright \(c\) 2014-2015 by Ryoichi Tsunekawa. All rights reserved.
</metadata>
<defs>
<font id="BioSans-Light" horiz-adv-x="601" >
  <font-face 
    font-family="Bio Sans Light"
    font-weight="300"
    font-stretch="normal"
    units-per-em="1000"
    panose-1="2 11 4 6 2 2 2 4 2 4"
    ascent="800"
    descent="-200"
    x-height="512"
    cap-height="680"
    bbox="-160 -226 1066 1068"
    underline-thickness="36"
    underline-position="-100"
    stemh="49"
    stemv="56"
    unicode-range="U+000D-FB02"
  />
<missing-glyph horiz-adv-x="694" 
d="M98 0v680h499v-680h-499zM347 378l178 261h-356zM141 79l179 261l-179 261v-522zM554 79v522l-179 -261zM169 41h356l-178 261z" />
    <glyph glyph-name="fi" unicode="fi" horiz-adv-x="568" 
d="M115 0v466h-101v46h101v66c0 102 44 152 133 152h75v-48h-66c-61 0 -86 -30 -86 -103v-67h149v-46h-149v-466h-56zM419 618v83h62v-83h-62zM422 0v512h56v-512h-56z" />
    <glyph glyph-name="fl" unicode="fl" horiz-adv-x="568" 
d="M115 0v466h-101v46h101v66c0 102 44 152 133 152h75v-48h-66c-61 0 -86 -30 -86 -103v-67h149v-46h-149v-466h-56zM422 0v730h56v-730h-56z" />
    <glyph glyph-name=".notdef" horiz-adv-x="694" 
d="M98 0v680h499v-680h-499zM347 378l178 261h-356zM141 79l179 261l-179 261v-522zM554 79v522l-179 -261zM169 41h356l-178 261z" />
    <glyph glyph-name="space" unicode=" " horiz-adv-x="270" 
 />
    <glyph glyph-name="exclam" unicode="!" horiz-adv-x="273" 
d="M116 204l-8 316l-1 160h58l-1 -160l-8 -316h-40zM102 0v89h68v-89h-68z" />
    <glyph glyph-name="quotedbl" unicode="&#x22;" horiz-adv-x="365" 
d="M78 475l-10 205h64l-10 -205h-44zM244 475l-10 205h64l-10 -205h-44z" />
    <glyph glyph-name="numbersign" unicode="#" 
d="M117 0l23 185h-99v47h105l29 226h-99v47h105l22 175h52l-22 -175h177l22 175h52l-22 -175h97v-47h-103l-29 -226h97v-47h-103l-23 -185h-52l23 185h-177l-23 -185h-52zM198 232h177l29 226h-177z" />
    <glyph glyph-name="dollar" unicode="$" 
d="M278 -72v72c-139 6 -213 68 -213 183h52c0 -82 54 -127 161 -132v271c-147 23 -202 71 -202 175c0 112 70 176 202 182v73h49v-73c124 -7 190 -68 190 -177h-52c0 77 -47 120 -138 127v-261c148 -23 204 -73 204 -182c0 -116 -69 -178 -204 -185v-73h-49zM278 376v253
c-99 -5 -147 -49 -147 -125c0 -71 40 -108 147 -128zM327 51c101 6 149 49 149 128c0 75 -40 113 -149 134v-262z" />
    <glyph glyph-name="percent" unicode="%" horiz-adv-x="766" 
d="M185 318c-92 0 -142 47 -142 135v103c0 88 50 136 142 136s142 -48 142 -136v-103c0 -88 -50 -135 -142 -135zM155 -12l404 704h52l-404 -704h-52zM185 362c62 0 93 31 93 95v97c0 63 -31 94 -93 94s-93 -31 -93 -94v-97c0 -64 31 -95 93 -95zM581 -12
c-92 0 -142 48 -142 136v103c0 88 50 135 142 135s142 -47 142 -135v-103c0 -88 -50 -136 -142 -136zM581 32c62 0 93 31 93 95v97c0 63 -31 94 -93 94s-93 -31 -93 -94v-97c0 -64 31 -95 93 -95z" />
    <glyph glyph-name="ampersand" unicode="&#x26;" horiz-adv-x="658" 
d="M276 -12c-139 0 -224 70 -224 182c0 84 43 143 150 201c-54 60 -75 103 -75 157c0 99 70 164 177 164c101 0 165 -57 165 -142c0 -78 -48 -129 -179 -190l193 -198c22 44 35 99 39 165h56c-5 -83 -24 -152 -55 -206l118 -121h-76l-74 76c-52 -58 -124 -88 -215 -88z
M254 397c119 53 161 93 161 152c0 55 -43 94 -112 94c-73 0 -121 -42 -121 -114c0 -45 19 -77 72 -132zM278 38c74 0 133 26 175 77l-216 219c-93 -50 -129 -96 -129 -160c0 -84 65 -136 170 -136z" />
    <glyph glyph-name="quotesingle" unicode="'" horiz-adv-x="200" 
d="M78 475l-10 205h64l-10 -205h-44z" />
    <glyph glyph-name="parenleft" unicode="(" horiz-adv-x="327" 
d="M306 -130c-147 55 -232 213 -232 436s85 381 232 436v-46c-115 -56 -178 -195 -178 -390s63 -334 178 -390v-46z" />
    <glyph glyph-name="parenright" unicode=")" horiz-adv-x="327" 
d="M21 -130v46c115 56 178 195 178 390s-63 334 -178 390v46c147 -55 232 -213 232 -436s-85 -381 -232 -436z" />
    <glyph glyph-name="asterisk" unicode="*" horiz-adv-x="395" 
d="M105 314l-39 28l101 134l-158 45l15 48l155 -56l-5 167h47l-5 -167l155 56l15 -48l-158 -45l101 -134l-39 -28l-92 140z" />
    <glyph glyph-name="plus" unicode="+" 
d="M275 56v227h-218v50h218v228h52v-228h217v-50h-217v-227h-52z" />
    <glyph glyph-name="comma" unicode="," horiz-adv-x="256" 
d="M81 -120v38c23 3 39 21 39 64v18h-26v89h69v-93c0 -72 -27 -112 -82 -116z" />
    <glyph glyph-name="hyphen" unicode="-" horiz-adv-x="362" 
d="M35 264v54h293v-54h-293z" />
    <glyph glyph-name="period" unicode="." horiz-adv-x="256" 
d="M94 0v89h68v-89h-68z" />
    <glyph glyph-name="slash" unicode="/" horiz-adv-x="431" 
d="M10 -140l357 870h55l-357 -870h-55z" />
    <glyph glyph-name="zero" unicode="0" 
d="M301 -12c-150 0 -230 79 -230 224v256c0 145 80 224 230 224c149 0 229 -79 229 -224v-256c0 -145 -80 -224 -229 -224zM301 39c115 0 173 60 173 178v246c0 118 -58 178 -173 178c-116 0 -174 -60 -174 -178v-246c0 -118 58 -178 174 -178z" />
    <glyph glyph-name="one" unicode="1" 
d="M138 0v53h172v552c-57 -40 -120 -55 -192 -60v49c82 5 144 32 194 86h54v-627h172v-53h-400z" />
    <glyph glyph-name="two" unicode="2" 
d="M71 0v38c0 124 61 199 223 274c132 61 179 111 179 192c0 85 -57 137 -166 137c-110 0 -171 -53 -171 -156v-11h-54v17c0 129 83 201 227 201s219 -73 219 -187c0 -104 -55 -168 -206 -237c-142 -65 -195 -122 -196 -215h402v-53h-457z" />
    <glyph glyph-name="three" unicode="3" 
d="M303 -12c-152 0 -235 68 -235 189v18h55v-11c0 -96 60 -145 180 -145c116 0 178 48 178 145c0 92 -56 140 -174 140h-79v51h81c100 0 155 45 155 130c0 87 -59 136 -163 136c-108 0 -169 -53 -169 -144v-7h-54v11c0 118 85 191 226 191c135 0 215 -68 215 -183
c0 -79 -37 -132 -107 -155v-1c84 -24 125 -81 125 -171c0 -129 -84 -194 -234 -194z" />
    <glyph glyph-name="four" unicode="4" 
d="M422 0v162h-374v55l366 463h64v-467h87v-51h-87v-162h-56zM110 213h312v397z" />
    <glyph glyph-name="five" unicode="5" 
d="M300 -12c-144 0 -229 68 -232 178h55c3 -79 68 -127 176 -127c120 0 187 59 187 176c0 119 -70 175 -177 175c-67 0 -123 -21 -169 -63h-49l22 353h398v-53h-348l-16 -242c46 37 103 56 171 56c141 0 224 -80 224 -225c0 -150 -89 -228 -242 -228z" />
    <glyph glyph-name="six" unicode="6" 
d="M310 -12c-148 0 -232 78 -232 227v248c0 149 84 229 236 229c133 0 210 -62 217 -172h-55c-7 80 -64 121 -161 121c-120 0 -181 -62 -181 -183v-123c46 64 114 93 198 93c133 0 209 -74 209 -215c0 -143 -79 -225 -231 -225zM310 39c116 0 175 60 175 172
c0 110 -56 166 -162 166c-89 0 -152 -40 -189 -125v-34c0 -119 60 -179 176 -179z" />
    <glyph glyph-name="seven" unicode="7" 
d="M181 0c10 239 111 451 293 626h-417v54h482v-57c-187 -176 -288 -381 -298 -623h-60z" />
    <glyph glyph-name="eight" unicode="8" 
d="M301 -12c-161 0 -248 68 -248 192c0 90 47 149 134 173v2c-74 23 -113 76 -113 153c0 116 85 184 227 184c143 0 227 -68 227 -184c0 -77 -39 -130 -114 -153v-1c88 -25 134 -84 134 -174c0 -124 -87 -192 -247 -192zM301 376c112 0 172 46 172 131
c0 86 -63 134 -172 134s-172 -48 -172 -134c0 -85 59 -131 172 -131zM301 39c126 0 191 50 191 143c0 94 -65 144 -191 144c-127 0 -192 -50 -192 -144c0 -93 65 -143 192 -143z" />
    <glyph glyph-name="nine" unicode="9" 
d="M288 -12c-134 0 -211 62 -217 172h54c7 -80 64 -121 162 -121c119 0 180 62 180 183v123c-46 -64 -113 -93 -197 -93c-133 0 -210 74 -210 215c0 143 79 225 231 225c148 0 232 -78 232 -227v-248c0 -149 -84 -229 -235 -229zM278 303c89 0 152 40 189 125v34
c0 119 -60 179 -176 179s-175 -60 -175 -172c0 -110 56 -166 162 -166z" />
    <glyph glyph-name="colon" unicode=":" horiz-adv-x="256" 
d="M94 384v89h68v-89h-68zM94 0v89h68v-89h-68z" />
    <glyph glyph-name="semicolon" unicode=";" horiz-adv-x="256" 
d="M94 384v89h68v-89h-68zM81 -120v38c23 3 39 21 39 64v18h-26v89h69v-93c0 -72 -27 -112 -82 -116z" />
    <glyph glyph-name="less" unicode="&#x3c;" 
d="M544 73l-487 210v49l487 210v-53l-420 -181l420 -182v-53z" />
    <glyph glyph-name="equal" unicode="=" 
d="M57 394v50h487v-50h-487zM57 172v50h487v-50h-487z" />
    <glyph glyph-name="greater" unicode="&#x3e;" 
d="M57 543l487 -210v-49l-487 -210v53l420 182l-420 181v53z" />
    <glyph glyph-name="question" unicode="?" horiz-adv-x="423" 
d="M169 204v27c0 78 27 124 94 167c59 38 79 69 79 123c0 78 -48 122 -134 122c-89 0 -138 -49 -138 -138h-54c0 119 70 187 193 187c119 0 188 -63 188 -171c0 -69 -25 -110 -93 -152c-65 -40 -87 -76 -87 -139v-26h-48zM159 0v89h68v-89h-68z" />
    <glyph glyph-name="at" unicode="@" horiz-adv-x="760" 
d="M411 -68c-226 0 -372 141 -372 356c0 213 144 360 359 360c206 0 340 -133 340 -327c0 -131 -61 -211 -156 -211c-49 0 -83 22 -95 72c-30 -47 -72 -72 -128 -72c-79 0 -124 51 -124 138v78c0 87 45 137 124 137c55 0 96 -23 126 -67l3 55h45v-222c0 -47 17 -71 55 -71
c59 0 97 58 97 159c0 172 -110 282 -286 282c-187 0 -305 -125 -305 -309c0 -189 124 -309 317 -309c79 0 143 20 192 52l20 -45c-50 -34 -123 -56 -212 -56zM369 158c45 0 80 23 109 78v102c-27 51 -62 78 -110 78c-51 0 -78 -32 -78 -95v-70c0 -61 27 -93 79 -93z" />
    <glyph glyph-name="A" unicode="A" 
d="M12 0l260 680h58l259 -680h-61l-73 192h-311l-73 -192h-59zM164 245h271l-135 364z" />
    <glyph glyph-name="B" unicode="B" horiz-adv-x="638" 
d="M99 0v680h260c141 0 209 -56 209 -174c0 -81 -32 -132 -100 -153v-2c85 -21 124 -74 124 -167c0 -125 -69 -184 -214 -184h-279zM156 373h205c103 0 150 38 150 126c0 89 -47 128 -156 128h-199v-254zM156 53h215c116 0 163 42 163 134c0 95 -51 133 -173 133h-205v-267z
" />
    <glyph glyph-name="C" unicode="C" horiz-adv-x="614" 
d="M318 -12c-164 0 -250 89 -250 263v178c0 174 85 263 250 263c152 0 236 -76 243 -221h-56c-7 112 -70 168 -187 168c-130 0 -193 -69 -193 -214v-170c0 -145 63 -214 193 -214c116 0 180 54 187 167h56c-7 -144 -91 -220 -243 -220z" />
    <glyph glyph-name="D" unicode="D" horiz-adv-x="647" 
d="M99 0v680h225c175 0 256 -82 256 -261v-158c0 -180 -81 -261 -256 -261h-225zM156 53h163c143 0 204 61 204 209v156c0 148 -61 209 -204 209h-163v-574z" />
    <glyph glyph-name="E" unicode="E" horiz-adv-x="582" 
d="M99 0v680h436v-53h-379v-251h329v-53h-329v-270h389v-53h-446z" />
    <glyph glyph-name="F" unicode="F" horiz-adv-x="545" 
d="M99 0v680h428v-53h-371v-251h321v-53h-321v-323h-57z" />
    <glyph glyph-name="G" unicode="G" horiz-adv-x="637" 
d="M325 -12c-165 0 -257 90 -257 257v190c0 162 92 257 254 257c147 0 237 -78 243 -217h-56c-6 104 -71 164 -188 164c-128 0 -196 -73 -196 -209v-180c0 -140 68 -209 201 -209c128 0 190 65 190 202v50h-166v53h222v-104c0 -166 -84 -254 -247 -254z" />
    <glyph glyph-name="H" unicode="H" horiz-adv-x="696" 
d="M99 0v680h57v-304h384v304h57v-680h-57v323h-384v-323h-57z" />
    <glyph glyph-name="I" unicode="I" horiz-adv-x="255" 
d="M99 0v680h57v-680h-57z" />
    <glyph glyph-name="J" unicode="J" horiz-adv-x="548" 
d="M241 -12c-152 0 -223 70 -223 222v14h55v-11c0 -121 50 -172 167 -172c122 0 171 55 171 190v449h57v-454c0 -163 -71 -238 -227 -238z" />
    <glyph glyph-name="K" unicode="K" horiz-adv-x="617" 
d="M99 0v680h57v-397l373 397h72l-259 -276l263 -404h-68l-235 361l-146 -153v-208h-57z" />
    <glyph glyph-name="L" unicode="L" horiz-adv-x="520" 
d="M99 0v680h57v-627h357v-53h-414z" />
    <glyph glyph-name="M" unicode="M" horiz-adv-x="861" 
d="M99 0v680h82l250 -591l250 591h81v-680h-57v600l-254 -600h-42l-254 600v-600h-56z" />
    <glyph glyph-name="N" unicode="N" horiz-adv-x="693" 
d="M99 0v680h70l369 -578v578h56v-680h-56l-383 600v-600h-56z" />
    <glyph glyph-name="O" unicode="O" horiz-adv-x="654" 
d="M327 -12c-169 0 -259 91 -259 264v176c0 173 90 264 259 264s259 -91 259 -264v-176c0 -173 -90 -264 -259 -264zM328 41c135 0 201 69 201 214v170c0 145 -66 214 -201 214c-136 0 -202 -69 -202 -214v-170c0 -145 66 -214 202 -214z" />
    <glyph glyph-name="P" unicode="P" horiz-adv-x="599" 
d="M99 0v680h251c154 0 221 -62 221 -201s-67 -200 -221 -200h-194v-279h-57zM156 332h192c119 0 165 42 165 147c0 106 -46 148 -165 148h-192v-295z" />
    <glyph glyph-name="Q" unicode="Q" horiz-adv-x="653" 
d="M575 -62l-89 90c-41 -27 -94 -40 -159 -40c-169 0 -259 91 -259 264v176c0 173 90 264 259 264s259 -91 259 -264v-176c0 -80 -19 -143 -57 -187l86 -87zM328 41c49 0 89 9 120 28l-136 137l39 39l138 -140c27 35 40 85 40 150v170c0 145 -66 214 -201 214
c-136 0 -202 -69 -202 -214v-170c0 -145 66 -214 202 -214z" />
    <glyph glyph-name="R" unicode="R" horiz-adv-x="629" 
d="M99 0v680h255c150 0 213 -58 213 -195c0 -117 -47 -177 -156 -192l181 -293h-68l-178 290h-190v-290h-57zM156 343h194c117 0 159 39 159 142s-42 142 -159 142h-194v-284z" />
    <glyph glyph-name="S" unicode="S" horiz-adv-x="556" 
d="M281 -12c-157 0 -242 67 -242 192h57c0 -91 65 -139 187 -139c117 0 176 45 176 134s-51 127 -192 146c-156 21 -215 70 -215 181c0 123 82 190 231 190c146 0 222 -64 222 -187h-57c0 90 -54 134 -166 134c-113 0 -173 -45 -173 -130c0 -82 49 -118 181 -135
c165 -21 226 -75 226 -194c0 -127 -80 -192 -235 -192z" />
    <glyph glyph-name="T" unicode="T" horiz-adv-x="501" 
d="M222 0v627h-214v53h486v-53h-215v-627h-57z" />
    <glyph glyph-name="U" unicode="U" horiz-adv-x="643" 
d="M322 -12c-170 0 -242 70 -242 233v459h57v-458c0 -132 50 -181 186 -181c135 0 185 49 185 181v458h55v-459c0 -163 -72 -233 -241 -233z" />
    <glyph glyph-name="V" unicode="V" horiz-adv-x="577" 
d="M259 0l-247 680h61l217 -601l216 601h59l-246 -680h-60z" />
    <glyph glyph-name="W" unicode="W" horiz-adv-x="871" 
d="M205 0l-192 680h59l165 -590l170 590h58l171 -592l165 592h57l-192 -680h-60l-171 586l-171 -586h-59z" />
    <glyph glyph-name="X" unicode="X" horiz-adv-x="563" 
d="M18 0l226 350l-218 330h67l193 -292l187 292h65l-219 -338l226 -342h-67l-200 304l-195 -304h-65z" />
    <glyph glyph-name="Y" unicode="Y" horiz-adv-x="540" 
d="M241 0v299l-244 381h68l206 -322l206 322h65l-244 -381v-299h-57z" />
    <glyph glyph-name="Z" unicode="Z" horiz-adv-x="542" 
d="M32 0v48l398 579h-380v53h451v-48l-398 -579h407v-53h-478z" />
    <glyph glyph-name="bracketleft" unicode="[" horiz-adv-x="327" 
d="M99 -118v848h207v-44h-153v-760h153v-44h-207z" />
    <glyph glyph-name="backslash" unicode="\" horiz-adv-x="431" 
d="M367 -140l-357 870h55l357 -870h-55z" />
    <glyph glyph-name="bracketright" unicode="]" horiz-adv-x="327" 
d="M21 -118v44h154v760h-154v44h208v-848h-208z" />
    <glyph glyph-name="asciicircum" unicode="^" 
d="M30 333l247 347h48l247 -347h-60l-211 297l-211 -297h-60z" />
    <glyph glyph-name="underscore" unicode="_" horiz-adv-x="500" 
d="M0 -115v48h500v-48h-500z" />
    <glyph glyph-name="grave" unicode="`" horiz-adv-x="500" 
d="M249 597l-122 127h72l108 -127h-58z" />
    <glyph glyph-name="a" unicode="a" horiz-adv-x="542" 
d="M217 -12c-104 0 -167 54 -167 152c0 100 65 155 210 155h146v46c0 90 -46 134 -142 134c-89 0 -139 -38 -144 -112h-55c10 106 78 161 201 161c130 0 196 -62 196 -183v-341h-48l-2 85c-47 -64 -113 -97 -195 -97zM224 36c78 0 140 38 182 110v101h-143
c-111 0 -157 -33 -157 -105c0 -69 41 -106 118 -106z" />
    <glyph glyph-name="b" unicode="b" horiz-adv-x="582" 
d="M333 -12c-82 0 -147 38 -193 114l-2 -102h-48v730h56v-310c45 70 108 104 187 104c117 0 186 -75 186 -210v-115c0 -136 -69 -211 -186 -211zM327 37c87 0 136 58 136 165v108c0 107 -49 165 -136 165c-79 0 -140 -48 -181 -136v-165c41 -89 103 -137 181 -137z" />
    <glyph glyph-name="c" unicode="c" horiz-adv-x="514" 
d="M272 -12c-134 0 -209 76 -209 217v102c0 141 74 217 208 217c124 0 195 -65 200 -177h-54c-6 86 -55 128 -144 128c-103 0 -154 -56 -154 -171v-96c0 -115 51 -171 154 -171c89 0 138 42 144 128h54c-5 -110 -74 -177 -199 -177z" />
    <glyph glyph-name="d" unicode="d" horiz-adv-x="582" 
d="M249 -12c-117 0 -186 75 -186 211v115c0 135 69 210 186 210c79 0 142 -34 187 -104v310h56v-730h-48l-2 102c-46 -76 -111 -114 -193 -114zM255 37c79 0 140 48 181 137v165c-41 88 -102 136 -181 136c-87 0 -136 -58 -136 -165v-108c0 -107 49 -165 136 -165z" />
    <glyph glyph-name="e" unicode="e" horiz-adv-x="546" 
d="M280 -12c-140 0 -217 76 -217 217v102c0 141 75 217 212 217s211 -76 211 -217v-63h-367v-35c0 -116 52 -172 159 -172c92 0 144 42 150 113h54c-7 -105 -81 -162 -202 -162zM119 292h313v11c0 116 -51 172 -157 172s-156 -56 -156 -172v-11z" />
    <glyph glyph-name="f" unicode="f" horiz-adv-x="332" 
d="M115 0v466h-101v46h101v66c0 102 44 152 133 152h75v-48h-66c-61 0 -86 -30 -86 -103v-67h149v-46h-149v-466h-56z" />
    <glyph glyph-name="g" unicode="g" horiz-adv-x="582" 
d="M279 -194c-127 0 -197 53 -204 151h53c6 -69 59 -102 149 -102c110 0 159 48 159 152v107c-46 -69 -108 -104 -187 -104c-117 0 -186 75 -186 211v93c0 135 69 210 186 210c82 0 146 -37 193 -113l2 101h48v-505c0 -135 -71 -201 -213 -201zM255 60c79 0 140 47 181 136
v143c-41 88 -102 136 -181 136c-87 0 -136 -58 -136 -165v-85c0 -108 49 -165 136 -165z" />
    <glyph glyph-name="h" unicode="h" horiz-adv-x="566" 
d="M90 0v730h56v-308c43 69 102 102 178 102c106 0 160 -64 160 -185v-339h-56v333c0 94 -36 140 -113 140c-72 0 -128 -40 -169 -133v-340h-56z" />
    <glyph glyph-name="i" unicode="i" horiz-adv-x="236" 
d="M87 618v83h62v-83h-62zM90 0v512h56v-512h-56z" />
    <glyph glyph-name="j" unicode="j" horiz-adv-x="236" 
d="M87 618v83h62v-83h-62zM-3 -182v49h22c56 0 71 19 71 86v559h56v-558c0 -96 -34 -136 -117 -136h-32z" />
    <glyph glyph-name="k" unicode="k" horiz-adv-x="521" 
d="M90 0v730h56v-503l286 285h72l-210 -209l214 -303h-68l-186 263l-108 -106v-157h-56z" />
    <glyph glyph-name="l" unicode="l" horiz-adv-x="236" 
d="M90 0v730h56v-730h-56z" />
    <glyph glyph-name="m" unicode="m" horiz-adv-x="870" 
d="M90 0v512h48l2 -94c41 71 96 106 172 106c78 0 128 -37 146 -107c42 73 98 107 174 107c100 0 156 -61 156 -174v-350h-56v345c0 85 -37 128 -107 128s-119 -43 -159 -129v-344h-56v345c0 86 -37 128 -106 128c-70 0 -119 -42 -158 -130v-343h-56z" />
    <glyph glyph-name="n" unicode="n" horiz-adv-x="566" 
d="M90 0v512h48l2 -99c44 75 105 111 184 111c106 0 160 -64 160 -185v-339h-56v333c0 94 -36 140 -113 140c-72 0 -128 -40 -169 -133v-340h-56z" />
    <glyph glyph-name="o" unicode="o" horiz-adv-x="560" 
d="M280 -12c-141 0 -217 78 -217 221v94c0 143 76 221 217 221c140 0 217 -78 217 -221v-94c0 -143 -77 -221 -217 -221zM280 37c107 0 161 60 161 176v87c0 115 -54 175 -161 175s-161 -60 -161 -175v-87c0 -116 54 -176 161 -176z" />
    <glyph glyph-name="p" unicode="p" horiz-adv-x="582" 
d="M90 -182v694h48l2 -101c46 76 111 113 193 113c117 0 186 -75 186 -210v-115c0 -136 -69 -211 -186 -211c-79 0 -142 35 -187 105v-275h-56zM327 37c87 0 136 58 136 165v108c0 107 -49 165 -136 165c-79 0 -140 -48 -181 -136v-165c41 -89 102 -137 181 -137z" />
    <glyph glyph-name="q" unicode="q" horiz-adv-x="582" 
d="M436 -182v275c-45 -70 -108 -105 -187 -105c-117 0 -186 75 -186 211v115c0 135 69 210 186 210c82 0 146 -37 192 -112l3 100h48v-694h-56zM255 37c79 0 140 48 181 137v165c-41 88 -102 136 -181 136c-87 0 -136 -58 -136 -165v-108c0 -107 49 -165 136 -165z" />
    <glyph glyph-name="r" unicode="r" horiz-adv-x="346" 
d="M90 0v512h48l2 -105c29 79 81 115 159 115h33v-54h-27c-87 0 -137 -47 -159 -157v-311h-56z" />
    <glyph glyph-name="s" unicode="s" horiz-adv-x="496" 
d="M248 -12c-135 0 -206 54 -206 157h54c0 -71 50 -108 151 -108c97 0 147 35 147 99c0 62 -41 89 -156 101c-133 14 -183 52 -183 138c0 95 69 149 192 149s190 -53 190 -152h-55c0 67 -46 104 -134 104s-139 -36 -139 -97c0 -57 40 -81 149 -92c139 -14 191 -55 191 -147
c0 -99 -69 -152 -201 -152z" />
    <glyph glyph-name="t" unicode="t" horiz-adv-x="332" 
d="M241 0c-92 0 -131 45 -131 152v314h-96v46h97l5 140h50v-140h140v-46h-140v-314c0 -78 21 -103 86 -103h60v-49h-71z" />
    <glyph glyph-name="u" unicode="u" horiz-adv-x="571" 
d="M244 -12c-107 0 -162 64 -162 185v339h56v-333c0 -94 37 -140 115 -140c73 0 131 41 172 136v337h56v-512h-48l-2 101c-44 -76 -106 -113 -187 -113z" />
    <glyph glyph-name="v" unicode="v" horiz-adv-x="472" 
d="M205 0l-190 512h60l162 -447l162 447h58l-190 -512h-62z" />
    <glyph glyph-name="w" unicode="w" horiz-adv-x="772" 
d="M183 0l-168 512h59l141 -442l144 442h56l143 -442l141 442h57l-168 -512h-60l-142 433l-142 -433h-61z" />
    <glyph glyph-name="x" unicode="x" horiz-adv-x="484" 
d="M13 0l192 266l-182 246h68l157 -212l152 212h63l-183 -255l190 -257h-68l-166 224l-160 -224h-63z" />
    <glyph glyph-name="y" unicode="y" horiz-adv-x="461" 
d="M57 -182v49h34c47 0 65 15 85 69l32 87l-193 489h60l163 -419l151 419h57l-216 -584c-31 -84 -63 -110 -134 -110h-39z" />
    <glyph glyph-name="z" unicode="z" horiz-adv-x="455" 
d="M32 0v42l314 422h-293v48h363v-42l-313 -421h318v-49h-389z" />
    <glyph glyph-name="braceleft" unicode="{" horiz-adv-x="327" 
d="M259 -118c-95 0 -139 47 -139 158v166c0 60 -20 78 -85 78v44c65 0 85 18 85 78v166c0 111 44 158 139 158h47v-44h-39c-66 0 -93 -32 -93 -112v-162c0 -60 -18 -95 -60 -105v-2c42 -11 60 -45 60 -105v-162c0 -80 27 -112 93 -112h39v-44h-47z" />
    <glyph glyph-name="bar" unicode="|" horiz-adv-x="279" 
d="M114 -226v1000h52v-1000h-52z" />
    <glyph glyph-name="braceright" unicode="}" horiz-adv-x="327" 
d="M21 -118v44h38c66 0 94 32 94 112v162c0 60 18 94 59 105v2c-41 10 -59 45 -59 105v162c0 80 -28 112 -94 112h-38v44h46c95 0 139 -47 139 -158v-166c0 -60 21 -78 86 -78v-44c-65 0 -86 -18 -86 -78v-166c0 -111 -44 -158 -139 -158h-46z" />
    <glyph glyph-name="asciitilde" unicode="~" 
d="M411 235c-45 0 -78 14 -123 53c-40 35 -65 45 -99 45c-51 0 -81 -31 -86 -90h-45c5 89 53 139 133 139c45 0 77 -14 123 -53c41 -34 65 -45 99 -45c51 0 80 31 86 90h45c-5 -89 -53 -139 -133 -139z" />
    <glyph glyph-name="uni00A0" unicode="&#xa0;" horiz-adv-x="270" 
 />
    <glyph glyph-name="exclamdown" unicode="&#xa1;" horiz-adv-x="273" 
d="M102 423v89h68v-89h-68zM107 -168l1 160l8 316h40l8 -316l1 -160h-58z" />
    <glyph glyph-name="cent" unicode="&#xa2;" 
d="M286 -72v73c-124 7 -190 78 -190 206v98c0 129 64 199 190 206v73h49v-73c113 -8 174 -69 179 -169h-54c-5 74 -46 113 -125 120v-412c81 7 120 47 125 120h54c-5 -101 -66 -161 -179 -169v-73h-49zM286 50v412c-93 -7 -134 -57 -134 -160v-92c0 -102 41 -153 134 -160z
" />
    <glyph glyph-name="sterling" unicode="&#xa3;" 
d="M85 0v49c62 40 90 87 90 165c0 29 -3 53 -12 81h-99v51h81c-22 48 -39 95 -39 152c0 128 78 194 217 194c138 0 215 -66 215 -188h-54c0 89 -54 137 -163 137c-105 0 -160 -45 -160 -144c0 -44 9 -75 40 -151h274v-51h-258c7 -27 10 -51 10 -78c0 -72 -22 -126 -70 -164
h372v-53h-444z" />
    <glyph glyph-name="currency" unicode="&#xa4;" 
d="M83 86l-38 37l121 123c-18 26 -29 59 -29 94s11 68 29 94l-121 123l38 37l120 -122c27 20 60 31 97 31s70 -12 97 -31l121 122l38 -37l-122 -123c18 -26 29 -59 29 -94s-11 -68 -29 -94l122 -123l-38 -37l-121 122c-27 -19 -60 -31 -97 -31s-70 11 -97 31zM301 228
c63 0 110 48 110 112s-47 112 -110 112c-64 0 -111 -48 -111 -112s47 -112 111 -112z" />
    <glyph glyph-name="yen" unicode="&#xa5;" 
d="M272 0v140h-196v46h196v95h-196v46h190l-230 353h66l199 -309l200 309h64l-230 -353h190v-46h-197v-95h197v-46h-197v-140h-56z" />
    <glyph glyph-name="brokenbar" unicode="&#xa6;" horiz-adv-x="279" 
d="M114 374v400h52v-400h-52zM114 -226v400h52v-400h-52z" />
    <glyph glyph-name="section" unicode="&#xa7;" horiz-adv-x="584" 
d="M288 -196c-141 0 -219 60 -219 173h54c0 -82 57 -124 165 -124s163 42 163 113c0 69 -49 103 -184 128c-153 28 -210 74 -210 165c0 68 37 115 100 143v2c-54 28 -76 67 -76 125c0 104 75 163 205 163c131 0 206 -60 206 -167h-55c0 77 -52 118 -150 118
c-97 0 -151 -40 -151 -109c0 -67 48 -101 180 -125c154 -28 211 -74 211 -165c0 -70 -37 -114 -99 -141v-2c55 -29 77 -69 77 -130c0 -107 -75 -167 -217 -167zM374 125c61 17 99 53 99 110c0 68 -45 101 -180 126c-31 6 -59 12 -82 19c-61 -18 -99 -56 -99 -113
c0 -67 45 -99 177 -122c32 -6 61 -12 85 -20z" />
    <glyph glyph-name="dieresis" unicode="&#xa8;" horiz-adv-x="500" 
d="M134 620v79h64v-79h-64zM302 620v79h64v-79h-64z" />
    <glyph glyph-name="copyright" unicode="&#xa9;" horiz-adv-x="779" 
d="M389 -12c-203 0 -352 149 -352 352s149 352 352 352s352 -149 352 -352s-149 -352 -352 -352zM389 34c180 0 302 126 302 306s-122 306 -302 306c-179 0 -301 -126 -301 -306s122 -306 301 -306zM388 150c-94 0 -142 48 -142 143v93c0 96 48 144 142 144
c88 0 138 -41 141 -124h-50c-3 54 -32 80 -89 80c-63 0 -92 -32 -92 -102v-87c0 -71 29 -103 92 -103c57 0 86 26 89 80h50c-3 -83 -53 -124 -141 -124z" />
    <glyph glyph-name="ordfeminine" unicode="&#xaa;" horiz-adv-x="425" 
d="M162 315c-78 0 -122 40 -122 107c0 73 50 111 138 111h122v33c0 55 -32 82 -98 82c-61 0 -97 -24 -103 -69h-46c6 73 58 113 151 113c97 0 146 -44 146 -127v-238h-43l-3 56c-37 -47 -85 -68 -142 -68zM170 358c56 0 100 25 130 75v61h-114c-63 0 -96 -21 -96 -70
c0 -44 27 -66 80 -66zM46 182v44h305v-44h-305z" />
    <glyph glyph-name="guillemotleft" unicode="&#xab;" horiz-adv-x="454" 
d="M171 82l-145 174l145 174h63l-145 -174l145 -174h-63zM366 82l-145 174l145 174h63l-145 -174l145 -174h-63z" />
    <glyph glyph-name="logicalnot" unicode="&#xac;" 
d="M492 126v228h-435v49h487v-277h-52z" />
    <glyph glyph-name="uni00AD" unicode="&#xad;" horiz-adv-x="362" 
d="M35 264v54h293v-54h-293z" />
    <glyph glyph-name="registered" unicode="&#xae;" horiz-adv-x="779" 
d="M389 -12c-203 0 -352 149 -352 352s149 352 352 352s352 -149 352 -352s-149 -352 -352 -352zM389 34c180 0 302 126 302 306s-122 306 -302 306c-179 0 -301 -126 -301 -306s122 -306 301 -306zM255 160v360h151c87 0 126 -32 126 -107c0 -60 -25 -93 -78 -104l99 -149
h-59l-95 145h-92v-145h-52zM307 348h93c58 0 81 19 81 64c0 46 -23 64 -81 64h-93v-128z" />
    <glyph glyph-name="macron" unicode="&#xaf;" horiz-adv-x="500" 
d="M143 638v45h214v-45h-214z" />
    <glyph glyph-name="degree" unicode="&#xb0;" horiz-adv-x="363" 
d="M182 414c-86 0 -150 64 -150 150s64 150 150 150s150 -64 150 -150s-64 -150 -150 -150zM181 460c59 0 101 44 101 104s-42 104 -101 104s-101 -44 -101 -104s42 -104 101 -104z" />
    <glyph glyph-name="plusminus" unicode="&#xb1;" 
d="M275 99v214h-218v50h218v219h52v-219h217v-50h-217v-214h-52zM57 0v50h487v-50h-487z" />
    <glyph glyph-name="uni00B2" unicode="&#xb2;" horiz-adv-x="366" 
d="M45 416v29c0 74 36 119 130 162c71 32 97 59 97 101c0 43 -30 70 -85 70c-57 0 -88 -29 -88 -81v-6h-47v12c0 76 49 119 137 119c85 0 132 -42 132 -113c0 -61 -34 -100 -121 -140c-77 -35 -104 -63 -106 -108h227v-45h-276z" />
    <glyph glyph-name="uni00B3" unicode="&#xb3;" horiz-adv-x="366" 
d="M186 404c-93 0 -143 39 -143 111v12h47v-6c0 -48 33 -73 96 -73c61 0 93 24 93 75c0 50 -31 73 -93 73h-47v44h47c54 0 83 22 83 68s-31 70 -85 70c-56 0 -88 -26 -88 -72v-4h-47v7c0 71 52 113 137 113c82 0 131 -40 131 -111c0 -45 -20 -76 -59 -89v-1
c48 -14 70 -48 70 -100c0 -79 -50 -117 -142 -117z" />
    <glyph glyph-name="acute" unicode="&#xb4;" horiz-adv-x="500" 
d="M193 597l108 127h72l-122 -127h-58z" />
    <glyph glyph-name="uni00B5" unicode="&#xb5;" horiz-adv-x="578" 
d="M90 -182v694h56v-333c0 -94 36 -140 113 -140c74 0 130 41 173 136v337h56v-512h-48l-2 103c-45 -78 -108 -115 -185 -115c-46 0 -82 13 -107 38v-208h-56z" />
    <glyph glyph-name="paragraph" unicode="&#xb6;" horiz-adv-x="584" 
d="M475 680v-863h-56v814h-131v-814h-56v476h-4c-138 0 -200 60 -200 193c0 134 62 194 200 194h247z" />
    <glyph glyph-name="periodcentered" unicode="&#xb7;" horiz-adv-x="256" 
d="M94 246v89h68v-89h-68z" />
    <glyph glyph-name="cedilla" unicode="&#xb8;" horiz-adv-x="500" 
d="M231 -198c-36 0 -66 6 -90 19l14 34c19 -12 39 -18 68 -18c39 0 56 12 56 35c0 21 -13 29 -59 29h-26l42 114h38l-31 -83h2c60 0 88 -20 88 -62c0 -43 -30 -68 -102 -68z" />
    <glyph glyph-name="uni00B9" unicode="&#xb9;" horiz-adv-x="366" 
d="M89 416v44h94v289c-33 -19 -68 -27 -106 -28v39c49 3 82 18 109 50h46v-350h96v-44h-239z" />
    <glyph glyph-name="ordmasculine" unicode="&#xba;" horiz-adv-x="419" 
d="M209 315c-102 0 -156 54 -156 156v65c0 101 54 156 156 156s156 -55 156 -156v-65c0 -102 -54 -156 -156 -156zM210 358c71 0 106 38 106 115v61c0 77 -35 114 -106 114s-106 -37 -106 -114v-61c0 -77 35 -115 106 -115zM57 182v44h305v-44h-305z" />
    <glyph glyph-name="guillemotright" unicode="&#xbb;" horiz-adv-x="454" 
d="M26 82l145 174l-145 174h63l145 -174l-145 -174h-63zM221 82l145 174l-145 174h63l145 -174l-145 -174h-63z" />
    <glyph glyph-name="onequarter" unicode="&#xbc;" horiz-adv-x="834" 
d="M247 -12l370 704h51l-369 -704h-52zM89 286v44h94v289c-33 -19 -68 -27 -106 -28v39c49 3 82 18 109 50h46v-350h96v-44h-239zM712 0v88h-214v46l211 260h53v-262h51v-44h-51v-88h-50zM552 132h160v200z" />
    <glyph glyph-name="onehalf" unicode="&#xbd;" horiz-adv-x="834" 
d="M206 -12l370 704h51l-369 -704h-52zM89 286v44h94v289c-33 -19 -68 -27 -106 -28v39c49 3 82 18 109 50h46v-350h96v-44h-239zM513 0v29c0 74 36 119 130 162c71 32 97 59 97 101c0 43 -30 70 -85 70c-57 0 -88 -29 -88 -81v-6h-47v12c0 76 49 119 137 119
c85 0 132 -42 132 -113c0 -61 -34 -100 -121 -140c-77 -35 -104 -63 -106 -108h227v-45h-276z" />
    <glyph glyph-name="threequarters" unicode="&#xbe;" horiz-adv-x="834" 
d="M186 274c-93 0 -143 39 -143 111v12h47v-6c0 -48 33 -73 96 -73c61 0 93 24 93 75c0 50 -31 73 -93 73h-47v44h47c54 0 83 22 83 68s-31 70 -85 70c-56 0 -88 -26 -88 -72v-4h-47v7c0 71 52 113 137 113c82 0 131 -40 131 -111c0 -45 -20 -76 -59 -89v-1
c48 -14 70 -48 70 -100c0 -79 -50 -117 -142 -117zM247 -12l370 704h51l-369 -704h-52zM712 0v88h-214v46l211 260h53v-262h51v-44h-51v-88h-50zM552 132h160v200z" />
    <glyph glyph-name="questiondown" unicode="&#xbf;" horiz-adv-x="423" 
d="M196 423v89h68v-89h-68zM214 -180c-119 0 -188 63 -188 171c0 69 25 111 95 154c63 39 85 74 85 137v26h48v-27c0 -77 -27 -124 -94 -167c-59 -38 -79 -69 -79 -123c0 -78 48 -121 134 -121c89 0 138 48 138 137h54c0 -119 -70 -187 -193 -187z" />
    <glyph glyph-name="Agrave" unicode="&#xc0;" 
d="M300 754l-122 127h72l108 -127h-58zM12 0l260 680h58l259 -680h-61l-73 192h-311l-73 -192h-59zM164 245h271l-135 364z" />
    <glyph glyph-name="Aacute" unicode="&#xc1;" 
d="M244 754l108 127h72l-122 -127h-58zM12 0l260 680h58l259 -680h-61l-73 192h-311l-73 -192h-59zM164 245h271l-135 364z" />
    <glyph glyph-name="Acircumflex" unicode="&#xc2;" 
d="M165 754l108 127h55l109 -127h-58l-78 82l-78 -82h-58zM12 0l260 680h58l259 -680h-61l-73 192h-311l-73 -192h-59zM164 245h271l-135 364z" />
    <glyph glyph-name="Atilde" unicode="&#xc3;" 
d="M355 767c-23 0 -36 6 -65 29c-22 17 -31 22 -44 22c-22 0 -33 -16 -38 -52h-41c4 66 31 99 80 99c23 0 36 -7 65 -29c23 -17 31 -23 44 -23c22 0 34 16 38 52h41c-4 -65 -31 -98 -80 -98zM12 0l260 680h58l259 -680h-61l-73 192h-311l-73 -192h-59zM164 245h271l-135 364
z" />
    <glyph glyph-name="Adieresis" unicode="&#xc4;" 
d="M185 777v79h64v-79h-64zM353 777v79h64v-79h-64zM12 0l260 680h58l259 -680h-61l-73 192h-311l-73 -192h-59zM164 245h271l-135 364z" />
    <glyph glyph-name="Aring" unicode="&#xc5;" 
d="M301 742c-53 0 -92 38 -92 90s39 90 92 90s92 -38 92 -90s-39 -90 -92 -90zM301 782c28 0 48 20 48 50s-20 50 -48 50c-29 0 -49 -20 -49 -50s20 -50 49 -50zM12 0l260 680h58l259 -680h-61l-73 192h-311l-73 -192h-59zM164 245h271l-135 364z" />
    <glyph glyph-name="AE" unicode="&#xc6;" horiz-adv-x="896" 
d="M-3 0l419 680h433v-53h-353v-251h303v-53h-303v-270h363v-53h-420v192h-259l-119 -192h-64zM212 245h227v374z" />
    <glyph glyph-name="Ccedilla" unicode="&#xc7;" horiz-adv-x="614" 
d="M318 41c116 0 180 54 187 167h56c-7 -135 -81 -211 -217 -219l-21 -57h2c60 0 88 -20 88 -62c0 -43 -30 -68 -102 -68c-36 0 -66 6 -90 19l14 34c19 -12 39 -18 68 -18c39 0 56 12 56 35c0 21 -13 29 -59 29h-26l32 87c-156 4 -238 93 -238 263v178c0 174 85 263 250 263
c152 0 236 -76 243 -221h-56c-7 112 -70 168 -187 168c-130 0 -193 -69 -193 -214v-170c0 -145 63 -214 193 -214z" />
    <glyph glyph-name="Egrave" unicode="&#xc8;" horiz-adv-x="582" 
d="M316 754l-122 127h72l108 -127h-58zM99 0v680h436v-53h-379v-251h329v-53h-329v-270h389v-53h-446z" />
    <glyph glyph-name="Eacute" unicode="&#xc9;" horiz-adv-x="582" 
d="M260 754l108 127h72l-122 -127h-58zM99 0v680h436v-53h-379v-251h329v-53h-329v-270h389v-53h-446z" />
    <glyph glyph-name="Ecircumflex" unicode="&#xca;" horiz-adv-x="582" 
d="M181 754l108 127h55l109 -127h-58l-78 82l-78 -82h-58zM99 0v680h436v-53h-379v-251h329v-53h-329v-270h389v-53h-446z" />
    <glyph glyph-name="Edieresis" unicode="&#xcb;" horiz-adv-x="582" 
d="M201 777v79h64v-79h-64zM369 777v79h64v-79h-64zM99 0v680h436v-53h-379v-251h329v-53h-329v-270h389v-53h-446z" />
    <glyph glyph-name="Igrave" unicode="&#xcc;" horiz-adv-x="255" 
d="M127 754l-122 127h72l108 -127h-58zM99 0v680h57v-680h-57z" />
    <glyph glyph-name="Iacute" unicode="&#xcd;" horiz-adv-x="255" 
d="M71 754l108 127h72l-122 -127h-58zM99 0v680h57v-680h-57z" />
    <glyph glyph-name="Icircumflex" unicode="&#xce;" horiz-adv-x="255" 
d="M-3 754l103 127h56l103 -127h-57l-74 82l-74 -82h-57zM99 0v680h57v-680h-57z" />
    <glyph glyph-name="Idieresis" unicode="&#xcf;" horiz-adv-x="255" 
d="M27 777v79h64v-79h-64zM166 777v79h64v-79h-64zM99 0v680h57v-680h-57z" />
    <glyph glyph-name="Eth" unicode="&#xd0;" horiz-adv-x="657" 
d="M334 680c175 0 256 -82 256 -261v-158c0 -180 -81 -261 -256 -261h-225v323h-80v53h80v304h225zM533 262v156c0 148 -61 209 -204 209h-163v-251h181v-53h-181v-270h163c143 0 204 61 204 209z" />
    <glyph glyph-name="Ntilde" unicode="&#xd1;" horiz-adv-x="693" 
d="M400 767c-23 0 -36 6 -65 29c-22 17 -31 22 -44 22c-22 0 -33 -16 -38 -52h-41c4 66 31 99 80 99c23 0 36 -7 65 -29c23 -17 31 -23 44 -23c22 0 34 16 38 52h41c-4 -65 -31 -98 -80 -98zM99 0v680h70l369 -578v578h56v-680h-56l-383 600v-600h-56z" />
    <glyph glyph-name="Ograve" unicode="&#xd2;" horiz-adv-x="654" 
d="M326 754l-122 127h72l108 -127h-58zM327 -12c-169 0 -259 91 -259 264v176c0 173 90 264 259 264s259 -91 259 -264v-176c0 -173 -90 -264 -259 -264zM328 41c135 0 201 69 201 214v170c0 145 -66 214 -201 214c-136 0 -202 -69 -202 -214v-170c0 -145 66 -214 202 -214z
" />
    <glyph glyph-name="Oacute" unicode="&#xd3;" horiz-adv-x="654" 
d="M270 754l108 127h72l-122 -127h-58zM327 -12c-169 0 -259 91 -259 264v176c0 173 90 264 259 264s259 -91 259 -264v-176c0 -173 -90 -264 -259 -264zM328 41c135 0 201 69 201 214v170c0 145 -66 214 -201 214c-136 0 -202 -69 -202 -214v-170c0 -145 66 -214 202 -214z
" />
    <glyph glyph-name="Ocircumflex" unicode="&#xd4;" horiz-adv-x="654" 
d="M191 754l108 127h55l109 -127h-58l-78 82l-78 -82h-58zM327 -12c-169 0 -259 91 -259 264v176c0 173 90 264 259 264s259 -91 259 -264v-176c0 -173 -90 -264 -259 -264zM328 41c135 0 201 69 201 214v170c0 145 -66 214 -201 214c-136 0 -202 -69 -202 -214v-170
c0 -145 66 -214 202 -214z" />
    <glyph glyph-name="Otilde" unicode="&#xd5;" horiz-adv-x="654" 
d="M381 767c-23 0 -36 6 -65 29c-22 17 -31 22 -44 22c-22 0 -33 -16 -38 -52h-41c4 66 31 99 80 99c23 0 36 -7 65 -29c23 -17 31 -23 44 -23c22 0 34 16 38 52h41c-4 -65 -31 -98 -80 -98zM327 -12c-169 0 -259 91 -259 264v176c0 173 90 264 259 264s259 -91 259 -264
v-176c0 -173 -90 -264 -259 -264zM328 41c135 0 201 69 201 214v170c0 145 -66 214 -201 214c-136 0 -202 -69 -202 -214v-170c0 -145 66 -214 202 -214z" />
    <glyph glyph-name="Odieresis" unicode="&#xd6;" horiz-adv-x="654" 
d="M211 777v79h64v-79h-64zM379 777v79h64v-79h-64zM327 -12c-169 0 -259 91 -259 264v176c0 173 90 264 259 264s259 -91 259 -264v-176c0 -173 -90 -264 -259 -264zM328 41c135 0 201 69 201 214v170c0 145 -66 214 -201 214c-136 0 -202 -69 -202 -214v-170
c0 -145 66 -214 202 -214z" />
    <glyph glyph-name="multiply" unicode="&#xd7;" 
d="M535 509l-200 -200l200 -200l-34 -35l-200 200l-200 -200l-35 35l200 200l-200 200l35 35l200 -200l200 200z" />
    <glyph glyph-name="Oslash" unicode="&#xd8;" horiz-adv-x="654" 
d="M586 663l-45 -64c30 -42 45 -100 45 -171v-176c0 -173 -90 -264 -259 -264c-76 0 -136 18 -179 55l-39 -55l-41 29l45 64c-30 42 -45 100 -45 171v176c0 173 90 264 259 264c76 0 136 -18 179 -55l39 55zM126 255c0 -50 8 -91 23 -123l325 460c-33 31 -82 47 -146 47
c-136 0 -202 -69 -202 -214v-170zM529 425c0 50 -8 91 -24 124l-325 -460c34 -32 83 -48 148 -48c135 0 201 69 201 214v170z" />
    <glyph glyph-name="Ugrave" unicode="&#xd9;" horiz-adv-x="643" 
d="M321 754l-122 127h72l108 -127h-58zM322 -12c-170 0 -242 70 -242 233v459h57v-458c0 -132 50 -181 186 -181c135 0 185 49 185 181v458h55v-459c0 -163 -72 -233 -241 -233z" />
    <glyph glyph-name="Uacute" unicode="&#xda;" horiz-adv-x="643" 
d="M265 754l108 127h72l-122 -127h-58zM322 -12c-170 0 -242 70 -242 233v459h57v-458c0 -132 50 -181 186 -181c135 0 185 49 185 181v458h55v-459c0 -163 -72 -233 -241 -233z" />
    <glyph glyph-name="Ucircumflex" unicode="&#xdb;" horiz-adv-x="643" 
d="M186 754l108 127h55l109 -127h-58l-78 82l-78 -82h-58zM322 -12c-170 0 -242 70 -242 233v459h57v-458c0 -132 50 -181 186 -181c135 0 185 49 185 181v458h55v-459c0 -163 -72 -233 -241 -233z" />
    <glyph glyph-name="Udieresis" unicode="&#xdc;" horiz-adv-x="643" 
d="M206 777v79h64v-79h-64zM374 777v79h64v-79h-64zM322 -12c-170 0 -242 70 -242 233v459h57v-458c0 -132 50 -181 186 -181c135 0 185 49 185 181v458h55v-459c0 -163 -72 -233 -241 -233z" />
    <glyph glyph-name="Yacute" unicode="&#xdd;" horiz-adv-x="540" 
d="M213 754l108 127h72l-122 -127h-58zM241 0v299l-244 381h68l206 -322l206 322h65l-244 -381v-299h-57z" />
    <glyph glyph-name="Thorn" unicode="&#xde;" horiz-adv-x="599" 
d="M99 0v680h57v-111h194c154 0 221 -62 221 -201s-67 -200 -221 -200h-194v-168h-57zM156 220h192c119 0 165 43 165 148s-46 148 -165 148h-192v-296z" />
    <glyph glyph-name="germandbls" unicode="&#xdf;" horiz-adv-x="589" 
d="M115 0v466h-101v46h101v57c0 111 65 173 191 173c116 0 178 -52 178 -142c0 -49 -17 -83 -67 -129c-40 -36 -52 -57 -52 -88c0 -38 18 -56 80 -84c82 -37 112 -75 112 -145c0 -102 -69 -154 -200 -154h-54v49h53c96 0 145 33 145 101c0 48 -22 75 -90 104
c-75 32 -101 65 -101 125c0 49 16 80 67 127c38 35 52 59 52 94c0 59 -42 93 -122 93c-92 0 -136 -45 -136 -124v-569h-56z" />
    <glyph glyph-name="agrave" unicode="&#xe0;" horiz-adv-x="542" 
d="M261 597l-122 127h72l108 -127h-58zM217 -12c-104 0 -167 54 -167 152c0 100 65 155 210 155h146v46c0 90 -46 134 -142 134c-89 0 -139 -38 -144 -112h-55c10 106 78 161 201 161c130 0 196 -62 196 -183v-341h-48l-2 85c-47 -64 -113 -97 -195 -97zM224 36
c78 0 140 38 182 110v101h-143c-111 0 -157 -33 -157 -105c0 -69 41 -106 118 -106z" />
    <glyph glyph-name="aacute" unicode="&#xe1;" horiz-adv-x="542" 
d="M205 597l108 127h72l-122 -127h-58zM217 -12c-104 0 -167 54 -167 152c0 100 65 155 210 155h146v46c0 90 -46 134 -142 134c-89 0 -139 -38 -144 -112h-55c10 106 78 161 201 161c130 0 196 -62 196 -183v-341h-48l-2 85c-47 -64 -113 -97 -195 -97zM224 36
c78 0 140 38 182 110v101h-143c-111 0 -157 -33 -157 -105c0 -69 41 -106 118 -106z" />
    <glyph glyph-name="acircumflex" unicode="&#xe2;" horiz-adv-x="542" 
d="M126 597l108 127h55l109 -127h-58l-78 82l-78 -82h-58zM217 -12c-104 0 -167 54 -167 152c0 100 65 155 210 155h146v46c0 90 -46 134 -142 134c-89 0 -139 -38 -144 -112h-55c10 106 78 161 201 161c130 0 196 -62 196 -183v-341h-48l-2 85c-47 -64 -113 -97 -195 -97z
M224 36c78 0 140 38 182 110v101h-143c-111 0 -157 -33 -157 -105c0 -69 41 -106 118 -106z" />
    <glyph glyph-name="atilde" unicode="&#xe3;" horiz-adv-x="542" 
d="M316 610c-23 0 -36 6 -65 29c-22 17 -31 22 -44 22c-22 0 -33 -16 -38 -52h-41c4 66 31 99 80 99c23 0 36 -7 65 -29c23 -17 31 -23 44 -23c22 0 34 16 38 52h41c-4 -65 -31 -98 -80 -98zM217 -12c-104 0 -167 54 -167 152c0 100 65 155 210 155h146v46
c0 90 -46 134 -142 134c-89 0 -139 -38 -144 -112h-55c10 106 78 161 201 161c130 0 196 -62 196 -183v-341h-48l-2 85c-47 -64 -113 -97 -195 -97zM224 36c78 0 140 38 182 110v101h-143c-111 0 -157 -33 -157 -105c0 -69 41 -106 118 -106z" />
    <glyph glyph-name="adieresis" unicode="&#xe4;" horiz-adv-x="542" 
d="M146 620v79h64v-79h-64zM314 620v79h64v-79h-64zM217 -12c-104 0 -167 54 -167 152c0 100 65 155 210 155h146v46c0 90 -46 134 -142 134c-89 0 -139 -38 -144 -112h-55c10 106 78 161 201 161c130 0 196 -62 196 -183v-341h-48l-2 85c-47 -64 -113 -97 -195 -97zM224 36
c78 0 140 38 182 110v101h-143c-111 0 -157 -33 -157 -105c0 -69 41 -106 118 -106z" />
    <glyph glyph-name="aring" unicode="&#xe5;" horiz-adv-x="542" 
d="M262 585c-53 0 -92 38 -92 90s39 90 92 90s92 -38 92 -90s-39 -90 -92 -90zM262 625c28 0 48 20 48 50s-20 50 -48 50c-29 0 -49 -20 -49 -50s20 -50 49 -50zM217 -12c-104 0 -167 54 -167 152c0 100 65 155 210 155h146v46c0 90 -46 134 -142 134
c-89 0 -139 -38 -144 -112h-55c10 106 78 161 201 161c130 0 196 -62 196 -183v-341h-48l-2 85c-47 -64 -113 -97 -195 -97zM224 36c78 0 140 38 182 110v101h-143c-111 0 -157 -33 -157 -105c0 -69 41 -106 118 -106z" />
    <glyph glyph-name="ae" unicode="&#xe6;" horiz-adv-x="889" 
d="M220 -12c-106 0 -170 53 -170 151c0 100 67 156 209 156h147v46c0 90 -45 134 -142 134c-89 0 -138 -38 -144 -112h-55c10 106 79 161 198 161c96 0 154 -35 177 -103c29 68 89 103 181 103c134 0 208 -76 208 -217v-63h-367v-35c0 -116 53 -172 160 -172
c91 0 143 42 149 113h54c-7 -105 -80 -162 -203 -162c-98 0 -164 37 -195 107c-54 -75 -124 -107 -207 -107zM462 292h313v11c0 116 -51 172 -156 172c-106 0 -157 -56 -157 -172v-11zM226 36c79 0 139 37 184 117c-3 16 -4 34 -4 52v42h-143c-110 0 -157 -34 -157 -106
c0 -68 42 -105 120 -105z" />
    <glyph glyph-name="ccedilla" unicode="&#xe7;" horiz-adv-x="514" 
d="M273 37c89 0 138 42 144 128h54c-5 -102 -64 -167 -172 -176l-21 -57h2c60 0 88 -20 88 -62c0 -43 -30 -68 -102 -68c-36 0 -66 6 -90 19l14 34c19 -12 39 -18 68 -18c39 0 56 12 56 35c0 21 -13 29 -59 29h-26l32 87c-127 4 -198 80 -198 217v102c0 141 74 217 208 217
c124 0 195 -65 200 -177h-54c-6 86 -55 128 -144 128c-103 0 -154 -56 -154 -171v-96c0 -115 51 -171 154 -171z" />
    <glyph glyph-name="egrave" unicode="&#xe8;" horiz-adv-x="546" 
d="M273 597l-122 127h72l108 -127h-58zM280 -12c-140 0 -217 76 -217 217v102c0 141 75 217 212 217s211 -76 211 -217v-63h-367v-35c0 -116 52 -172 159 -172c92 0 144 42 150 113h54c-7 -105 -81 -162 -202 -162zM119 292h313v11c0 116 -51 172 -157 172
s-156 -56 -156 -172v-11z" />
    <glyph glyph-name="eacute" unicode="&#xe9;" horiz-adv-x="546" 
d="M217 597l108 127h72l-122 -127h-58zM280 -12c-140 0 -217 76 -217 217v102c0 141 75 217 212 217s211 -76 211 -217v-63h-367v-35c0 -116 52 -172 159 -172c92 0 144 42 150 113h54c-7 -105 -81 -162 -202 -162zM119 292h313v11c0 116 -51 172 -157 172
s-156 -56 -156 -172v-11z" />
    <glyph glyph-name="ecircumflex" unicode="&#xea;" horiz-adv-x="546" 
d="M138 597l108 127h55l109 -127h-58l-78 82l-78 -82h-58zM280 -12c-140 0 -217 76 -217 217v102c0 141 75 217 212 217s211 -76 211 -217v-63h-367v-35c0 -116 52 -172 159 -172c92 0 144 42 150 113h54c-7 -105 -81 -162 -202 -162zM119 292h313v11
c0 116 -51 172 -157 172s-156 -56 -156 -172v-11z" />
    <glyph glyph-name="edieresis" unicode="&#xeb;" horiz-adv-x="546" 
d="M158 620v79h64v-79h-64zM326 620v79h64v-79h-64zM280 -12c-140 0 -217 76 -217 217v102c0 141 75 217 212 217s211 -76 211 -217v-63h-367v-35c0 -116 52 -172 159 -172c92 0 144 42 150 113h54c-7 -105 -81 -162 -202 -162zM119 292h313v11c0 116 -51 172 -157 172
s-156 -56 -156 -172v-11z" />
    <glyph glyph-name="igrave" unicode="&#xec;" horiz-adv-x="236" 
d="M117 597l-122 127h72l108 -127h-58zM90 0v512h56v-512h-56z" />
    <glyph glyph-name="iacute" unicode="&#xed;" horiz-adv-x="236" 
d="M61 597l108 127h72l-122 -127h-58zM90 0v512h56v-512h-56z" />
    <glyph glyph-name="icircumflex" unicode="&#xee;" horiz-adv-x="236" 
d="M-13 597l103 127h56l103 -127h-57l-74 82l-74 -82h-57zM90 0v512h56v-512h-56z" />
    <glyph glyph-name="idieresis" unicode="&#xef;" horiz-adv-x="236" 
d="M17 620v79h64v-79h-64zM156 620v79h64v-79h-64zM90 0v512h56v-512h-56z" />
    <glyph glyph-name="eth" unicode="&#xf0;" horiz-adv-x="554" 
d="M277 -12c-142 0 -217 77 -217 221v65c0 136 73 213 193 213c72 0 127 -28 168 -80c-22 66 -62 131 -116 189l-145 -57l-17 43l126 50c-42 38 -90 71 -143 98h88c39 -22 75 -49 107 -78l100 39l17 -43l-82 -32c86 -94 138 -213 138 -329v-78c0 -144 -75 -221 -217 -221z
M277 37c108 0 161 59 161 176v91c-34 85 -92 133 -177 133c-92 0 -145 -55 -145 -166v-58c0 -117 53 -176 161 -176z" />
    <glyph glyph-name="ntilde" unicode="&#xf1;" horiz-adv-x="566" 
d="M339 610c-23 0 -36 6 -65 29c-22 17 -31 22 -44 22c-22 0 -33 -16 -38 -52h-41c4 66 31 99 80 99c23 0 36 -7 65 -29c23 -17 31 -23 44 -23c22 0 34 16 38 52h41c-4 -65 -31 -98 -80 -98zM90 0v512h48l2 -99c44 75 105 111 184 111c106 0 160 -64 160 -185v-339h-56v333
c0 94 -36 140 -113 140c-72 0 -128 -40 -169 -133v-340h-56z" />
    <glyph glyph-name="ograve" unicode="&#xf2;" horiz-adv-x="560" 
d="M278 597l-122 127h72l108 -127h-58zM280 -12c-141 0 -217 78 -217 221v94c0 143 76 221 217 221c140 0 217 -78 217 -221v-94c0 -143 -77 -221 -217 -221zM280 37c107 0 161 60 161 176v87c0 115 -54 175 -161 175s-161 -60 -161 -175v-87c0 -116 54 -176 161 -176z" />
    <glyph glyph-name="oacute" unicode="&#xf3;" horiz-adv-x="560" 
d="M222 597l108 127h72l-122 -127h-58zM280 -12c-141 0 -217 78 -217 221v94c0 143 76 221 217 221c140 0 217 -78 217 -221v-94c0 -143 -77 -221 -217 -221zM280 37c107 0 161 60 161 176v87c0 115 -54 175 -161 175s-161 -60 -161 -175v-87c0 -116 54 -176 161 -176z" />
    <glyph glyph-name="ocircumflex" unicode="&#xf4;" horiz-adv-x="560" 
d="M143 597l108 127h55l109 -127h-58l-78 82l-78 -82h-58zM280 -12c-141 0 -217 78 -217 221v94c0 143 76 221 217 221c140 0 217 -78 217 -221v-94c0 -143 -77 -221 -217 -221zM280 37c107 0 161 60 161 176v87c0 115 -54 175 -161 175s-161 -60 -161 -175v-87
c0 -116 54 -176 161 -176z" />
    <glyph glyph-name="otilde" unicode="&#xf5;" horiz-adv-x="560" 
d="M333 610c-23 0 -36 6 -65 29c-22 17 -31 22 -44 22c-22 0 -33 -16 -38 -52h-41c4 66 31 99 80 99c23 0 36 -7 65 -29c23 -17 31 -23 44 -23c22 0 34 16 38 52h41c-4 -65 -31 -98 -80 -98zM280 -12c-141 0 -217 78 -217 221v94c0 143 76 221 217 221
c140 0 217 -78 217 -221v-94c0 -143 -77 -221 -217 -221zM280 37c107 0 161 60 161 176v87c0 115 -54 175 -161 175s-161 -60 -161 -175v-87c0 -116 54 -176 161 -176z" />
    <glyph glyph-name="odieresis" unicode="&#xf6;" horiz-adv-x="560" 
d="M163 620v79h64v-79h-64zM331 620v79h64v-79h-64zM280 -12c-141 0 -217 78 -217 221v94c0 143 76 221 217 221c140 0 217 -78 217 -221v-94c0 -143 -77 -221 -217 -221zM280 37c107 0 161 60 161 176v87c0 115 -54 175 -161 175s-161 -60 -161 -175v-87
c0 -116 54 -176 161 -176z" />
    <glyph glyph-name="divide" unicode="&#xf7;" 
d="M269 469v84h64v-84h-64zM57 283v50h487v-50h-487zM269 64v84h64v-84h-64z" />
    <glyph glyph-name="oslash" unicode="&#xf8;" horiz-adv-x="560" 
d="M497 494l-38 -49c25 -35 38 -83 38 -142v-94c0 -143 -77 -221 -217 -221c-61 0 -110 15 -146 43l-34 -43l-37 30l38 48c-25 36 -38 84 -38 143v94c0 143 76 221 217 221c61 0 110 -15 146 -43l34 43zM119 213c0 -40 6 -73 19 -99l255 324c-27 25 -64 37 -113 37
c-107 0 -161 -60 -161 -175v-87zM441 300c0 39 -6 72 -19 99l-255 -325c27 -25 64 -37 113 -37c107 0 161 60 161 176v87z" />
    <glyph glyph-name="ugrave" unicode="&#xf9;" horiz-adv-x="571" 
d="M280 597l-122 127h72l108 -127h-58zM244 -12c-107 0 -162 64 -162 185v339h56v-333c0 -94 37 -140 115 -140c73 0 131 41 172 136v337h56v-512h-48l-2 101c-44 -76 -106 -113 -187 -113z" />
    <glyph glyph-name="uacute" unicode="&#xfa;" horiz-adv-x="571" 
d="M224 597l108 127h72l-122 -127h-58zM244 -12c-107 0 -162 64 -162 185v339h56v-333c0 -94 37 -140 115 -140c73 0 131 41 172 136v337h56v-512h-48l-2 101c-44 -76 -106 -113 -187 -113z" />
    <glyph glyph-name="ucircumflex" unicode="&#xfb;" horiz-adv-x="571" 
d="M145 597l108 127h55l109 -127h-58l-78 82l-78 -82h-58zM244 -12c-107 0 -162 64 -162 185v339h56v-333c0 -94 37 -140 115 -140c73 0 131 41 172 136v337h56v-512h-48l-2 101c-44 -76 -106 -113 -187 -113z" />
    <glyph glyph-name="udieresis" unicode="&#xfc;" horiz-adv-x="571" 
d="M165 620v79h64v-79h-64zM333 620v79h64v-79h-64zM244 -12c-107 0 -162 64 -162 185v339h56v-333c0 -94 37 -140 115 -140c73 0 131 41 172 136v337h56v-512h-48l-2 101c-44 -76 -106 -113 -187 -113z" />
    <glyph glyph-name="yacute" unicode="&#xfd;" horiz-adv-x="461" 
d="M175 597l108 127h72l-122 -127h-58zM57 -182v49h34c47 0 65 15 85 69l32 87l-193 489h60l163 -419l151 419h57l-216 -584c-31 -84 -63 -110 -134 -110h-39z" />
    <glyph glyph-name="thorn" unicode="&#xfe;" horiz-adv-x="582" 
d="M90 -182v912h56v-310c45 70 108 104 187 104c117 0 186 -75 186 -210v-115c0 -136 -69 -211 -186 -211c-79 0 -142 35 -187 105v-275h-56zM327 37c87 0 136 58 136 165v108c0 107 -49 165 -136 165c-79 0 -140 -48 -181 -136v-165c41 -89 102 -137 181 -137z" />
    <glyph glyph-name="ydieresis" unicode="&#xff;" horiz-adv-x="461" 
d="M116 620v79h64v-79h-64zM284 620v79h64v-79h-64zM57 -182v49h34c47 0 65 15 85 69l32 87l-193 489h60l163 -419l151 419h57l-216 -584c-31 -84 -63 -110 -134 -110h-39z" />
    <glyph glyph-name="Amacron" unicode="&#x100;" 
d="M194 795v45h214v-45h-214zM12 0l260 680h58l259 -680h-61l-73 192h-311l-73 -192h-59zM164 245h271l-135 364z" />
    <glyph glyph-name="amacron" unicode="&#x101;" horiz-adv-x="542" 
d="M155 638v45h214v-45h-214zM217 -12c-104 0 -167 54 -167 152c0 100 65 155 210 155h146v46c0 90 -46 134 -142 134c-89 0 -139 -38 -144 -112h-55c10 106 78 161 201 161c130 0 196 -62 196 -183v-341h-48l-2 85c-47 -64 -113 -97 -195 -97zM224 36c78 0 140 38 182 110
v101h-143c-111 0 -157 -33 -157 -105c0 -69 41 -106 118 -106z" />
    <glyph glyph-name="Abreve" unicode="&#x102;" 
d="M301 757c75 0 117 45 122 116h-46c-3 -43 -28 -70 -76 -70s-73 27 -76 70h-45c5 -71 47 -116 121 -116zM12 0l260 680h58l259 -680h-61l-73 192h-311l-73 -192h-59zM164 245h271l-135 364z" />
    <glyph glyph-name="abreve" unicode="&#x103;" horiz-adv-x="542" 
d="M262 600c75 0 117 45 122 116h-46c-3 -43 -28 -70 -76 -70s-73 27 -76 70h-45c5 -71 47 -116 121 -116zM217 -12c-104 0 -167 54 -167 152c0 100 65 155 210 155h146v46c0 90 -46 134 -142 134c-89 0 -139 -38 -144 -112h-55c10 106 78 161 201 161
c130 0 196 -62 196 -183v-341h-48l-2 85c-47 -64 -113 -97 -195 -97zM224 36c78 0 140 38 182 110v101h-143c-111 0 -157 -33 -157 -105c0 -69 41 -106 118 -106z" />
    <glyph glyph-name="Aogonek" unicode="&#x104;" 
d="M536 -155c18 0 35 5 54 17v-47c-19 -9 -39 -14 -63 -14c-58 0 -91 29 -91 80c0 48 29 90 89 128l-70 183h-311l-73 -192h-59l260 680h58l259 -680h-12c-59 -33 -91 -68 -91 -108c0 -31 18 -47 50 -47zM164 245h271l-135 364z" />
    <glyph glyph-name="aogonek" unicode="&#x105;" horiz-adv-x="542" 
d="M447 0c-58 -33 -89 -67 -89 -107c0 -31 18 -47 50 -47c18 0 35 5 54 17v-47c-19 -9 -39 -14 -63 -14c-58 0 -91 29 -91 80c0 52 34 97 106 138l-2 65c-47 -64 -113 -97 -195 -97c-104 0 -167 54 -167 152c0 100 65 155 210 155h146v46c0 90 -46 134 -142 134
c-89 0 -139 -38 -144 -112h-55c10 106 78 161 201 161c130 0 196 -62 196 -183v-341h-15zM406 146v101h-143c-111 0 -157 -33 -157 -105c0 -69 41 -106 118 -106c78 0 140 38 182 110z" />
    <glyph glyph-name="Cacute" unicode="&#x106;" horiz-adv-x="614" 
d="M260 754l108 127h72l-122 -127h-58zM318 -12c-164 0 -250 89 -250 263v178c0 174 85 263 250 263c152 0 236 -76 243 -221h-56c-7 112 -70 168 -187 168c-130 0 -193 -69 -193 -214v-170c0 -145 63 -214 193 -214c116 0 180 54 187 167h56c-7 -144 -91 -220 -243 -220z
" />
    <glyph glyph-name="cacute" unicode="&#x107;" horiz-adv-x="514" 
d="M211 597l108 127h72l-122 -127h-58zM272 -12c-134 0 -209 76 -209 217v102c0 141 74 217 208 217c124 0 195 -65 200 -177h-54c-6 86 -55 128 -144 128c-103 0 -154 -56 -154 -171v-96c0 -115 51 -171 154 -171c89 0 138 42 144 128h54c-5 -110 -74 -177 -199 -177z" />
    <glyph glyph-name="Ccircumflex" unicode="&#x108;" horiz-adv-x="614" 
d="M181 754l108 127h55l109 -127h-58l-78 82l-78 -82h-58zM318 -12c-164 0 -250 89 -250 263v178c0 174 85 263 250 263c152 0 236 -76 243 -221h-56c-7 112 -70 168 -187 168c-130 0 -193 -69 -193 -214v-170c0 -145 63 -214 193 -214c116 0 180 54 187 167h56
c-7 -144 -91 -220 -243 -220z" />
    <glyph glyph-name="ccircumflex" unicode="&#x109;" horiz-adv-x="514" 
d="M132 597l108 127h55l109 -127h-58l-78 82l-78 -82h-58zM272 -12c-134 0 -209 76 -209 217v102c0 141 74 217 208 217c124 0 195 -65 200 -177h-54c-6 86 -55 128 -144 128c-103 0 -154 -56 -154 -171v-96c0 -115 51 -171 154 -171c89 0 138 42 144 128h54
c-5 -110 -74 -177 -199 -177z" />
    <glyph glyph-name="Cdotaccent" unicode="&#x10a;" horiz-adv-x="614" 
d="M285 777v79h64v-79h-64zM318 -12c-164 0 -250 89 -250 263v178c0 174 85 263 250 263c152 0 236 -76 243 -221h-56c-7 112 -70 168 -187 168c-130 0 -193 -69 -193 -214v-170c0 -145 63 -214 193 -214c116 0 180 54 187 167h56c-7 -144 -91 -220 -243 -220z" />
    <glyph glyph-name="cdotaccent" unicode="&#x10b;" horiz-adv-x="514" 
d="M236 620v79h64v-79h-64zM272 -12c-134 0 -209 76 -209 217v102c0 141 74 217 208 217c124 0 195 -65 200 -177h-54c-6 86 -55 128 -144 128c-103 0 -154 -56 -154 -171v-96c0 -115 51 -171 154 -171c89 0 138 42 144 128h54c-5 -110 -74 -177 -199 -177z" />
    <glyph glyph-name="Ccaron" unicode="&#x10c;" horiz-adv-x="614" 
d="M289 754l-108 127h58l78 -82l78 82h58l-109 -127h-55zM318 -12c-164 0 -250 89 -250 263v178c0 174 85 263 250 263c152 0 236 -76 243 -221h-56c-7 112 -70 168 -187 168c-130 0 -193 -69 -193 -214v-170c0 -145 63 -214 193 -214c116 0 180 54 187 167h56
c-7 -144 -91 -220 -243 -220z" />
    <glyph glyph-name="ccaron" unicode="&#x10d;" horiz-adv-x="514" 
d="M240 597l-108 127h58l78 -82l78 82h58l-109 -127h-55zM272 -12c-134 0 -209 76 -209 217v102c0 141 74 217 208 217c124 0 195 -65 200 -177h-54c-6 86 -55 128 -144 128c-103 0 -154 -56 -154 -171v-96c0 -115 51 -171 154 -171c89 0 138 42 144 128h54
c-5 -110 -74 -177 -199 -177z" />
    <glyph glyph-name="Dcaron" unicode="&#x10e;" horiz-adv-x="647" 
d="M287 754l-108 127h58l78 -82l78 82h58l-109 -127h-55zM99 0v680h225c175 0 256 -82 256 -261v-158c0 -180 -81 -261 -256 -261h-225zM156 53h163c143 0 204 61 204 209v156c0 148 -61 209 -204 209h-163v-574z" />
    <glyph glyph-name="dcaron" unicode="&#x10f;" horiz-adv-x="582" 
d="M249 -12c-117 0 -186 75 -186 211v115c0 135 69 210 186 210c79 0 142 -34 187 -104v310h56v-730h-48l-2 102c-46 -76 -111 -114 -193 -114zM541 535l41 195h61l-59 -195h-43zM255 37c79 0 140 48 181 137v165c-41 88 -102 136 -181 136c-87 0 -136 -58 -136 -165v-108
c0 -107 49 -165 136 -165z" />
    <glyph glyph-name="Dcroat" unicode="&#x110;" horiz-adv-x="657" 
d="M334 680c175 0 256 -82 256 -261v-158c0 -180 -81 -261 -256 -261h-225v323h-80v53h80v304h225zM533 262v156c0 148 -61 209 -204 209h-163v-251h181v-53h-181v-270h163c143 0 204 61 204 209z" />
    <glyph glyph-name="dcroat" unicode="&#x111;" horiz-adv-x="590" 
d="M580 635v-46h-88v-589h-48l-2 102c-46 -76 -111 -114 -193 -114c-117 0 -186 75 -186 211v115c0 135 69 210 186 210c79 0 142 -34 187 -104v169h-139v46h139v95h56v-95h88zM436 174v165c-41 88 -102 136 -181 136c-87 0 -136 -58 -136 -165v-108
c0 -107 49 -165 136 -165c79 0 140 48 181 137z" />
    <glyph glyph-name="Emacron" unicode="&#x112;" horiz-adv-x="582" 
d="M210 795v45h214v-45h-214zM99 0v680h436v-53h-379v-251h329v-53h-329v-270h389v-53h-446z" />
    <glyph glyph-name="emacron" unicode="&#x113;" horiz-adv-x="546" 
d="M167 638v45h214v-45h-214zM280 -12c-140 0 -217 76 -217 217v102c0 141 75 217 212 217s211 -76 211 -217v-63h-367v-35c0 -116 52 -172 159 -172c92 0 144 42 150 113h54c-7 -105 -81 -162 -202 -162zM119 292h313v11c0 116 -51 172 -157 172s-156 -56 -156 -172v-11z
" />
    <glyph glyph-name="Ebreve" unicode="&#x114;" horiz-adv-x="582" 
d="M317 757c75 0 117 45 122 116h-46c-3 -43 -28 -70 -76 -70s-73 27 -76 70h-45c5 -71 47 -116 121 -116zM99 0v680h436v-53h-379v-251h329v-53h-329v-270h389v-53h-446z" />
    <glyph glyph-name="ebreve" unicode="&#x115;" horiz-adv-x="546" 
d="M274 600c75 0 117 45 122 116h-46c-3 -43 -28 -70 -76 -70s-73 27 -76 70h-45c5 -71 47 -116 121 -116zM280 -12c-140 0 -217 76 -217 217v102c0 141 75 217 212 217s211 -76 211 -217v-63h-367v-35c0 -116 52 -172 159 -172c92 0 144 42 150 113h54
c-7 -105 -81 -162 -202 -162zM119 292h313v11c0 116 -51 172 -157 172s-156 -56 -156 -172v-11z" />
    <glyph glyph-name="Edotaccent" unicode="&#x116;" horiz-adv-x="582" 
d="M285 777v79h64v-79h-64zM99 0v680h436v-53h-379v-251h329v-53h-329v-270h389v-53h-446z" />
    <glyph glyph-name="edotaccent" unicode="&#x117;" horiz-adv-x="546" 
d="M242 620v79h64v-79h-64zM280 -12c-140 0 -217 76 -217 217v102c0 141 75 217 212 217s211 -76 211 -217v-63h-367v-35c0 -116 52 -172 159 -172c92 0 144 42 150 113h54c-7 -105 -81 -162 -202 -162zM119 292h313v11c0 116 -51 172 -157 172s-156 -56 -156 -172v-11z" />
    <glyph glyph-name="Eogonek" unicode="&#x118;" horiz-adv-x="582" 
d="M530 0c-58 -33 -89 -67 -89 -107c0 -31 18 -47 50 -47c18 0 35 5 54 17v-47c-19 -9 -39 -14 -63 -14c-58 0 -91 29 -91 80c0 44 24 82 74 118h-366v680h436v-53h-379v-251h329v-53h-329v-270h389v-53h-15z" />
    <glyph glyph-name="eogonek" unicode="&#x119;" horiz-adv-x="546" 
d="M486 244h-367v-35c0 -116 52 -172 159 -172c92 0 144 42 150 113h54c-4 -54 -25 -95 -60 -122c-52 -51 -77 -95 -77 -134c0 -32 17 -48 50 -48c19 0 35 5 54 17v-47c-17 -10 -37 -14 -62 -14c-60 0 -92 29 -92 82c0 35 15 72 46 109c-19 -3 -39 -5 -61 -5
c-140 0 -217 76 -217 217v102c0 141 75 217 212 217s211 -76 211 -217v-63zM119 303v-11h313v11c0 116 -51 172 -157 172s-156 -56 -156 -172z" />
    <glyph glyph-name="Ecaron" unicode="&#x11a;" horiz-adv-x="582" 
d="M289 754l-108 127h58l78 -82l78 82h58l-109 -127h-55zM99 0v680h436v-53h-379v-251h329v-53h-329v-270h389v-53h-446z" />
    <glyph glyph-name="ecaron" unicode="&#x11b;" horiz-adv-x="546" 
d="M246 597l-108 127h58l78 -82l78 82h58l-109 -127h-55zM280 -12c-140 0 -217 76 -217 217v102c0 141 75 217 212 217s211 -76 211 -217v-63h-367v-35c0 -116 52 -172 159 -172c92 0 144 42 150 113h54c-7 -105 -81 -162 -202 -162zM119 292h313v11c0 116 -51 172 -157 172
s-156 -56 -156 -172v-11z" />
    <glyph glyph-name="Gcircumflex" unicode="&#x11c;" horiz-adv-x="637" 
d="M184 754l108 127h55l109 -127h-58l-78 82l-78 -82h-58zM325 -12c-165 0 -257 90 -257 257v190c0 162 92 257 254 257c147 0 237 -78 243 -217h-56c-6 104 -71 164 -188 164c-128 0 -196 -73 -196 -209v-180c0 -140 68 -209 201 -209c128 0 190 65 190 202v50h-166v53h222
v-104c0 -166 -84 -254 -247 -254z" />
    <glyph glyph-name="gcircumflex" unicode="&#x11d;" horiz-adv-x="582" 
d="M143 597l108 127h55l109 -127h-58l-78 82l-78 -82h-58zM279 -194c-127 0 -197 53 -204 151h53c6 -69 59 -102 149 -102c110 0 159 48 159 152v107c-46 -69 -108 -104 -187 -104c-117 0 -186 75 -186 211v93c0 135 69 210 186 210c82 0 146 -37 193 -113l2 101h48v-505
c0 -135 -71 -201 -213 -201zM255 60c79 0 140 47 181 136v143c-41 88 -102 136 -181 136c-87 0 -136 -58 -136 -165v-85c0 -108 49 -165 136 -165z" />
    <glyph glyph-name="Gbreve" unicode="&#x11e;" horiz-adv-x="637" 
d="M320 757c75 0 117 45 122 116h-46c-3 -43 -28 -70 -76 -70s-73 27 -76 70h-45c5 -71 47 -116 121 -116zM325 -12c-165 0 -257 90 -257 257v190c0 162 92 257 254 257c147 0 237 -78 243 -217h-56c-6 104 -71 164 -188 164c-128 0 -196 -73 -196 -209v-180
c0 -140 68 -209 201 -209c128 0 190 65 190 202v50h-166v53h222v-104c0 -166 -84 -254 -247 -254z" />
    <glyph glyph-name="gbreve" unicode="&#x11f;" horiz-adv-x="582" 
d="M279 600c75 0 117 45 122 116h-46c-3 -43 -28 -70 -76 -70s-73 27 -76 70h-45c5 -71 47 -116 121 -116zM279 -194c-127 0 -197 53 -204 151h53c6 -69 59 -102 149 -102c110 0 159 48 159 152v107c-46 -69 -108 -104 -187 -104c-117 0 -186 75 -186 211v93
c0 135 69 210 186 210c82 0 146 -37 193 -113l2 101h48v-505c0 -135 -71 -201 -213 -201zM255 60c79 0 140 47 181 136v143c-41 88 -102 136 -181 136c-87 0 -136 -58 -136 -165v-85c0 -108 49 -165 136 -165z" />
    <glyph glyph-name="Gdotaccent" unicode="&#x120;" horiz-adv-x="637" 
d="M288 777v79h64v-79h-64zM325 -12c-165 0 -257 90 -257 257v190c0 162 92 257 254 257c147 0 237 -78 243 -217h-56c-6 104 -71 164 -188 164c-128 0 -196 -73 -196 -209v-180c0 -140 68 -209 201 -209c128 0 190 65 190 202v50h-166v53h222v-104
c0 -166 -84 -254 -247 -254z" />
    <glyph glyph-name="gdotaccent" unicode="&#x121;" horiz-adv-x="582" 
d="M247 620v79h64v-79h-64zM279 -194c-127 0 -197 53 -204 151h53c6 -69 59 -102 149 -102c110 0 159 48 159 152v107c-46 -69 -108 -104 -187 -104c-117 0 -186 75 -186 211v93c0 135 69 210 186 210c82 0 146 -37 193 -113l2 101h48v-505c0 -135 -71 -201 -213 -201z
M255 60c79 0 140 47 181 136v143c-41 88 -102 136 -181 136c-87 0 -136 -58 -136 -165v-85c0 -108 49 -165 136 -165z" />
    <glyph glyph-name="Gcommaaccent" unicode="&#x122;" horiz-adv-x="637" 
d="M325 -12c-165 0 -257 90 -257 257v190c0 162 92 257 254 257c147 0 237 -78 243 -217h-56c-6 104 -71 164 -188 164c-128 0 -196 -73 -196 -209v-180c0 -140 68 -209 201 -209c128 0 190 65 190 202v50h-166v53h222v-104c0 -166 -84 -254 -247 -254zM284 -225v32
c29 0 36 18 36 46h-26v64h64v-57c0 -52 -16 -84 -74 -85z" />
    <glyph glyph-name="gcommaaccent" unicode="&#x123;" horiz-adv-x="582" 
d="M321 737v-32c-29 0 -36 -18 -36 -46h26v-64h-64v57c0 52 16 84 74 85zM279 -194c-127 0 -197 53 -204 151h53c6 -69 59 -102 149 -102c110 0 159 48 159 152v107c-46 -69 -108 -104 -187 -104c-117 0 -186 75 -186 211v93c0 135 69 210 186 210c82 0 146 -37 193 -113
l2 101h48v-505c0 -135 -71 -201 -213 -201zM255 60c79 0 140 47 181 136v143c-41 88 -102 136 -181 136c-87 0 -136 -58 -136 -165v-85c0 -108 49 -165 136 -165z" />
    <glyph glyph-name="Hcircumflex" unicode="&#x124;" horiz-adv-x="696" 
d="M212 754l108 127h55l109 -127h-58l-78 82l-78 -82h-58zM99 0v680h57v-304h384v304h57v-680h-57v323h-384v-323h-57z" />
    <glyph glyph-name="hcircumflex" unicode="&#x125;" horiz-adv-x="566" 
d="M-18 804l108 127h55l109 -127h-58l-78 82l-78 -82h-58zM90 0v730h56v-308c43 69 102 102 178 102c106 0 160 -64 160 -185v-339h-56v333c0 94 -36 140 -113 140c-72 0 -128 -40 -169 -133v-340h-56z" />
    <glyph glyph-name="Hbar" unicode="&#x126;" horiz-adv-x="716" 
d="M687 543v-49h-80v-494h-57v323h-384v-323h-57v494h-80v49h80v137h57v-137h384v137h57v-137h80zM550 376v118h-384v-118h384z" />
    <glyph glyph-name="hbar" unicode="&#x127;" horiz-adv-x="574" 
d="M332 524c106 0 160 -64 160 -185v-339h-56v333c0 94 -36 140 -113 140c-72 0 -128 -40 -169 -133v-340h-56v589h-89v46h89v95h56v-95h138v-46h-138v-167c43 69 102 102 178 102z" />
    <glyph glyph-name="Itilde" unicode="&#x128;" horiz-adv-x="255" 
d="M178 767c-19 0 -31 5 -61 29c-22 18 -29 22 -41 22c-22 0 -33 -18 -36 -52h-41c4 63 29 99 77 99c20 0 31 -5 62 -29c23 -18 30 -23 41 -23c22 0 33 17 36 52h41c-4 -62 -28 -98 -78 -98zM99 0v680h57v-680h-57z" />
    <glyph glyph-name="itilde" unicode="&#x129;" horiz-adv-x="236" 
d="M168 610c-19 0 -31 5 -61 29c-22 18 -29 22 -41 22c-22 0 -33 -18 -36 -52h-41c4 63 29 99 77 99c20 0 31 -5 62 -29c23 -18 30 -23 41 -23c22 0 33 17 36 52h41c-4 -62 -28 -98 -78 -98zM90 0v512h56v-512h-56z" />
    <glyph glyph-name="Imacron" unicode="&#x12a;" horiz-adv-x="255" 
d="M29 795v45h198v-45h-198zM99 0v680h57v-680h-57z" />
    <glyph glyph-name="imacron" unicode="&#x12b;" horiz-adv-x="236" 
d="M19 638v45h198v-45h-198zM90 0v512h56v-512h-56z" />
    <glyph glyph-name="Ibreve" unicode="&#x12c;" horiz-adv-x="255" 
d="M128 757c-72 0 -112 45 -116 116h45c2 -43 25 -70 71 -70c45 0 69 27 71 70h45c-4 -71 -44 -116 -116 -116zM99 0v680h57v-680h-57z" />
    <glyph glyph-name="ibreve" unicode="&#x12d;" horiz-adv-x="236" 
d="M118 600c-72 0 -112 45 -116 116h45c2 -43 25 -70 71 -70c45 0 69 27 71 70h45c-4 -71 -44 -116 -116 -116zM90 0v512h56v-512h-56z" />
    <glyph glyph-name="Iogonek" unicode="&#x12e;" horiz-adv-x="255" 
d="M138 -154c19 0 37 5 55 17v-47c-20 -9 -41 -14 -63 -14c-59 0 -92 30 -92 80c0 41 22 81 64 118h-3v680h57v-680h-3c-44 -37 -65 -71 -65 -106c0 -31 18 -48 50 -48z" />
    <glyph glyph-name="iogonek" unicode="&#x12f;" horiz-adv-x="236" 
d="M149 701v-83h-62v83h62zM127 -154c19 0 37 5 55 17v-47c-20 -9 -41 -14 -63 -14c-59 0 -92 30 -92 80c0 41 22 81 64 118h-1v512h56v-512h-4c-44 -37 -65 -71 -65 -106c0 -31 18 -48 50 -48z" />
    <glyph glyph-name="Idotaccent" unicode="&#x130;" horiz-adv-x="255" 
d="M96 777v79h64v-79h-64zM99 0v680h57v-680h-57z" />
    <glyph glyph-name="dotlessi" unicode="&#x131;" horiz-adv-x="236" 
d="M90 0v512h56v-512h-56z" />
    <glyph glyph-name="IJ" unicode="&#x132;" horiz-adv-x="803" 
d="M99 0v680h57v-680h-57zM496 -12c-152 0 -223 70 -223 222v14h55v-11c0 -121 50 -172 167 -172c122 0 171 55 171 190v449h57v-454c0 -163 -71 -238 -227 -238z" />
    <glyph glyph-name="ij" unicode="&#x133;" horiz-adv-x="472" 
d="M87 618v83h62v-83h-62zM323 618v83h62v-83h-62zM90 0v512h56v-512h-56zM233 -182v49h22c56 0 71 19 71 86v559h56v-558c0 -96 -34 -136 -117 -136h-32z" />
    <glyph glyph-name="Jcircumflex" unicode="&#x134;" horiz-adv-x="548" 
d="M308 754l103 127h56l103 -127h-57l-74 82l-74 -82h-57zM241 -12c-152 0 -223 70 -223 222v14h55v-11c0 -121 50 -172 167 -172c122 0 171 55 171 190v449h57v-454c0 -163 -71 -238 -227 -238z" />
    <glyph glyph-name="jcircumflex" unicode="&#x135;" horiz-adv-x="236" 
d="M-13 597l103 127h56l103 -127h-57l-74 82l-74 -82h-57zM-3 -182v49h22c56 0 71 19 71 86v559h56v-558c0 -96 -34 -136 -117 -136h-32z" />
    <glyph glyph-name="Kcommaaccent" unicode="&#x136;" horiz-adv-x="617" 
d="M99 0v680h57v-397l373 397h72l-259 -276l263 -404h-68l-235 361l-146 -153v-208h-57zM294 -225v32c29 0 36 18 36 46h-26v64h64v-57c0 -52 -16 -84 -74 -85z" />
    <glyph glyph-name="kcommaaccent" unicode="&#x137;" horiz-adv-x="521" 
d="M90 0v730h56v-503l286 285h72l-210 -209l214 -303h-68l-186 263l-108 -106v-157h-56zM245 -225v32c29 0 36 18 36 46h-26v64h64v-57c0 -52 -16 -84 -74 -85z" />
    <glyph glyph-name="kgreenlandic" unicode="&#x138;" horiz-adv-x="521" 
d="M90 0v512h56v-285l286 285h72l-210 -209l214 -303h-68l-186 263l-108 -106v-157h-56z" />
    <glyph glyph-name="Lacute" unicode="&#x139;" horiz-adv-x="520" 
d="M71 754l108 127h72l-122 -127h-58zM99 0v680h57v-627h357v-53h-414z" />
    <glyph glyph-name="lacute" unicode="&#x13a;" horiz-adv-x="236" 
d="M61 804l108 127h72l-122 -127h-58zM90 0v730h56v-730h-56z" />
    <glyph glyph-name="Lcommaaccent" unicode="&#x13b;" horiz-adv-x="520" 
d="M99 0v680h57v-627h357v-53h-414zM263 -225v32c29 0 36 18 36 46h-26v64h64v-57c0 -52 -16 -84 -74 -85z" />
    <glyph glyph-name="lcommaaccent" unicode="&#x13c;" horiz-adv-x="236" 
d="M90 0v730h56v-730h-56zM76 -225v32c29 0 36 18 36 46h-26v64h64v-57c0 -52 -16 -84 -74 -85z" />
    <glyph glyph-name="Lcaron" unicode="&#x13d;" horiz-adv-x="520" 
d="M99 0v680h57v-627h357v-53h-414zM223 485l41 195h61l-59 -195h-43z" />
    <glyph glyph-name="lcaron" unicode="&#x13e;" horiz-adv-x="235" 
d="M90 0v730h56v-730h-56zM194 535l41 195h61l-59 -195h-43z" />
    <glyph glyph-name="Ldot" unicode="&#x13f;" horiz-adv-x="520" 
d="M99 0v680h57v-627h357v-53h-414zM353 310v82h68v-82h-68z" />
    <glyph glyph-name="ldot" unicode="&#x140;" horiz-adv-x="246" 
d="M90 0v730h56v-730h-56zM207 321v78h66v-78h-66z" />
    <glyph glyph-name="Lslash" unicode="&#x141;" horiz-adv-x="530" 
d="M166 53h357v-53h-414v218l-80 -56v60l80 56v402h57v-362l221 156v-60l-221 -156v-205z" />
    <glyph glyph-name="lslash" unicode="&#x142;" horiz-adv-x="258" 
d="M250 493v-56l-93 -72v-365h-56v321l-93 -72v57l93 72v352h56v-309z" />
    <glyph glyph-name="Nacute" unicode="&#x143;" horiz-adv-x="693" 
d="M289 754l108 127h72l-122 -127h-58zM99 0v680h70l369 -578v578h56v-680h-56l-383 600v-600h-56z" />
    <glyph glyph-name="nacute" unicode="&#x144;" horiz-adv-x="566" 
d="M228 597l108 127h72l-122 -127h-58zM90 0v512h48l2 -99c44 75 105 111 184 111c106 0 160 -64 160 -185v-339h-56v333c0 94 -36 140 -113 140c-72 0 -128 -40 -169 -133v-340h-56z" />
    <glyph glyph-name="Ncommaaccent" unicode="&#x145;" horiz-adv-x="693" 
d="M99 0v680h70l369 -578v578h56v-680h-56l-383 600v-600h-56zM304 -225v32c29 0 36 18 36 46h-26v64h64v-57c0 -52 -16 -84 -74 -85z" />
    <glyph glyph-name="ncommaaccent" unicode="&#x146;" horiz-adv-x="566" 
d="M90 0v512h48l2 -99c44 75 105 111 184 111c106 0 160 -64 160 -185v-339h-56v333c0 94 -36 140 -113 140c-72 0 -128 -40 -169 -133v-340h-56zM245 -225v32c29 0 36 18 36 46h-26v64h64v-57c0 -52 -16 -84 -74 -85z" />
    <glyph glyph-name="Ncaron" unicode="&#x147;" horiz-adv-x="693" 
d="M318 754l-108 127h58l78 -82l78 82h58l-109 -127h-55zM99 0v680h70l369 -578v578h56v-680h-56l-383 600v-600h-56z" />
    <glyph glyph-name="ncaron" unicode="&#x148;" horiz-adv-x="566" 
d="M257 597l-108 127h58l78 -82l78 82h58l-109 -127h-55zM90 0v512h48l2 -99c44 75 105 111 184 111c106 0 160 -64 160 -185v-339h-56v333c0 94 -36 140 -113 140c-72 0 -128 -40 -169 -133v-340h-56z" />
    <glyph glyph-name="napostrophe" unicode="&#x149;" horiz-adv-x="566" 
d="M77 568v31c26 1 34 17 34 44v8h-24v72h62v-70c0 -51 -15 -84 -72 -85zM90 0v512h48l2 -99c44 75 105 111 184 111c106 0 160 -64 160 -185v-339h-56v333c0 94 -36 140 -113 140c-72 0 -128 -40 -169 -133v-340h-56z" />
    <glyph glyph-name="Eng" unicode="&#x14a;" horiz-adv-x="693" 
d="M442 -182v49h25c56 0 71 19 71 86v48l-383 599v-600h-56v680h70l369 -578v578h56v-726c0 -96 -34 -136 -117 -136h-35z" />
    <glyph glyph-name="eng" unicode="&#x14b;" horiz-adv-x="566" 
d="M324 524c106 0 160 -64 160 -185v-385c0 -96 -34 -136 -116 -136h-35v48h24c56 0 71 19 71 87v380c0 94 -36 140 -113 140c-72 0 -128 -40 -169 -133v-340h-56v512h48l2 -99c44 75 105 111 184 111z" />
    <glyph glyph-name="Omacron" unicode="&#x14c;" horiz-adv-x="654" 
d="M220 795v45h214v-45h-214zM327 -12c-169 0 -259 91 -259 264v176c0 173 90 264 259 264s259 -91 259 -264v-176c0 -173 -90 -264 -259 -264zM328 41c135 0 201 69 201 214v170c0 145 -66 214 -201 214c-136 0 -202 -69 -202 -214v-170c0 -145 66 -214 202 -214z" />
    <glyph glyph-name="omacron" unicode="&#x14d;" horiz-adv-x="560" 
d="M172 638v45h214v-45h-214zM280 -12c-141 0 -217 78 -217 221v94c0 143 76 221 217 221c140 0 217 -78 217 -221v-94c0 -143 -77 -221 -217 -221zM280 37c107 0 161 60 161 176v87c0 115 -54 175 -161 175s-161 -60 -161 -175v-87c0 -116 54 -176 161 -176z" />
    <glyph glyph-name="Obreve" unicode="&#x14e;" horiz-adv-x="654" 
d="M327 757c75 0 117 45 122 116h-46c-3 -43 -28 -70 -76 -70s-73 27 -76 70h-45c5 -71 47 -116 121 -116zM327 -12c-169 0 -259 91 -259 264v176c0 173 90 264 259 264s259 -91 259 -264v-176c0 -173 -90 -264 -259 -264zM328 41c135 0 201 69 201 214v170
c0 145 -66 214 -201 214c-136 0 -202 -69 -202 -214v-170c0 -145 66 -214 202 -214z" />
    <glyph glyph-name="obreve" unicode="&#x14f;" horiz-adv-x="560" 
d="M279 600c75 0 117 45 122 116h-46c-3 -43 -28 -70 -76 -70s-73 27 -76 70h-45c5 -71 47 -116 121 -116zM280 -12c-141 0 -217 78 -217 221v94c0 143 76 221 217 221c140 0 217 -78 217 -221v-94c0 -143 -77 -221 -217 -221zM280 37c107 0 161 60 161 176v87
c0 115 -54 175 -161 175s-161 -60 -161 -175v-87c0 -116 54 -176 161 -176z" />
    <glyph glyph-name="Ohungarumlaut" unicode="&#x150;" horiz-adv-x="654" 
d="M203 754l85 127h70l-101 -127h-54zM361 754l86 127h69l-101 -127h-54zM327 -12c-169 0 -259 91 -259 264v176c0 173 90 264 259 264s259 -91 259 -264v-176c0 -173 -90 -264 -259 -264zM328 41c135 0 201 69 201 214v170c0 145 -66 214 -201 214
c-136 0 -202 -69 -202 -214v-170c0 -145 66 -214 202 -214z" />
    <glyph glyph-name="ohungarumlaut" unicode="&#x151;" horiz-adv-x="560" 
d="M155 597l85 127h70l-101 -127h-54zM313 597l86 127h69l-101 -127h-54zM280 -12c-141 0 -217 78 -217 221v94c0 143 76 221 217 221c140 0 217 -78 217 -221v-94c0 -143 -77 -221 -217 -221zM280 37c107 0 161 60 161 176v87c0 115 -54 175 -161 175s-161 -60 -161 -175
v-87c0 -116 54 -176 161 -176z" />
    <glyph glyph-name="OE" unicode="&#x152;" horiz-adv-x="923" 
d="M324 0c-175 0 -257 81 -257 261v158c0 179 82 261 257 261h552v-53h-353v-251h303v-53h-303v-270h363v-53h-562zM329 53h137v574h-137c-143 0 -205 -61 -205 -209v-156c0 -148 62 -209 205 -209z" />
    <glyph glyph-name="oe" unicode="&#x153;" horiz-adv-x="923" 
d="M278 -12c-138 0 -215 79 -215 221v94c0 142 77 221 215 221c96 0 160 -38 190 -110c28 72 91 110 186 110c135 0 209 -76 209 -217v-63h-367v-35c0 -116 53 -172 159 -172c92 0 144 42 150 113h54c-7 -105 -81 -162 -201 -162c-97 0 -161 38 -190 110
c-30 -72 -94 -110 -190 -110zM279 37c107 0 162 60 162 176v87c0 115 -55 175 -162 175c-106 0 -160 -60 -160 -175v-87c0 -116 54 -176 160 -176zM496 292h313v11c0 116 -51 172 -157 172c-105 0 -156 -56 -156 -172v-11z" />
    <glyph glyph-name="Racute" unicode="&#x154;" horiz-adv-x="629" 
d="M250 754l108 127h72l-122 -127h-58zM99 0v680h255c150 0 213 -58 213 -195c0 -117 -47 -177 -156 -192l181 -293h-68l-178 290h-190v-290h-57zM156 343h194c117 0 159 39 159 142s-42 142 -159 142h-194v-284z" />
    <glyph glyph-name="racute" unicode="&#x155;" horiz-adv-x="346" 
d="M135 597l108 127h72l-122 -127h-58zM90 0v512h48l2 -105c29 79 81 115 159 115h33v-54h-27c-87 0 -137 -47 -159 -157v-311h-56z" />
    <glyph glyph-name="Rcommaaccent" unicode="&#x156;" horiz-adv-x="629" 
d="M99 0v680h255c150 0 213 -58 213 -195c0 -117 -47 -177 -156 -192l181 -293h-68l-178 290h-190v-290h-57zM156 343h194c117 0 159 39 159 142s-42 142 -159 142h-194v-284zM291 -225v32c29 0 36 18 36 46h-26v64h64v-57c0 -52 -16 -84 -74 -85z" />
    <glyph glyph-name="rcommaaccent" unicode="&#x157;" horiz-adv-x="346" 
d="M90 0v512h48l2 -105c29 79 81 115 159 115h33v-54h-27c-87 0 -137 -47 -159 -157v-311h-56zM76 -225v32c29 0 36 18 36 46h-26v64h64v-57c0 -52 -16 -84 -74 -85z" />
    <glyph glyph-name="Rcaron" unicode="&#x158;" horiz-adv-x="629" 
d="M279 754l-108 127h58l78 -82l78 82h58l-109 -127h-55zM99 0v680h255c150 0 213 -58 213 -195c0 -117 -47 -177 -156 -192l181 -293h-68l-178 290h-190v-290h-57zM156 343h194c117 0 159 39 159 142s-42 142 -159 142h-194v-284z" />
    <glyph glyph-name="rcaron" unicode="&#x159;" horiz-adv-x="346" 
d="M164 597l-108 127h58l78 -82l78 82h58l-109 -127h-55zM90 0v512h48l2 -105c29 79 81 115 159 115h33v-54h-27c-87 0 -137 -47 -159 -157v-311h-56z" />
    <glyph glyph-name="Sacute" unicode="&#x15a;" horiz-adv-x="556" 
d="M217 754l108 127h72l-122 -127h-58zM281 -12c-157 0 -242 67 -242 192h57c0 -91 65 -139 187 -139c117 0 176 45 176 134s-51 127 -192 146c-156 21 -215 70 -215 181c0 123 82 190 231 190c146 0 222 -64 222 -187h-57c0 90 -54 134 -166 134c-113 0 -173 -45 -173 -130
c0 -82 49 -118 181 -135c165 -21 226 -75 226 -194c0 -127 -80 -192 -235 -192z" />
    <glyph glyph-name="sacute" unicode="&#x15b;" horiz-adv-x="496" 
d="M186 597l108 127h72l-122 -127h-58zM248 -12c-135 0 -206 54 -206 157h54c0 -71 50 -108 151 -108c97 0 147 35 147 99c0 62 -41 89 -156 101c-133 14 -183 52 -183 138c0 95 69 149 192 149s190 -53 190 -152h-55c0 67 -46 104 -134 104s-139 -36 -139 -97
c0 -57 40 -81 149 -92c139 -14 191 -55 191 -147c0 -99 -69 -152 -201 -152z" />
    <glyph glyph-name="Scircumflex" unicode="&#x15c;" horiz-adv-x="556" 
d="M138 754l108 127h55l109 -127h-58l-78 82l-78 -82h-58zM281 -12c-157 0 -242 67 -242 192h57c0 -91 65 -139 187 -139c117 0 176 45 176 134s-51 127 -192 146c-156 21 -215 70 -215 181c0 123 82 190 231 190c146 0 222 -64 222 -187h-57c0 90 -54 134 -166 134
c-113 0 -173 -45 -173 -130c0 -82 49 -118 181 -135c165 -21 226 -75 226 -194c0 -127 -80 -192 -235 -192z" />
    <glyph glyph-name="scircumflex" unicode="&#x15d;" horiz-adv-x="496" 
d="M107 597l108 127h55l109 -127h-58l-78 82l-78 -82h-58zM248 -12c-135 0 -206 54 -206 157h54c0 -71 50 -108 151 -108c97 0 147 35 147 99c0 62 -41 89 -156 101c-133 14 -183 52 -183 138c0 95 69 149 192 149s190 -53 190 -152h-55c0 67 -46 104 -134 104
s-139 -36 -139 -97c0 -57 40 -81 149 -92c139 -14 191 -55 191 -147c0 -99 -69 -152 -201 -152z" />
    <glyph glyph-name="Scedilla" unicode="&#x15e;" horiz-adv-x="556" 
d="M516 180c0 -120 -71 -185 -210 -191l-21 -57h2c60 0 88 -20 88 -62c0 -43 -30 -68 -102 -68c-36 0 -66 6 -90 19l14 34c19 -12 39 -18 68 -18c39 0 56 12 56 35c0 21 -13 29 -59 29h-26l32 87c-149 4 -229 70 -229 192h57c0 -91 65 -139 187 -139c117 0 176 45 176 134
s-51 127 -192 146c-156 21 -215 70 -215 181c0 123 82 190 231 190c146 0 222 -64 222 -187h-57c0 90 -54 134 -166 134c-113 0 -173 -45 -173 -130c0 -82 49 -118 181 -135c165 -21 226 -75 226 -194z" />
    <glyph glyph-name="scedilla" unicode="&#x15f;" horiz-adv-x="496" 
d="M449 140c0 -93 -61 -145 -177 -151l-21 -57h2c60 0 88 -20 88 -62c0 -43 -30 -68 -102 -68c-36 0 -66 6 -90 19l14 34c19 -12 39 -18 68 -18c39 0 56 12 56 35c0 21 -13 29 -59 29h-26l32 87c-126 4 -192 58 -192 157h54c0 -71 50 -108 151 -108c97 0 147 35 147 99
c0 62 -41 89 -156 101c-133 14 -183 52 -183 138c0 95 69 149 192 149s190 -53 190 -152h-55c0 67 -46 104 -134 104s-139 -36 -139 -97c0 -57 40 -81 149 -92c139 -14 191 -55 191 -147z" />
    <glyph glyph-name="Scaron" unicode="&#x160;" horiz-adv-x="556" 
d="M246 754l-108 127h58l78 -82l78 82h58l-109 -127h-55zM281 -12c-157 0 -242 67 -242 192h57c0 -91 65 -139 187 -139c117 0 176 45 176 134s-51 127 -192 146c-156 21 -215 70 -215 181c0 123 82 190 231 190c146 0 222 -64 222 -187h-57c0 90 -54 134 -166 134
c-113 0 -173 -45 -173 -130c0 -82 49 -118 181 -135c165 -21 226 -75 226 -194c0 -127 -80 -192 -235 -192z" />
    <glyph glyph-name="scaron" unicode="&#x161;" horiz-adv-x="496" 
d="M215 597l-108 127h58l78 -82l78 82h58l-109 -127h-55zM248 -12c-135 0 -206 54 -206 157h54c0 -71 50 -108 151 -108c97 0 147 35 147 99c0 62 -41 89 -156 101c-133 14 -183 52 -183 138c0 95 69 149 192 149s190 -53 190 -152h-55c0 67 -46 104 -134 104
s-139 -36 -139 -97c0 -57 40 -81 149 -92c139 -14 191 -55 191 -147c0 -99 -69 -152 -201 -152z" />
    <glyph glyph-name="uni0162" unicode="&#x162;" horiz-adv-x="501" 
d="M279 0h-8l-26 -68h1c60 0 88 -20 88 -62c0 -43 -30 -68 -102 -68c-36 0 -66 6 -90 19l14 34c19 -12 39 -18 68 -18c39 0 56 12 56 35c0 21 -13 29 -59 29h-26l37 99h-10v627h-214v53h486v-53h-215v-627z" />
    <glyph glyph-name="uni0163" unicode="&#x163;" horiz-adv-x="332" 
d="M241 0c-9 0 -17 0 -25 1l-26 -69h2c60 0 88 -20 88 -62c0 -43 -30 -68 -102 -68c-36 0 -66 6 -90 19l14 34c19 -12 39 -18 68 -18c39 0 56 12 56 35c0 21 -13 29 -59 29h-26l40 108c-49 18 -71 63 -71 143v314h-96v46h97l5 140h50v-140h140v-46h-140v-314
c0 -78 21 -103 86 -103h60v-49h-71z" />
    <glyph glyph-name="Tcaron" unicode="&#x164;" horiz-adv-x="501" 
d="M223 754l-108 127h58l78 -82l78 82h58l-109 -127h-55zM222 0v627h-214v53h486v-53h-215v-627h-57z" />
    <glyph glyph-name="tcaron" unicode="&#x165;" horiz-adv-x="332" 
d="M215 580l41 195h61l-59 -195h-43zM241 0c-92 0 -131 45 -131 152v314h-96v46h97l5 140h50v-140h140v-46h-140v-314c0 -78 21 -103 86 -103h60v-49h-71z" />
    <glyph glyph-name="Tbar" unicode="&#x166;" horiz-adv-x="501" 
d="M494 627h-215v-247h144v-53h-144v-327h-57v327h-143v53h143v247h-214v53h486v-53z" />
    <glyph glyph-name="tbar" unicode="&#x167;" horiz-adv-x="332" 
d="M252 49h60v-49h-71c-92 0 -131 45 -131 152v139h-89v46h89v129h-96v46h97l5 140h50v-140h140v-46h-140v-129h131v-46h-131v-139c0 -78 21 -103 86 -103z" />
    <glyph glyph-name="Utilde" unicode="&#x168;" horiz-adv-x="643" 
d="M376 767c-23 0 -36 6 -65 29c-22 17 -31 22 -44 22c-22 0 -33 -16 -38 -52h-41c4 66 31 99 80 99c23 0 36 -7 65 -29c23 -17 31 -23 44 -23c22 0 34 16 38 52h41c-4 -65 -31 -98 -80 -98zM322 -12c-170 0 -242 70 -242 233v459h57v-458c0 -132 50 -181 186 -181
c135 0 185 49 185 181v458h55v-459c0 -163 -72 -233 -241 -233z" />
    <glyph glyph-name="utilde" unicode="&#x169;" horiz-adv-x="571" 
d="M335 610c-23 0 -36 6 -65 29c-22 17 -31 22 -44 22c-22 0 -33 -16 -38 -52h-41c4 66 31 99 80 99c23 0 36 -7 65 -29c23 -17 31 -23 44 -23c22 0 34 16 38 52h41c-4 -65 -31 -98 -80 -98zM244 -12c-107 0 -162 64 -162 185v339h56v-333c0 -94 37 -140 115 -140
c73 0 131 41 172 136v337h56v-512h-48l-2 101c-44 -76 -106 -113 -187 -113z" />
    <glyph glyph-name="Umacron" unicode="&#x16a;" horiz-adv-x="643" 
d="M215 795v45h214v-45h-214zM322 -12c-170 0 -242 70 -242 233v459h57v-458c0 -132 50 -181 186 -181c135 0 185 49 185 181v458h55v-459c0 -163 -72 -233 -241 -233z" />
    <glyph glyph-name="umacron" unicode="&#x16b;" horiz-adv-x="571" 
d="M174 638v45h214v-45h-214zM244 -12c-107 0 -162 64 -162 185v339h56v-333c0 -94 37 -140 115 -140c73 0 131 41 172 136v337h56v-512h-48l-2 101c-44 -76 -106 -113 -187 -113z" />
    <glyph glyph-name="Ubreve" unicode="&#x16c;" horiz-adv-x="643" 
d="M322 757c75 0 117 45 122 116h-46c-3 -43 -28 -70 -76 -70s-73 27 -76 70h-45c5 -71 47 -116 121 -116zM322 -12c-170 0 -242 70 -242 233v459h57v-458c0 -132 50 -181 186 -181c135 0 185 49 185 181v458h55v-459c0 -163 -72 -233 -241 -233z" />
    <glyph glyph-name="ubreve" unicode="&#x16d;" horiz-adv-x="571" 
d="M281 600c75 0 117 45 122 116h-46c-3 -43 -28 -70 -76 -70s-73 27 -76 70h-45c5 -71 47 -116 121 -116zM244 -12c-107 0 -162 64 -162 185v339h56v-333c0 -94 37 -140 115 -140c73 0 131 41 172 136v337h56v-512h-48l-2 101c-44 -76 -106 -113 -187 -113z" />
    <glyph glyph-name="Uring" unicode="&#x16e;" horiz-adv-x="643" 
d="M322 742c-53 0 -92 38 -92 90s39 90 92 90s92 -38 92 -90s-39 -90 -92 -90zM322 782c28 0 48 20 48 50s-20 50 -48 50c-29 0 -49 -20 -49 -50s20 -50 49 -50zM322 -12c-170 0 -242 70 -242 233v459h57v-458c0 -132 50 -181 186 -181c135 0 185 49 185 181v458h55v-459
c0 -163 -72 -233 -241 -233z" />
    <glyph glyph-name="uring" unicode="&#x16f;" horiz-adv-x="571" 
d="M281 585c-53 0 -92 38 -92 90s39 90 92 90s92 -38 92 -90s-39 -90 -92 -90zM281 625c28 0 48 20 48 50s-20 50 -48 50c-29 0 -49 -20 -49 -50s20 -50 49 -50zM244 -12c-107 0 -162 64 -162 185v339h56v-333c0 -94 37 -140 115 -140c73 0 131 41 172 136v337h56v-512h-48
l-2 101c-44 -76 -106 -113 -187 -113z" />
    <glyph glyph-name="Uhungarumlaut" unicode="&#x170;" horiz-adv-x="643" 
d="M198 754l85 127h70l-101 -127h-54zM356 754l86 127h69l-101 -127h-54zM322 -12c-170 0 -242 70 -242 233v459h57v-458c0 -132 50 -181 186 -181c135 0 185 49 185 181v458h55v-459c0 -163 -72 -233 -241 -233z" />
    <glyph glyph-name="uhungarumlaut" unicode="&#x171;" horiz-adv-x="571" 
d="M157 597l85 127h70l-101 -127h-54zM315 597l86 127h69l-101 -127h-54zM244 -12c-107 0 -162 64 -162 185v339h56v-333c0 -94 37 -140 115 -140c73 0 131 41 172 136v337h56v-512h-48l-2 101c-44 -76 -106 -113 -187 -113z" />
    <glyph glyph-name="Uogonek" unicode="&#x172;" horiz-adv-x="643" 
d="M508 680h55v-459c0 -128 -44 -198 -144 -223c-66 -28 -100 -63 -100 -105c0 -31 18 -47 50 -47c18 0 34 5 54 17v-47c-17 -10 -37 -14 -62 -14c-59 0 -92 29 -92 80c0 40 21 76 63 106h-10c-170 0 -242 70 -242 233v459h57v-458c0 -132 50 -181 186 -181
c135 0 185 49 185 181v458z" />
    <glyph glyph-name="uogonek" unicode="&#x173;" horiz-adv-x="571" 
d="M466 0c-58 -33 -89 -67 -89 -107c0 -31 18 -47 50 -47c18 0 35 5 54 17v-47c-19 -9 -39 -14 -63 -14c-58 0 -91 29 -91 80c0 52 34 97 106 138l-2 81c-44 -76 -106 -113 -187 -113c-107 0 -162 64 -162 185v339h56v-333c0 -94 37 -140 115 -140c73 0 131 41 172 136v337
h56v-512h-15z" />
    <glyph glyph-name="Wcircumflex" unicode="&#x174;" horiz-adv-x="871" 
d="M300 754l108 127h55l109 -127h-58l-78 82l-78 -82h-58zM205 0l-192 680h59l165 -590l170 590h58l171 -592l165 592h57l-192 -680h-60l-171 586l-171 -586h-59z" />
    <glyph glyph-name="wcircumflex" unicode="&#x175;" horiz-adv-x="772" 
d="M250 597l108 127h55l109 -127h-58l-78 82l-78 -82h-58zM183 0l-168 512h59l141 -442l144 442h56l143 -442l141 442h57l-168 -512h-60l-142 433l-142 -433h-61z" />
    <glyph glyph-name="Ycircumflex" unicode="&#x176;" horiz-adv-x="540" 
d="M134 754l108 127h55l109 -127h-58l-78 82l-78 -82h-58zM241 0v299l-244 381h68l206 -322l206 322h65l-244 -381v-299h-57z" />
    <glyph glyph-name="ycircumflex" unicode="&#x177;" horiz-adv-x="461" 
d="M96 597l108 127h55l109 -127h-58l-78 82l-78 -82h-58zM57 -182v49h34c47 0 65 15 85 69l32 87l-193 489h60l163 -419l151 419h57l-216 -584c-31 -84 -63 -110 -134 -110h-39z" />
    <glyph glyph-name="Ydieresis" unicode="&#x178;" horiz-adv-x="540" 
d="M154 777v79h64v-79h-64zM322 777v79h64v-79h-64zM241 0v299l-244 381h68l206 -322l206 322h65l-244 -381v-299h-57z" />
    <glyph glyph-name="Zacute" unicode="&#x179;" horiz-adv-x="542" 
d="M218 754l108 127h72l-122 -127h-58zM32 0v48l398 579h-380v53h451v-48l-398 -579h407v-53h-478z" />
    <glyph glyph-name="zacute" unicode="&#x17a;" horiz-adv-x="455" 
d="M173 597l108 127h72l-122 -127h-58zM32 0v42l314 422h-293v48h363v-42l-313 -421h318v-49h-389z" />
    <glyph glyph-name="Zdotaccent" unicode="&#x17b;" horiz-adv-x="542" 
d="M243 777v79h64v-79h-64zM32 0v48l398 579h-380v53h451v-48l-398 -579h407v-53h-478z" />
    <glyph glyph-name="zdotaccent" unicode="&#x17c;" horiz-adv-x="455" 
d="M198 620v79h64v-79h-64zM32 0v42l314 422h-293v48h363v-42l-313 -421h318v-49h-389z" />
    <glyph glyph-name="Zcaron" unicode="&#x17d;" horiz-adv-x="542" 
d="M247 754l-108 127h58l78 -82l78 82h58l-109 -127h-55zM32 0v48l398 579h-380v53h451v-48l-398 -579h407v-53h-478z" />
    <glyph glyph-name="zcaron" unicode="&#x17e;" horiz-adv-x="455" 
d="M202 597l-108 127h58l78 -82l78 82h58l-109 -127h-55zM32 0v42l314 422h-293v48h363v-42l-313 -421h318v-49h-389z" />
    <glyph glyph-name="florin" unicode="&#x192;" 
d="M58 -60l5 49h55c69 0 99 30 109 113l38 306h-138v49h144l11 88c14 110 58 155 154 155h80l-5 -49h-65c-69 0 -99 -29 -109 -113l-10 -81h162v-49h-168l-38 -313c-13 -110 -59 -155 -154 -155h-71z" />
    <glyph glyph-name="Aringacute" unicode="&#x1fa;" 
d="M244 941l108 127h72l-122 -127h-58zM301 724c-53 0 -92 38 -92 90s39 90 92 90s92 -38 92 -90s-39 -90 -92 -90zM301 764c28 0 48 20 48 50s-20 50 -48 50c-29 0 -49 -20 -49 -50s20 -50 49 -50zM12 0l260 680h58l259 -680h-61l-73 192h-311l-73 -192h-59zM164 245h271
l-135 364z" />
    <glyph glyph-name="aringacute" unicode="&#x1fb;" horiz-adv-x="542" 
d="M205 784l108 127h72l-122 -127h-58zM262 567c-53 0 -92 38 -92 90s39 90 92 90s92 -38 92 -90s-39 -90 -92 -90zM262 607c28 0 48 20 48 50s-20 50 -48 50c-29 0 -49 -20 -49 -50s20 -50 49 -50zM217 -12c-104 0 -167 54 -167 152c0 100 65 155 210 155h146v46
c0 90 -46 134 -142 134c-89 0 -139 -38 -144 -112h-55c10 106 78 161 201 161c130 0 196 -62 196 -183v-341h-48l-2 85c-47 -64 -113 -97 -195 -97zM224 36c78 0 140 38 182 110v101h-143c-111 0 -157 -33 -157 -105c0 -69 41 -106 118 -106z" />
    <glyph glyph-name="AEacute" unicode="&#x1fc;" horiz-adv-x="896" 
d="M402 754l108 127h72l-122 -127h-58zM-3 0l419 680h433v-53h-353v-251h303v-53h-303v-270h363v-53h-420v192h-259l-119 -192h-64zM212 245h227v374z" />
    <glyph glyph-name="aeacute" unicode="&#x1fd;" horiz-adv-x="889" 
d="M382 597l108 127h72l-122 -127h-58zM220 -12c-106 0 -170 53 -170 151c0 100 67 156 209 156h147v46c0 90 -45 134 -142 134c-89 0 -138 -38 -144 -112h-55c10 106 79 161 198 161c96 0 154 -35 177 -103c29 68 89 103 181 103c134 0 208 -76 208 -217v-63h-367v-35
c0 -116 53 -172 160 -172c91 0 143 42 149 113h54c-7 -105 -80 -162 -203 -162c-98 0 -164 37 -195 107c-54 -75 -124 -107 -207 -107zM462 292h313v11c0 116 -51 172 -156 172c-106 0 -157 -56 -157 -172v-11zM226 36c79 0 139 37 184 117c-3 16 -4 34 -4 52v42h-143
c-110 0 -157 -34 -157 -106c0 -68 42 -105 120 -105z" />
    <glyph glyph-name="Oslashacute" unicode="&#x1fe;" horiz-adv-x="654" 
d="M450 881l-122 -127h-58l108 127h72zM586 663l-45 -64c30 -42 45 -100 45 -171v-176c0 -173 -90 -264 -259 -264c-76 0 -136 18 -179 55l-39 -55l-41 29l45 64c-30 42 -45 100 -45 171v176c0 173 90 264 259 264c76 0 136 -18 179 -55l39 55zM126 255c0 -50 8 -91 23 -123
l325 460c-33 31 -82 47 -146 47c-136 0 -202 -69 -202 -214v-170zM529 425c0 50 -8 91 -24 124l-325 -460c34 -32 83 -48 148 -48c135 0 201 69 201 214v170z" />
    <glyph glyph-name="oslashacute" unicode="&#x1ff;" horiz-adv-x="560" 
d="M402 724l-122 -127h-58l108 127h72zM497 494l-38 -49c25 -35 38 -83 38 -142v-94c0 -143 -77 -221 -217 -221c-61 0 -110 15 -146 43l-34 -43l-37 30l38 48c-25 36 -38 84 -38 143v94c0 143 76 221 217 221c61 0 110 -15 146 -43l34 43zM119 213c0 -40 6 -73 19 -99
l255 324c-27 25 -64 37 -113 37c-107 0 -161 -60 -161 -175v-87zM441 300c0 39 -6 72 -19 99l-255 -325c27 -25 64 -37 113 -37c107 0 161 60 161 176v87z" />
    <glyph glyph-name="Scommaaccent" unicode="&#x218;" horiz-adv-x="556" 
d="M281 -12c-157 0 -242 67 -242 192h57c0 -91 65 -139 187 -139c117 0 176 45 176 134s-51 127 -192 146c-156 21 -215 70 -215 181c0 123 82 190 231 190c146 0 222 -64 222 -187h-57c0 90 -54 134 -166 134c-113 0 -173 -45 -173 -130c0 -82 49 -118 181 -135
c165 -21 226 -75 226 -194c0 -127 -80 -192 -235 -192zM250 -225v32c29 0 36 18 36 46h-26v64h64v-57c0 -52 -16 -84 -74 -85z" />
    <glyph glyph-name="scommaaccent" unicode="&#x219;" horiz-adv-x="496" 
d="M248 -12c-135 0 -206 54 -206 157h54c0 -71 50 -108 151 -108c97 0 147 35 147 99c0 62 -41 89 -156 101c-133 14 -183 52 -183 138c0 95 69 149 192 149s190 -53 190 -152h-55c0 67 -46 104 -134 104s-139 -36 -139 -97c0 -57 40 -81 149 -92c139 -14 191 -55 191 -147
c0 -99 -69 -152 -201 -152zM216 -225v32c29 0 36 18 36 46h-26v64h64v-57c0 -52 -16 -84 -74 -85z" />
    <glyph glyph-name="uni021A" unicode="&#x21a;" horiz-adv-x="501" 
d="M222 0v627h-214v53h486v-53h-215v-627h-57zM209 -225v32c29 0 36 18 36 46h-26v64h64v-57c0 -52 -16 -84 -74 -85z" />
    <glyph glyph-name="uni021B" unicode="&#x21b;" horiz-adv-x="332" 
d="M241 0c-92 0 -131 45 -131 152v314h-96v46h97l5 140h50v-140h140v-46h-140v-314c0 -78 21 -103 86 -103h60v-49h-71zM155 -225v32c29 0 36 18 36 46h-26v64h64v-57c0 -52 -16 -84 -74 -85z" />
    <glyph glyph-name="uni0237" unicode="&#x237;" horiz-adv-x="236" 
d="M-3 -182v49h22c56 0 71 19 71 86v559h56v-558c0 -96 -34 -136 -117 -136h-32z" />
    <glyph glyph-name="uni02BC" unicode="&#x2bc;" horiz-adv-x="127" 
d="M27 568v31c26 1 34 17 34 44v8h-24v72h62v-70c0 -51 -15 -84 -72 -85z" />
    <glyph glyph-name="circumflex" unicode="&#x2c6;" horiz-adv-x="500" 
d="M114 597l108 127h55l109 -127h-58l-78 82l-78 -82h-58z" />
    <glyph glyph-name="caron" unicode="&#x2c7;" horiz-adv-x="500" 
d="M222 597l-108 127h58l78 -82l78 82h58l-109 -127h-55z" />
    <glyph glyph-name="uni02C9" unicode="&#x2c9;" horiz-adv-x="500" 
d="M143 638v45h214v-45h-214z" />
    <glyph glyph-name="breve" unicode="&#x2d8;" horiz-adv-x="500" 
d="M250 600c75 0 117 45 122 116h-46c-3 -43 -28 -70 -76 -70s-73 27 -76 70h-45c5 -71 47 -116 121 -116z" />
    <glyph glyph-name="dotaccent" unicode="&#x2d9;" horiz-adv-x="500" 
d="M218 620v79h64v-79h-64z" />
    <glyph glyph-name="ring" unicode="&#x2da;" horiz-adv-x="500" 
d="M250 585c-53 0 -92 38 -92 90s39 90 92 90s92 -38 92 -90s-39 -90 -92 -90zM250 625c28 0 48 20 48 50s-20 50 -48 50c-29 0 -49 -20 -49 -50s20 -50 49 -50z" />
    <glyph glyph-name="ogonek" unicode="&#x2db;" horiz-adv-x="500" 
d="M264 -198c-58 0 -91 29 -91 80c0 57 41 106 127 150l23 -26c-65 -35 -100 -71 -100 -113c0 -31 18 -47 50 -47c18 0 35 5 54 17v-47c-19 -9 -39 -14 -63 -14z" />
    <glyph glyph-name="tilde" unicode="&#x2dc;" horiz-adv-x="500" 
d="M304 610c-23 0 -36 6 -65 29c-22 17 -31 22 -44 22c-22 0 -33 -16 -38 -52h-41c4 66 31 99 80 99c23 0 36 -7 65 -29c23 -17 31 -23 44 -23c22 0 34 16 38 52h41c-4 -65 -31 -98 -80 -98z" />
    <glyph glyph-name="hungarumlaut" unicode="&#x2dd;" horiz-adv-x="500" 
d="M126 597l85 127h70l-101 -127h-54zM284 597l86 127h69l-101 -127h-54z" />
    <glyph glyph-name="gravecomb" unicode="&#x300;" horiz-adv-x="0" 
d="M-1 597l-122 127h72l108 -127h-58z" />
    <glyph glyph-name="acutecomb" unicode="&#x301;" horiz-adv-x="0" 
d="M-57 597l108 127h72l-122 -127h-58z" />
    <glyph glyph-name="uni0302" unicode="&#x302;" horiz-adv-x="0" 
d="M-136 597l108 127h55l109 -127h-58l-78 82l-78 -82h-58z" />
    <glyph glyph-name="tildecomb" unicode="&#x303;" horiz-adv-x="0" 
d="M54 610c-23 0 -36 6 -65 29c-22 17 -31 22 -44 22c-22 0 -33 -16 -38 -52h-41c4 66 31 99 80 99c23 0 36 -7 65 -29c23 -17 31 -23 44 -23c22 0 34 16 38 52h41c-4 -65 -31 -98 -80 -98z" />
    <glyph glyph-name="uni0304" unicode="&#x304;" horiz-adv-x="0" 
d="M-107 638v45h214v-45h-214z" />
    <glyph glyph-name="uni0306" unicode="&#x306;" horiz-adv-x="0" 
d="M0 600c75 0 117 45 122 116h-46c-3 -43 -28 -70 -76 -70s-73 27 -76 70h-45c5 -71 47 -116 121 -116z" />
    <glyph glyph-name="uni0307" unicode="&#x307;" horiz-adv-x="0" 
d="M-32 620v79h64v-79h-64z" />
    <glyph glyph-name="uni0308" unicode="&#x308;" horiz-adv-x="0" 
d="M-116 620v79h64v-79h-64zM52 620v79h64v-79h-64z" />
    <glyph glyph-name="uni030A" unicode="&#x30a;" horiz-adv-x="0" 
d="M0 585c-53 0 -92 38 -92 90s39 90 92 90s92 -38 92 -90s-39 -90 -92 -90zM0 625c28 0 48 20 48 50s-20 50 -48 50c-29 0 -49 -20 -49 -50s20 -50 49 -50z" />
    <glyph glyph-name="uni030B" unicode="&#x30b;" horiz-adv-x="0" 
d="M-124 597l85 127h70l-101 -127h-54zM34 597l86 127h69l-101 -127h-54z" />
    <glyph glyph-name="uni030C" unicode="&#x30c;" horiz-adv-x="0" 
d="M-28 597l-108 127h58l78 -82l78 82h58l-109 -127h-55z" />
    <glyph glyph-name="uni0312" unicode="&#x312;" horiz-adv-x="0" 
d="M-32 596v56c0 52 16 84 74 85v-31c-29 -1 -35 -18 -35 -46h25v-64h-64z" />
    <glyph glyph-name="uni0326" unicode="&#x326;" horiz-adv-x="0" 
d="M-42 -225v32c29 0 36 18 36 46h-26v64h64v-57c0 -52 -16 -84 -74 -85z" />
    <glyph glyph-name="uni0327" unicode="&#x327;" horiz-adv-x="0" 
d="M-19 -198c-36 0 -66 6 -90 19l14 34c19 -12 39 -18 68 -18c39 0 56 12 56 35c0 21 -13 29 -59 29h-26l42 114h38l-31 -83h2c60 0 88 -20 88 -62c0 -43 -30 -68 -102 -68z" />
    <glyph glyph-name="uni0328" unicode="&#x328;" horiz-adv-x="0" 
d="M14 -198c-58 0 -91 29 -91 80c0 57 41 106 127 150l23 -26c-65 -35 -100 -71 -100 -113c0 -31 18 -47 50 -47c18 0 35 5 54 17v-47c-19 -9 -39 -14 -63 -14z" />
    <glyph glyph-name="uni0394" unicode="&#x394;" horiz-adv-x="594" 
d="M12 0l255 680h60l255 -680h-570zM91 53h409l-204 549z" />
    <glyph glyph-name="uni03A9" unicode="&#x3a9;" horiz-adv-x="654" 
d="M73 0v53h95c-62 38 -100 114 -100 212v163c0 173 90 264 259 264s259 -91 259 -264v-163c0 -98 -38 -174 -100 -212h95v-53h-204v47c97 18 152 94 152 211v167c0 145 -66 214 -202 214s-202 -69 -202 -214v-167c0 -117 55 -193 152 -211v-47h-204z" />
    <glyph glyph-name="uni03BC" unicode="&#x3bc;" horiz-adv-x="578" 
d="M90 -182v694h56v-333c0 -94 36 -140 113 -140c74 0 130 41 173 136v337h56v-512h-48l-2 103c-45 -78 -108 -115 -185 -115c-46 0 -82 13 -107 38v-208h-56z" />
    <glyph glyph-name="pi" unicode="&#x3c0;" horiz-adv-x="587" 
d="M115 0v463h-101v49h553v-49h-102v-324c0 -69 18 -90 71 -90h30v-49h-45c-80 0 -112 39 -112 137v326h-238v-463h-56z" />
    <glyph glyph-name="Wgrave" unicode="&#x1e80;" horiz-adv-x="871" 
d="M435 754l-122 127h72l108 -127h-58zM205 0l-192 680h59l165 -590l170 590h58l171 -592l165 592h57l-192 -680h-60l-171 586l-171 -586h-59z" />
    <glyph glyph-name="wgrave" unicode="&#x1e81;" horiz-adv-x="772" 
d="M385 597l-122 127h72l108 -127h-58zM183 0l-168 512h59l141 -442l144 442h56l143 -442l141 442h57l-168 -512h-60l-142 433l-142 -433h-61z" />
    <glyph glyph-name="Wacute" unicode="&#x1e82;" horiz-adv-x="871" 
d="M379 754l108 127h72l-122 -127h-58zM205 0l-192 680h59l165 -590l170 590h58l171 -592l165 592h57l-192 -680h-60l-171 586l-171 -586h-59z" />
    <glyph glyph-name="wacute" unicode="&#x1e83;" horiz-adv-x="772" 
d="M329 597l108 127h72l-122 -127h-58zM183 0l-168 512h59l141 -442l144 442h56l143 -442l141 442h57l-168 -512h-60l-142 433l-142 -433h-61z" />
    <glyph glyph-name="Wdieresis" unicode="&#x1e84;" horiz-adv-x="871" 
d="M320 777v79h64v-79h-64zM488 777v79h64v-79h-64zM205 0l-192 680h59l165 -590l170 590h58l171 -592l165 592h57l-192 -680h-60l-171 586l-171 -586h-59z" />
    <glyph glyph-name="wdieresis" unicode="&#x1e85;" horiz-adv-x="772" 
d="M270 620v79h64v-79h-64zM438 620v79h64v-79h-64zM183 0l-168 512h59l141 -442l144 442h56l143 -442l141 442h57l-168 -512h-60l-142 433l-142 -433h-61z" />
    <glyph glyph-name="uni1E9E" unicode="&#x1e9e;" horiz-adv-x="625" 
d="M81 0v476c0 139 72 204 227 204h236v-48l-188 -248c169 -1 239 -58 239 -193c0 -134 -67 -191 -220 -191h-118v53h113c119 0 167 39 167 137c0 101 -53 142 -189 142h-64v45l189 250h-161c-122 0 -174 -45 -174 -152v-475h-57z" />
    <glyph glyph-name="Ygrave" unicode="&#x1ef2;" horiz-adv-x="540" 
d="M269 754l-122 127h72l108 -127h-58zM241 0v299l-244 381h68l206 -322l206 322h65l-244 -381v-299h-57z" />
    <glyph glyph-name="ygrave" unicode="&#x1ef3;" horiz-adv-x="461" 
d="M231 597l-122 127h72l108 -127h-58zM57 -182v49h34c47 0 65 15 85 69l32 87l-193 489h60l163 -419l151 419h57l-216 -584c-31 -84 -63 -110 -134 -110h-39z" />
    <glyph glyph-name="uni2002" unicode="&#x2002;" horiz-adv-x="500" 
 />
    <glyph glyph-name="uni2003" unicode="&#x2003;" horiz-adv-x="900" 
 />
    <glyph glyph-name="uni2007" unicode="&#x2007;" 
 />
    <glyph glyph-name="uni2008" unicode="&#x2008;" horiz-adv-x="256" 
 />
    <glyph glyph-name="uni200B" unicode="&#x200b;" horiz-adv-x="0" 
 />
    <glyph glyph-name="figuredash" unicode="&#x2012;" 
d="M30 267v48h541v-48h-541z" />
    <glyph glyph-name="endash" unicode="&#x2013;" horiz-adv-x="500" 
d="M30 267v48h440v-48h-440z" />
    <glyph glyph-name="emdash" unicode="&#x2014;" horiz-adv-x="900" 
d="M30 267v48h840v-48h-840z" />
    <glyph glyph-name="quoteleft" unicode="&#x2018;" horiz-adv-x="229" 
d="M80 482v94c0 72 27 112 82 116v-38c-23 -3 -39 -22 -39 -65v-17h25v-90h-68z" />
    <glyph glyph-name="quoteright" unicode="&#x2019;" horiz-adv-x="229" 
d="M68 470v39c23 2 39 21 39 64v18h-26v89h69v-94c0 -71 -27 -111 -82 -116z" />
    <glyph glyph-name="quotesinglbase" unicode="&#x201a;" horiz-adv-x="229" 
d="M68 -121v39c23 2 39 21 39 64v18h-26v89h69v-94c0 -71 -27 -111 -82 -116z" />
    <glyph glyph-name="quotedblleft" unicode="&#x201c;" horiz-adv-x="402" 
d="M80 482v94c0 72 27 112 82 116v-38c-23 -3 -39 -22 -39 -65v-17h25v-90h-68zM253 482v94c0 72 27 112 82 116v-38c-23 -3 -39 -22 -39 -65v-17h25v-90h-68z" />
    <glyph glyph-name="quotedblright" unicode="&#x201d;" horiz-adv-x="402" 
d="M68 470v39c23 2 39 21 39 64v18h-26v89h69v-94c0 -71 -27 -111 -82 -116zM241 470v39c23 2 39 21 39 64v18h-26v89h69v-94c0 -71 -27 -111 -82 -116z" />
    <glyph glyph-name="quotedblbase" unicode="&#x201e;" horiz-adv-x="402" 
d="M68 -121v39c23 2 39 21 39 64v18h-26v89h69v-94c0 -71 -27 -111 -82 -116zM241 -121v39c23 2 39 21 39 64v18h-26v89h69v-94c0 -71 -27 -111 -82 -116z" />
    <glyph glyph-name="dagger" unicode="&#x2020;" horiz-adv-x="584" 
d="M264 -182v557l-225 -5v57l225 -5v258h56v-258l225 5v-57l-225 5v-557h-56z" />
    <glyph glyph-name="daggerdbl" unicode="&#x2021;" horiz-adv-x="584" 
d="M264 -182v238l-225 -5v57l225 -5v292l-225 -5v57l225 -5v238h56v-238l225 5v-57l-225 5v-292l225 5v-57l-225 5v-238h-56z" />
    <glyph glyph-name="bullet" unicode="&#x2022;" horiz-adv-x="500" 
d="M155 194v194h189v-194h-189z" />
    <glyph glyph-name="ellipsis" unicode="&#x2026;" horiz-adv-x="900" 
d="M116 0v89h68v-89h-68zM416 0v89h68v-89h-68zM716 0v89h68v-89h-68z" />
    <glyph glyph-name="perthousand" unicode="&#x2030;" horiz-adv-x="1109" 
d="M185 318c-92 0 -142 47 -142 135v103c0 88 50 136 142 136s142 -48 142 -136v-103c0 -88 -50 -135 -142 -135zM155 -12l404 704h52l-404 -704h-52zM185 362c62 0 93 31 93 95v97c0 63 -31 94 -93 94s-93 -31 -93 -94v-97c0 -64 31 -95 93 -95zM581 -12
c-92 0 -142 48 -142 136v103c0 88 50 135 142 135s142 -47 142 -135v-103c0 -88 -50 -136 -142 -136zM924 -12c-92 0 -142 48 -142 136v103c0 88 50 135 142 135s142 -47 142 -135v-103c0 -88 -50 -136 -142 -136zM581 32c62 0 93 31 93 95v97c0 63 -31 94 -93 94
s-93 -31 -93 -94v-97c0 -64 31 -95 93 -95zM924 32c62 0 93 31 93 95v97c0 63 -31 94 -93 94s-93 -31 -93 -94v-97c0 -64 31 -95 93 -95z" />
    <glyph glyph-name="guilsinglleft" unicode="&#x2039;" horiz-adv-x="259" 
d="M171 82l-145 174l145 174h63l-145 -174l145 -174h-63z" />
    <glyph glyph-name="guilsinglright" unicode="&#x203a;" horiz-adv-x="259" 
d="M26 82l145 174l-145 174h63l145 -174l-145 -174h-63z" />
    <glyph glyph-name="fraction" unicode="&#x2044;" horiz-adv-x="102" 
d="M-160 -12l370 704h51l-369 -704h-52z" />
    <glyph glyph-name="uni2070" unicode="&#x2070;" horiz-adv-x="366" 
d="M183 404c-91 0 -140 48 -140 136v146c0 88 49 136 140 136s140 -48 140 -136v-146c0 -88 -49 -136 -140 -136zM183 448c61 0 91 31 91 95v141c0 63 -30 94 -91 94s-91 -31 -91 -94v-141c0 -64 30 -95 91 -95z" />
    <glyph glyph-name="uni2074" unicode="&#x2074;" horiz-adv-x="366" 
d="M244 416v88h-214v46l211 260h53v-262h51v-44h-51v-88h-50zM84 548h160v200z" />
    <glyph glyph-name="uni2075" unicode="&#x2075;" horiz-adv-x="366" 
d="M182 404c-86 0 -138 40 -140 107h47c1 -39 37 -63 92 -63c64 0 99 31 99 90c0 56 -32 88 -92 88c-34 0 -69 -11 -92 -32h-40l12 216h241v-45h-201l-8 -126c26 20 60 31 99 31c82 0 130 -48 130 -131c0 -88 -53 -135 -147 -135z" />
    <glyph glyph-name="uni2076" unicode="&#x2076;" horiz-adv-x="366" 
d="M189 404c-92 0 -143 48 -143 134v148c0 87 51 136 145 136c85 0 129 -40 132 -105h-47c-3 39 -33 61 -85 61c-64 0 -96 -33 -96 -96v-67c26 33 62 50 110 50c79 0 124 -46 124 -128c0 -87 -48 -133 -140 -133zM189 448c61 0 91 31 91 88c0 56 -29 85 -84 85
c-48 0 -81 -21 -101 -64v-16c0 -60 33 -93 94 -93z" />
    <glyph glyph-name="uni2077" unicode="&#x2077;" horiz-adv-x="366" 
d="M107 416c6 136 64 255 169 349h-241v45h294v-48c-110 -98 -164 -210 -170 -346h-52z" />
    <glyph glyph-name="uni2078" unicode="&#x2078;" horiz-adv-x="366" 
d="M183 404c-99 0 -151 39 -151 115c0 52 25 86 73 102v2c-41 13 -61 44 -61 89c0 70 50 110 139 110s138 -40 138 -110c0 -45 -20 -76 -60 -89v-2c47 -16 73 -50 73 -103c0 -75 -52 -114 -151 -114zM183 640c59 0 91 24 91 69s-32 70 -91 70c-58 0 -91 -25 -91 -70
s32 -69 91 -69zM183 447c67 0 101 26 101 75s-34 75 -101 75s-102 -25 -102 -75s35 -75 102 -75z" />
    <glyph glyph-name="uni2079" unicode="&#x2079;" horiz-adv-x="366" 
d="M175 404c-85 0 -130 40 -132 105h47c2 -39 32 -61 85 -61c64 0 95 33 95 96v66c-26 -32 -62 -49 -110 -49c-79 0 -124 46 -124 128c0 87 49 133 140 133c93 0 143 -48 143 -134v-148c0 -87 -50 -136 -144 -136zM170 605c47 0 80 21 100 64v16c0 60 -32 93 -94 93
c-60 0 -91 -31 -91 -88c0 -56 29 -85 85 -85z" />
    <glyph glyph-name="uni2080" unicode="&#x2080;" horiz-adv-x="366" 
d="M183 -132c-91 0 -140 48 -140 136v146c0 88 49 136 140 136s140 -48 140 -136v-146c0 -88 -49 -136 -140 -136zM183 -88c61 0 91 31 91 95v141c0 63 -30 94 -91 94s-91 -31 -91 -94v-141c0 -64 30 -95 91 -95z" />
    <glyph glyph-name="uni2081" unicode="&#x2081;" horiz-adv-x="366" 
d="M89 -120v44h94v289c-33 -19 -68 -27 -106 -28v39c49 3 82 18 109 50h46v-350h96v-44h-239z" />
    <glyph glyph-name="uni2082" unicode="&#x2082;" horiz-adv-x="366" 
d="M45 -120v29c0 74 36 119 130 162c71 32 97 59 97 101c0 43 -30 70 -85 70c-57 0 -88 -29 -88 -81v-6h-47v12c0 76 49 119 137 119c85 0 132 -42 132 -113c0 -61 -34 -100 -121 -140c-77 -35 -104 -63 -106 -108h227v-45h-276z" />
    <glyph glyph-name="uni2083" unicode="&#x2083;" horiz-adv-x="366" 
d="M186 -132c-93 0 -143 39 -143 111v12h47v-6c0 -48 33 -73 96 -73c61 0 93 24 93 75c0 50 -31 73 -93 73h-47v44h47c54 0 83 22 83 68s-31 70 -85 70c-56 0 -88 -26 -88 -72v-4h-47v7c0 71 52 113 137 113c82 0 131 -40 131 -111c0 -45 -20 -76 -59 -89v-1
c48 -14 70 -48 70 -100c0 -79 -50 -117 -142 -117z" />
    <glyph glyph-name="uni2084" unicode="&#x2084;" horiz-adv-x="366" 
d="M244 -120v88h-214v46l211 260h53v-262h51v-44h-51v-88h-50zM84 12h160v200z" />
    <glyph glyph-name="uni2085" unicode="&#x2085;" horiz-adv-x="366" 
d="M182 -132c-86 0 -138 40 -140 107h47c1 -39 37 -63 92 -63c64 0 99 31 99 90c0 56 -32 88 -92 88c-34 0 -69 -11 -92 -32h-40l12 216h241v-45h-201l-8 -126c26 20 60 31 99 31c82 0 130 -48 130 -131c0 -88 -53 -135 -147 -135z" />
    <glyph glyph-name="uni2086" unicode="&#x2086;" horiz-adv-x="366" 
d="M189 -132c-92 0 -143 48 -143 134v148c0 87 51 136 145 136c85 0 129 -40 132 -105h-47c-3 39 -33 61 -85 61c-64 0 -96 -33 -96 -96v-67c26 33 62 50 110 50c79 0 124 -46 124 -128c0 -87 -48 -133 -140 -133zM189 -88c61 0 91 31 91 88c0 56 -29 85 -84 85
c-48 0 -81 -21 -101 -64v-16c0 -60 33 -93 94 -93z" />
    <glyph glyph-name="uni2087" unicode="&#x2087;" horiz-adv-x="366" 
d="M107 -120c6 136 64 255 169 349h-241v45h294v-48c-110 -98 -164 -210 -170 -346h-52z" />
    <glyph glyph-name="uni2088" unicode="&#x2088;" horiz-adv-x="366" 
d="M183 -132c-99 0 -151 39 -151 115c0 52 25 86 73 102v2c-41 13 -61 44 -61 89c0 70 50 110 139 110s138 -40 138 -110c0 -45 -20 -76 -60 -89v-2c47 -16 73 -50 73 -103c0 -75 -52 -114 -151 -114zM183 104c59 0 91 24 91 69s-32 70 -91 70c-58 0 -91 -25 -91 -70
s32 -69 91 -69zM183 -89c67 0 101 26 101 75s-34 75 -101 75s-102 -25 -102 -75s35 -75 102 -75z" />
    <glyph glyph-name="uni2089" unicode="&#x2089;" horiz-adv-x="366" 
d="M175 -132c-85 0 -130 40 -132 105h47c2 -39 32 -61 85 -61c64 0 95 33 95 96v66c-26 -32 -62 -49 -110 -49c-79 0 -124 46 -124 128c0 87 49 133 140 133c93 0 143 -48 143 -134v-148c0 -87 -50 -136 -144 -136zM170 69c47 0 80 21 100 64v16c0 60 -32 93 -94 93
c-60 0 -91 -31 -91 -88c0 -56 29 -85 85 -85z" />
    <glyph glyph-name="Euro" unicode="&#x20ac;" 
d="M328 -12c-146 0 -227 81 -227 225v30h-58v47h58v100h-58v47h58v30c0 144 81 225 227 225c133 0 208 -68 217 -195h-54c-7 98 -65 144 -163 144c-113 0 -171 -61 -171 -177v-27h230l-7 -47h-223v-100h203l-7 -47h-196v-27c0 -116 58 -177 171 -177c98 0 156 46 163 144h54
c-9 -125 -83 -195 -217 -195z" />
    <glyph glyph-name="uni20B9" unicode="&#x20b9;" 
d="M411 0l-332 291v42h127c128 0 187 42 192 141h-334l11 47h321c-12 79 -66 112 -179 112h-153l11 47h485l-11 -47h-168c41 -23 63 -60 71 -112h108l-11 -47h-95c-4 -128 -84 -188 -245 -188h-41l326 -286h-83z" />
    <glyph glyph-name="uni2113" unicode="&#x2113;" horiz-adv-x="460" 
d="M256 -12c-112 0 -173 64 -173 186v384c0 121 55 184 163 184c98 0 151 -52 151 -159c0 -134 -83 -257 -258 -371v-40c0 -90 43 -133 123 -133c48 0 87 15 125 45l23 -44c-46 -36 -98 -52 -154 -52zM139 272c138 94 202 195 202 307c0 78 -32 112 -95 112
c-73 0 -107 -44 -107 -134v-285z" />
    <glyph glyph-name="uni2116" unicode="&#x2116;" horiz-adv-x="1085" 
d="M99 0v680h70l369 -578v578h56v-680h-56l-383 600v-600h-56zM866 133c-102 0 -156 54 -156 156v65c0 101 54 156 156 156s156 -55 156 -156v-65c0 -102 -54 -156 -156 -156zM867 176c71 0 106 38 106 115v61c0 77 -35 114 -106 114s-106 -37 -106 -114v-61
c0 -77 35 -115 106 -115zM714 0v44h305v-44h-305z" />
    <glyph glyph-name="uni2117" unicode="&#x2117;" horiz-adv-x="779" 
d="M389 -12c-203 0 -352 149 -352 352s149 352 352 352s352 -149 352 -352s-149 -352 -352 -352zM389 34c180 0 302 126 302 306s-122 306 -302 306c-179 0 -301 -126 -301 -306s122 -306 301 -306zM275 160v360h145c89 0 128 -34 128 -111c0 -78 -39 -112 -128 -112h-93
v-137h-52zM327 342h89c57 0 81 19 81 67c0 47 -24 67 -81 67h-89v-134z" />
    <glyph glyph-name="uni2120" unicode="&#x2120;" horiz-adv-x="688" 
d="M136 353c-76 0 -116 32 -116 95h47c0 -37 23 -56 69 -56s68 18 68 52c0 33 -19 49 -80 59c-72 12 -99 37 -99 91c0 61 39 94 111 94c71 0 108 -31 108 -93h-46c0 36 -22 54 -64 54s-63 -19 -63 -51c0 -33 20 -48 77 -57c74 -12 103 -38 103 -94c0 -63 -38 -94 -115 -94z
M320 361v319h69l96 -255l96 255h68v-319h-47v261l-100 -261h-37l-101 264v-264h-44z" />
    <glyph glyph-name="trademark" unicode="&#x2122;" horiz-adv-x="663" 
d="M95 361v278h-94v41h235v-41h-94v-278h-47zM295 361v319h68l96 -255l96 255h69v-319h-47v264l-101 -264h-37l-100 261v-261h-44z" />
    <glyph glyph-name="uni2126" unicode="&#x2126;" horiz-adv-x="654" 
d="M73 0v53h95c-62 38 -100 114 -100 212v163c0 173 90 264 259 264s259 -91 259 -264v-163c0 -98 -38 -174 -100 -212h95v-53h-204v47c97 18 152 94 152 211v167c0 145 -66 214 -202 214s-202 -69 -202 -214v-167c0 -117 55 -193 152 -211v-47h-204z" />
    <glyph glyph-name="estimated" unicode="&#x212e;" horiz-adv-x="804" 
d="M411 -12c-205 0 -371 157 -371 352c0 194 166 352 371 352s371 -158 371 -352v-9h-601c-3 0 -5 -2 -5 -5v-191c0 -9 4 -15 9 -21c56 -66 138 -105 228 -105c94 0 181 46 239 117h54c-68 -84 -175 -138 -295 -138zM181 351h461c4 0 6 2 6 6v193c0 8 -4 16 -10 22
c-59 62 -139 99 -225 99c-90 0 -170 -39 -228 -103c-5 -6 -9 -14 -9 -22v-190c0 -3 2 -5 5 -5z" />
    <glyph glyph-name="uni2153" unicode="&#x2153;" horiz-adv-x="834" 
d="M206 -12l370 704h51l-369 -704h-52zM89 286v44h94v289c-33 -19 -68 -27 -106 -28v39c49 3 82 18 109 50h46v-350h96v-44h-239zM654 -12c-93 0 -143 39 -143 111v12h47v-6c0 -48 33 -73 96 -73c61 0 93 24 93 75c0 50 -31 73 -93 73h-47v44h47c54 0 83 22 83 68
s-31 70 -85 70c-56 0 -88 -26 -88 -72v-4h-47v7c0 71 52 113 137 113c82 0 131 -40 131 -111c0 -45 -20 -76 -59 -89v-1c48 -14 70 -48 70 -100c0 -79 -50 -117 -142 -117z" />
    <glyph glyph-name="uni2154" unicode="&#x2154;" horiz-adv-x="834" 
d="M45 286v29c0 74 36 119 130 162c71 32 97 59 97 101c0 43 -30 70 -85 70c-57 0 -88 -29 -88 -81v-6h-47v12c0 76 49 119 137 119c85 0 132 -42 132 -113c0 -61 -34 -100 -121 -140c-77 -35 -104 -63 -106 -108h227v-45h-276zM206 -12l370 704h51l-369 -704h-52zM654 -12
c-93 0 -143 39 -143 111v12h47v-6c0 -48 33 -73 96 -73c61 0 93 24 93 75c0 50 -31 73 -93 73h-47v44h47c54 0 83 22 83 68s-31 70 -85 70c-56 0 -88 -26 -88 -72v-4h-47v7c0 71 52 113 137 113c82 0 131 -40 131 -111c0 -45 -20 -76 -59 -89v-1c48 -14 70 -48 70 -100
c0 -79 -50 -117 -142 -117z" />
    <glyph glyph-name="uni2155" unicode="&#x2155;" horiz-adv-x="834" 
d="M206 -12l370 704h51l-369 -704h-52zM89 286v44h94v289c-33 -19 -68 -27 -106 -28v39c49 3 82 18 109 50h46v-350h96v-44h-239zM650 -12c-86 0 -138 40 -140 107h47c1 -39 37 -63 92 -63c64 0 99 31 99 90c0 56 -32 88 -92 88c-34 0 -69 -11 -92 -32h-40l12 216h241v-45
h-201l-8 -126c26 20 60 31 99 31c82 0 130 -48 130 -131c0 -88 -53 -135 -147 -135z" />
    <glyph glyph-name="uni2156" unicode="&#x2156;" horiz-adv-x="834" 
d="M45 286v29c0 74 36 119 130 162c71 32 97 59 97 101c0 43 -30 70 -85 70c-57 0 -88 -29 -88 -81v-6h-47v12c0 76 49 119 137 119c85 0 132 -42 132 -113c0 -61 -34 -100 -121 -140c-77 -35 -104 -63 -106 -108h227v-45h-276zM206 -12l370 704h51l-369 -704h-52zM650 -12
c-86 0 -138 40 -140 107h47c1 -39 37 -63 92 -63c64 0 99 31 99 90c0 56 -32 88 -92 88c-34 0 -69 -11 -92 -32h-40l12 216h241v-45h-201l-8 -126c26 20 60 31 99 31c82 0 130 -48 130 -131c0 -88 -53 -135 -147 -135z" />
    <glyph glyph-name="uni2157" unicode="&#x2157;" horiz-adv-x="834" 
d="M186 274c-93 0 -143 39 -143 111v12h47v-6c0 -48 33 -73 96 -73c61 0 93 24 93 75c0 50 -31 73 -93 73h-47v44h47c54 0 83 22 83 68s-31 70 -85 70c-56 0 -88 -26 -88 -72v-4h-47v7c0 71 52 113 137 113c82 0 131 -40 131 -111c0 -45 -20 -76 -59 -89v-1
c48 -14 70 -48 70 -100c0 -79 -50 -117 -142 -117zM206 -12l370 704h51l-369 -704h-52zM650 -12c-86 0 -138 40 -140 107h47c1 -39 37 -63 92 -63c64 0 99 31 99 90c0 56 -32 88 -92 88c-34 0 -69 -11 -92 -32h-40l12 216h241v-45h-201l-8 -126c26 20 60 31 99 31
c82 0 130 -48 130 -131c0 -88 -53 -135 -147 -135z" />
    <glyph glyph-name="uni2158" unicode="&#x2158;" horiz-adv-x="834" 
d="M206 -12l370 704h51l-369 -704h-52zM244 286v88h-214v46l211 260h53v-262h51v-44h-51v-88h-50zM84 418h160v200zM650 -12c-86 0 -138 40 -140 107h47c1 -39 37 -63 92 -63c64 0 99 31 99 90c0 56 -32 88 -92 88c-34 0 -69 -11 -92 -32h-40l12 216h241v-45h-201l-8 -126
c26 20 60 31 99 31c82 0 130 -48 130 -131c0 -88 -53 -135 -147 -135z" />
    <glyph glyph-name="uni2159" unicode="&#x2159;" horiz-adv-x="834" 
d="M206 -12l370 704h51l-369 -704h-52zM89 286v44h94v289c-33 -19 -68 -27 -106 -28v39c49 3 82 18 109 50h46v-350h96v-44h-239zM657 -12c-92 0 -143 48 -143 134v148c0 87 51 136 145 136c85 0 129 -40 132 -105h-47c-3 39 -33 61 -85 61c-64 0 -96 -33 -96 -96v-67
c26 33 62 50 110 50c79 0 124 -46 124 -128c0 -87 -48 -133 -140 -133zM657 32c61 0 91 31 91 88c0 56 -29 85 -84 85c-48 0 -81 -21 -101 -64v-16c0 -60 33 -93 94 -93z" />
    <glyph glyph-name="uni215A" unicode="&#x215a;" horiz-adv-x="834" 
d="M206 -12l370 704h51l-369 -704h-52zM182 274c-86 0 -138 40 -140 107h47c1 -39 37 -63 92 -63c64 0 99 31 99 90c0 56 -32 88 -92 88c-34 0 -69 -11 -92 -32h-40l12 216h241v-45h-201l-8 -126c26 20 60 31 99 31c82 0 130 -48 130 -131c0 -88 -53 -135 -147 -135z
M657 -12c-92 0 -143 48 -143 134v148c0 87 51 136 145 136c85 0 129 -40 132 -105h-47c-3 39 -33 61 -85 61c-64 0 -96 -33 -96 -96v-67c26 33 62 50 110 50c79 0 124 -46 124 -128c0 -87 -48 -133 -140 -133zM657 32c61 0 91 31 91 88c0 56 -29 85 -84 85
c-48 0 -81 -21 -101 -64v-16c0 -60 33 -93 94 -93z" />
    <glyph glyph-name="oneeighth" unicode="&#x215b;" horiz-adv-x="834" 
d="M206 -12l370 704h51l-369 -704h-52zM89 286v44h94v289c-33 -19 -68 -27 -106 -28v39c49 3 82 18 109 50h46v-350h96v-44h-239zM651 -12c-99 0 -151 39 -151 115c0 52 25 86 73 102v2c-41 13 -61 44 -61 89c0 70 50 110 139 110s138 -40 138 -110c0 -45 -20 -76 -60 -89
v-2c47 -16 73 -50 73 -103c0 -75 -52 -114 -151 -114zM651 224c59 0 91 24 91 69s-32 70 -91 70c-58 0 -91 -25 -91 -70s32 -69 91 -69zM651 31c67 0 101 26 101 75s-34 75 -101 75s-102 -25 -102 -75s35 -75 102 -75z" />
    <glyph glyph-name="threeeighths" unicode="&#x215c;" horiz-adv-x="834" 
d="M186 274c-93 0 -143 39 -143 111v12h47v-6c0 -48 33 -73 96 -73c61 0 93 24 93 75c0 50 -31 73 -93 73h-47v44h47c54 0 83 22 83 68s-31 70 -85 70c-56 0 -88 -26 -88 -72v-4h-47v7c0 71 52 113 137 113c82 0 131 -40 131 -111c0 -45 -20 -76 -59 -89v-1
c48 -14 70 -48 70 -100c0 -79 -50 -117 -142 -117zM206 -12l370 704h51l-369 -704h-52zM651 -12c-99 0 -151 39 -151 115c0 52 25 86 73 102v2c-41 13 -61 44 -61 89c0 70 50 110 139 110s138 -40 138 -110c0 -45 -20 -76 -60 -89v-2c47 -16 73 -50 73 -103
c0 -75 -52 -114 -151 -114zM651 224c59 0 91 24 91 69s-32 70 -91 70c-58 0 -91 -25 -91 -70s32 -69 91 -69zM651 31c67 0 101 26 101 75s-34 75 -101 75s-102 -25 -102 -75s35 -75 102 -75z" />
    <glyph glyph-name="fiveeighths" unicode="&#x215d;" horiz-adv-x="834" 
d="M206 -12l370 704h51l-369 -704h-52zM182 274c-86 0 -138 40 -140 107h47c1 -39 37 -63 92 -63c64 0 99 31 99 90c0 56 -32 88 -92 88c-34 0 -69 -11 -92 -32h-40l12 216h241v-45h-201l-8 -126c26 20 60 31 99 31c82 0 130 -48 130 -131c0 -88 -53 -135 -147 -135z
M651 -12c-99 0 -151 39 -151 115c0 52 25 86 73 102v2c-41 13 -61 44 -61 89c0 70 50 110 139 110s138 -40 138 -110c0 -45 -20 -76 -60 -89v-2c47 -16 73 -50 73 -103c0 -75 -52 -114 -151 -114zM651 224c59 0 91 24 91 69s-32 70 -91 70c-58 0 -91 -25 -91 -70
s32 -69 91 -69zM651 31c67 0 101 26 101 75s-34 75 -101 75s-102 -25 -102 -75s35 -75 102 -75z" />
    <glyph glyph-name="seveneighths" unicode="&#x215e;" horiz-adv-x="834" 
d="M173 -12l370 704h51l-369 -704h-52zM107 286c6 136 64 255 169 349h-241v45h294v-48c-110 -98 -164 -210 -170 -346h-52zM651 -12c-99 0 -151 39 -151 115c0 52 25 86 73 102v2c-41 13 -61 44 -61 89c0 70 50 110 139 110s138 -40 138 -110c0 -45 -20 -76 -60 -89v-2
c47 -16 73 -50 73 -103c0 -75 -52 -114 -151 -114zM651 224c59 0 91 24 91 69s-32 70 -91 70c-58 0 -91 -25 -91 -70s32 -69 91 -69zM651 31c67 0 101 26 101 75s-34 75 -101 75s-102 -25 -102 -75s35 -75 102 -75z" />
    <glyph glyph-name="arrowleft" unicode="&#x2190;" horiz-adv-x="800" 
d="M363 30l-309 310l309 310l34 -33l-252 -251h600v-52h-600l252 -251z" />
    <glyph glyph-name="arrowup" unicode="&#x2191;" horiz-adv-x="800" 
d="M373 0v600l-252 -254l-33 33l312 313l312 -313l-33 -33l-253 255v-601h-53z" />
    <glyph glyph-name="arrowright" unicode="&#x2192;" horiz-adv-x="800" 
d="M436 32l-33 33l251 251h-600v52h600l-251 251l33 33l310 -310z" />
    <glyph glyph-name="arrowdown" unicode="&#x2193;" horiz-adv-x="800" 
d="M400 -12l-312 313l33 33l252 -254v600h53v-601l253 255l33 -33z" />
    <glyph glyph-name="arrowboth" unicode="&#x2194;" horiz-adv-x="1000" 
d="M343 50l-289 290l289 290l34 -33l-232 -231h709l-231 231l33 33l290 -290l-290 -290l-33 33l231 231h-709l232 -231z" />
    <glyph glyph-name="arrowupdn" unicode="&#x2195;" horiz-adv-x="800" 
d="M400 -84l-291 291l33 33l231 -233v666l-231 -233l-33 33l291 291l290 -291l-33 -33l-231 233v-666l231 233l33 -33z" />
    <glyph glyph-name="uni2196" unicode="&#x2196;" horiz-adv-x="800" 
d="M659 50l-476 475l2 -345h-49v428h428v-46l-346 1l477 -477z" />
    <glyph glyph-name="uni2197" unicode="&#x2197;" horiz-adv-x="800" 
d="M142 50l-36 36l477 477l-347 -1v46h428v-428h-49l1 343z" />
    <glyph glyph-name="uni2198" unicode="&#x2198;" horiz-adv-x="800" 
d="M236 72v46l347 -1l-477 477l36 36l474 -473l-1 343h49v-428h-428z" />
    <glyph glyph-name="uni2199" unicode="&#x2199;" horiz-adv-x="800" 
d="M136 72v428h49l-2 -345l476 475l36 -36l-477 -477l346 1v-46h-428z" />
    <glyph glyph-name="partialdiff" unicode="&#x2202;" horiz-adv-x="603" 
d="M260 -12c-135 0 -214 86 -214 222c0 150 95 254 237 254c89 0 159 -41 198 -113c1 15 1 31 1 47c0 201 -58 295 -203 295c-59 0 -106 -16 -144 -47v57c40 26 93 39 153 39c171 0 250 -105 250 -339c0 -262 -98 -415 -278 -415zM262 37c114 0 185 82 210 229
c-25 90 -94 148 -187 148c-110 0 -183 -82 -183 -203c0 -108 58 -174 160 -174z" />
    <glyph glyph-name="emptyset" unicode="&#x2205;" horiz-adv-x="845" 
d="M105 -12l-34 34l84 84c-53 61 -84 142 -84 234c0 202 149 352 352 352c92 0 173 -31 233 -84l84 84l34 -34l-84 -84c53 -61 84 -142 84 -234c0 -202 -149 -352 -351 -352c-92 0 -173 31 -234 84zM190 141l431 432c-52 44 -121 70 -199 70c-173 0 -300 -128 -300 -303
c0 -78 25 -146 68 -199zM422 37c174 0 300 128 300 303c0 78 -25 146 -68 198l-430 -431c52 -44 120 -70 198 -70z" />
    <glyph glyph-name="uni2206" unicode="&#x2206;" horiz-adv-x="594" 
d="M12 0l255 680h60l255 -680h-570zM91 53h409l-204 549z" />
    <glyph glyph-name="product" unicode="&#x220f;" horiz-adv-x="785" 
d="M105 -183v954h575v-954h-55v904h-465v-904h-55z" />
    <glyph glyph-name="summation" unicode="&#x2211;" horiz-adv-x="605" 
d="M23 -183v53l335 424l-335 424v53h560v-50h-495l339 -427l-339 -427h495v-50h-560z" />
    <glyph glyph-name="minus" unicode="&#x2212;" 
d="M57 283v50h487v-50h-487z" />
    <glyph glyph-name="uni2215" unicode="&#x2215;" horiz-adv-x="390" 
d="M6 -12l322 704h56l-323 -704h-55z" />
    <glyph glyph-name="uni2219" unicode="&#x2219;" horiz-adv-x="256" 
d="M94 263v89h68v-89h-68z" />
    <glyph glyph-name="radical" unicode="&#x221a;" 
d="M256 -183l-119 354h-80v49h115l110 -322l275 873h53l-301 -954h-53z" />
    <glyph glyph-name="infinity" unicode="&#x221e;" horiz-adv-x="930" 
d="M249 108c-113 0 -190 85 -190 209c0 126 77 212 193 212c115 0 170 -77 215 -160c60 115 121 160 215 160c113 0 189 -85 189 -209c0 -126 -77 -212 -192 -212s-170 76 -215 160c-60 -116 -122 -160 -215 -160zM255 156c80 0 127 40 185 157c-45 86 -89 167 -187 167
c-85 0 -142 -69 -142 -164s57 -160 144 -160zM678 157c85 0 141 68 141 164c0 94 -57 159 -143 159c-80 0 -128 -39 -185 -156c44 -86 89 -167 187 -167z" />
    <glyph glyph-name="integral" unicode="&#x222b;" horiz-adv-x="297" 
d="M46 -194c-21 0 -38 3 -59 11v50c18 -8 34 -12 53 -12c57 0 82 35 82 120v644c0 113 40 166 128 166c20 0 37 -3 60 -10v-51c-20 8 -35 12 -55 12c-57 0 -81 -35 -81 -120v-644c0 -113 -40 -166 -128 -166z" />
    <glyph glyph-name="approxequal" unicode="&#x2248;" 
d="M411 336c-45 0 -78 14 -123 53c-40 35 -65 45 -99 45c-51 0 -81 -31 -86 -90h-45c5 89 53 139 133 139c45 0 77 -14 123 -53c41 -34 65 -45 99 -45c51 0 80 31 86 90h45c-5 -89 -53 -139 -133 -139zM411 114c-45 0 -78 14 -123 53c-40 35 -65 45 -99 45
c-51 0 -81 -31 -86 -90h-45c5 89 53 139 133 139c45 0 77 -14 123 -53c41 -34 65 -45 99 -45c51 0 80 31 86 90h45c-5 -89 -53 -139 -133 -139z" />
    <glyph glyph-name="notequal" unicode="&#x2260;" 
d="M544 394h-155l-121 -172h276v-50h-311l-103 -146h-57l103 146h-119v50h154l121 172h-275v50h310l103 147h57l-103 -147h120v-50z" />
    <glyph glyph-name="lessequal" unicode="&#x2264;" 
d="M544 116l-487 203v47l487 202v-53l-416 -173l416 -172v-54zM57 0v50h487v-50h-487z" />
    <glyph glyph-name="greaterequal" unicode="&#x2265;" 
d="M57 116v54l416 172l-416 173v53l487 -202v-47zM57 0v50h487v-50h-487z" />
    <glyph glyph-name="lozenge" unicode="&#x25ca;" 
d="M300 -32l-267 372l267 372l267 -372zM300 52l207 288l-207 288l-207 -288z" />
    <glyph glyph-name="uniF8FF" unicode="&#xf8ff;" horiz-adv-x="649" 
d="M263 50c-134 0 -225 88 -225 224c0 130 83 225 250 225h50v116h157v-116h132v-149h-132v-51c0 -156 -94 -249 -232 -249zM266 205c43 0 72 28 72 92v53h-49c-62 0 -89 -31 -89 -76c0 -43 24 -69 66 -69z" />
    <glyph glyph-name="Iacute_J.loclNLD" horiz-adv-x="803" 
d="M71 754l108 127h72l-122 -127h-58zM637 754l108 127h72l-122 -127h-58zM99 0v680h57v-680h-57zM496 -12c-152 0 -223 70 -223 222v14h55v-11c0 -121 50 -172 167 -172c122 0 171 55 171 190v449h57v-454c0 -163 -71 -238 -227 -238z" />
    <glyph glyph-name="iacute_j.loclNLD" horiz-adv-x="472" 
d="M61 597l108 127h72l-122 -127h-58zM297 597l108 127h72l-122 -127h-58zM90 0v512h56v-512h-56zM233 -182v49h22c56 0 71 19 71 86v559h56v-558c0 -96 -34 -136 -117 -136h-32z" />
    <glyph glyph-name="i.loclTRK" horiz-adv-x="236" 
d="M87 618v83h62v-83h-62zM90 0v512h56v-512h-56z" />
    <glyph glyph-name="germandbls.calt" horiz-adv-x="625" 
d="M81 0v476c0 139 72 204 227 204h236v-48l-188 -248c169 -1 239 -58 239 -193c0 -134 -67 -191 -220 -191h-118v53h113c119 0 167 39 167 137c0 101 -53 142 -189 142h-64v45l189 250h-161c-122 0 -174 -45 -174 -152v-475h-57z" />
    <glyph glyph-name="zero.pf" horiz-adv-x="634" 
d="M317 -12c-150 0 -230 79 -230 224v256c0 145 80 224 230 224c149 0 229 -79 229 -224v-256c0 -145 -80 -224 -229 -224zM317 39c115 0 173 60 173 178v246c0 118 -58 178 -173 178c-116 0 -174 -60 -174 -178v-246c0 -118 58 -178 174 -178z" />
    <glyph glyph-name="one.pf" horiz-adv-x="417" 
d="M250 0v605c-57 -40 -120 -55 -192 -60v49c82 5 144 32 194 86h54v-680h-56z" />
    <glyph glyph-name="two.pf" horiz-adv-x="572" 
d="M60 0v38c0 124 61 199 223 274c132 61 179 111 179 192c0 85 -57 137 -166 137c-110 0 -171 -53 -171 -156v-11h-54v17c0 129 83 201 227 201s219 -73 219 -187c0 -104 -55 -168 -206 -237c-142 -65 -195 -122 -196 -215h402v-53h-457z" />
    <glyph glyph-name="three.pf" horiz-adv-x="597" 
d="M300 -12c-152 0 -235 68 -235 189v18h55v-11c0 -96 60 -145 180 -145c116 0 178 48 178 145c0 92 -56 140 -174 140h-79v51h81c100 0 155 45 155 130c0 87 -59 136 -163 136c-108 0 -169 -53 -169 -144v-7h-54v11c0 118 85 191 226 191c135 0 215 -68 215 -183
c0 -79 -37 -132 -107 -155v-1c84 -24 125 -81 125 -171c0 -129 -84 -194 -234 -194z" />
    <glyph glyph-name="four.pf" horiz-adv-x="590" 
d="M415 0v162h-374v55l366 463h64v-467h87v-51h-87v-162h-56zM103 213h312v397z" />
    <glyph glyph-name="five.pf" horiz-adv-x="579" 
d="M288 -12c-144 0 -229 68 -232 178h55c3 -79 68 -127 176 -127c120 0 187 59 187 176c0 119 -70 175 -177 175c-67 0 -123 -21 -169 -63h-49l22 353h398v-53h-348l-16 -242c46 37 103 56 171 56c141 0 224 -80 224 -225c0 -150 -89 -228 -242 -228z" />
    <glyph glyph-name="six.pf" horiz-adv-x="628" 
d="M323 -12c-148 0 -232 78 -232 227v248c0 149 84 229 236 229c133 0 210 -62 217 -172h-55c-7 80 -64 121 -161 121c-120 0 -181 -62 -181 -183v-123c46 64 114 93 198 93c133 0 209 -74 209 -215c0 -143 -79 -225 -231 -225zM323 39c116 0 175 60 175 172
c0 110 -56 166 -162 166c-89 0 -152 -40 -189 -125v-34c0 -119 60 -179 176 -179z" />
    <glyph glyph-name="seven.pf" horiz-adv-x="536" 
d="M148 0c10 239 111 451 293 626h-417v54h482v-57c-187 -176 -288 -381 -298 -623h-60z" />
    <glyph glyph-name="eight.pf" horiz-adv-x="619" 
d="M310 -12c-161 0 -248 68 -248 192c0 90 47 149 134 173v2c-74 23 -113 76 -113 153c0 116 85 184 227 184c143 0 227 -68 227 -184c0 -77 -39 -130 -114 -153v-1c88 -25 134 -84 134 -174c0 -124 -87 -192 -247 -192zM310 376c112 0 172 46 172 131
c0 86 -63 134 -172 134s-172 -48 -172 -134c0 -85 59 -131 172 -131zM310 39c126 0 191 50 191 143c0 94 -65 144 -191 144c-127 0 -192 -50 -192 -144c0 -93 65 -143 192 -143z" />
    <glyph glyph-name="nine.pf" horiz-adv-x="628" 
d="M302 -12c-134 0 -211 62 -217 172h54c7 -80 64 -121 162 -121c119 0 180 62 180 183v123c-46 -64 -113 -93 -197 -93c-133 0 -210 74 -210 215c0 143 79 225 231 225c148 0 232 -78 232 -227v-248c0 -149 -84 -229 -235 -229zM292 303c89 0 152 40 189 125v34
c0 119 -60 179 -176 179s-175 -60 -175 -172c0 -110 56 -166 162 -166z" />
    <glyph glyph-name="zero.numr" horiz-adv-x="366" 
d="M183 274c-91 0 -140 48 -140 136v146c0 88 49 136 140 136s140 -48 140 -136v-146c0 -88 -49 -136 -140 -136zM183 318c61 0 91 31 91 95v141c0 63 -30 94 -91 94s-91 -31 -91 -94v-141c0 -64 30 -95 91 -95z" />
    <glyph glyph-name="one.numr" horiz-adv-x="366" 
d="M89 286v44h94v289c-33 -19 -68 -27 -106 -28v39c49 3 82 18 109 50h46v-350h96v-44h-239z" />
    <glyph glyph-name="two.numr" horiz-adv-x="366" 
d="M45 286v29c0 74 36 119 130 162c71 32 97 59 97 101c0 43 -30 70 -85 70c-57 0 -88 -29 -88 -81v-6h-47v12c0 76 49 119 137 119c85 0 132 -42 132 -113c0 -61 -34 -100 -121 -140c-77 -35 -104 -63 -106 -108h227v-45h-276z" />
    <glyph glyph-name="three.numr" horiz-adv-x="366" 
d="M186 274c-93 0 -143 39 -143 111v12h47v-6c0 -48 33 -73 96 -73c61 0 93 24 93 75c0 50 -31 73 -93 73h-47v44h47c54 0 83 22 83 68s-31 70 -85 70c-56 0 -88 -26 -88 -72v-4h-47v7c0 71 52 113 137 113c82 0 131 -40 131 -111c0 -45 -20 -76 -59 -89v-1
c48 -14 70 -48 70 -100c0 -79 -50 -117 -142 -117z" />
    <glyph glyph-name="four.numr" horiz-adv-x="366" 
d="M244 286v88h-214v46l211 260h53v-262h51v-44h-51v-88h-50zM84 418h160v200z" />
    <glyph glyph-name="five.numr" horiz-adv-x="366" 
d="M182 274c-86 0 -138 40 -140 107h47c1 -39 37 -63 92 -63c64 0 99 31 99 90c0 56 -32 88 -92 88c-34 0 -69 -11 -92 -32h-40l12 216h241v-45h-201l-8 -126c26 20 60 31 99 31c82 0 130 -48 130 -131c0 -88 -53 -135 -147 -135z" />
    <glyph glyph-name="six.numr" horiz-adv-x="366" 
d="M189 274c-92 0 -143 48 -143 134v148c0 87 51 136 145 136c85 0 129 -40 132 -105h-47c-3 39 -33 61 -85 61c-64 0 -96 -33 -96 -96v-67c26 33 62 50 110 50c79 0 124 -46 124 -128c0 -87 -48 -133 -140 -133zM189 318c61 0 91 31 91 88c0 56 -29 85 -84 85
c-48 0 -81 -21 -101 -64v-16c0 -60 33 -93 94 -93z" />
    <glyph glyph-name="seven.numr" horiz-adv-x="366" 
d="M107 286c6 136 64 255 169 349h-241v45h294v-48c-110 -98 -164 -210 -170 -346h-52z" />
    <glyph glyph-name="eight.numr" horiz-adv-x="366" 
d="M183 274c-99 0 -151 39 -151 115c0 52 25 86 73 102v2c-41 13 -61 44 -61 89c0 70 50 110 139 110s138 -40 138 -110c0 -45 -20 -76 -60 -89v-2c47 -16 73 -50 73 -103c0 -75 -52 -114 -151 -114zM183 510c59 0 91 24 91 69s-32 70 -91 70c-58 0 -91 -25 -91 -70
s32 -69 91 -69zM183 317c67 0 101 26 101 75s-34 75 -101 75s-102 -25 -102 -75s35 -75 102 -75z" />
    <glyph glyph-name="nine.numr" horiz-adv-x="366" 
d="M175 274c-85 0 -130 40 -132 105h47c2 -39 32 -61 85 -61c64 0 95 33 95 96v66c-26 -32 -62 -49 -110 -49c-79 0 -124 46 -124 128c0 87 49 133 140 133c93 0 143 -48 143 -134v-148c0 -87 -50 -136 -144 -136zM170 475c47 0 80 21 100 64v16c0 60 -32 93 -94 93
c-60 0 -91 -31 -91 -88c0 -56 29 -85 85 -85z" />
    <glyph glyph-name="zero.dnom" horiz-adv-x="366" 
d="M183 -12c-91 0 -140 48 -140 136v146c0 88 49 136 140 136s140 -48 140 -136v-146c0 -88 -49 -136 -140 -136zM183 32c61 0 91 31 91 95v141c0 63 -30 94 -91 94s-91 -31 -91 -94v-141c0 -64 30 -95 91 -95z" />
    <glyph glyph-name="one.dnom" horiz-adv-x="366" 
d="M89 0v44h94v289c-33 -19 -68 -27 -106 -28v39c49 3 82 18 109 50h46v-350h96v-44h-239z" />
    <glyph glyph-name="two.dnom" horiz-adv-x="366" 
d="M45 0v29c0 74 36 119 130 162c71 32 97 59 97 101c0 43 -30 70 -85 70c-57 0 -88 -29 -88 -81v-6h-47v12c0 76 49 119 137 119c85 0 132 -42 132 -113c0 -61 -34 -100 -121 -140c-77 -35 -104 -63 -106 -108h227v-45h-276z" />
    <glyph glyph-name="three.dnom" horiz-adv-x="366" 
d="M186 -12c-93 0 -143 39 -143 111v12h47v-6c0 -48 33 -73 96 -73c61 0 93 24 93 75c0 50 -31 73 -93 73h-47v44h47c54 0 83 22 83 68s-31 70 -85 70c-56 0 -88 -26 -88 -72v-4h-47v7c0 71 52 113 137 113c82 0 131 -40 131 -111c0 -45 -20 -76 -59 -89v-1
c48 -14 70 -48 70 -100c0 -79 -50 -117 -142 -117z" />
    <glyph glyph-name="four.dnom" horiz-adv-x="366" 
d="M244 0v88h-214v46l211 260h53v-262h51v-44h-51v-88h-50zM84 132h160v200z" />
    <glyph glyph-name="five.dnom" horiz-adv-x="366" 
d="M182 -12c-86 0 -138 40 -140 107h47c1 -39 37 -63 92 -63c64 0 99 31 99 90c0 56 -32 88 -92 88c-34 0 -69 -11 -92 -32h-40l12 216h241v-45h-201l-8 -126c26 20 60 31 99 31c82 0 130 -48 130 -131c0 -88 -53 -135 -147 -135z" />
    <glyph glyph-name="six.dnom" horiz-adv-x="366" 
d="M189 -12c-92 0 -143 48 -143 134v148c0 87 51 136 145 136c85 0 129 -40 132 -105h-47c-3 39 -33 61 -85 61c-64 0 -96 -33 -96 -96v-67c26 33 62 50 110 50c79 0 124 -46 124 -128c0 -87 -48 -133 -140 -133zM189 32c61 0 91 31 91 88c0 56 -29 85 -84 85
c-48 0 -81 -21 -101 -64v-16c0 -60 33 -93 94 -93z" />
    <glyph glyph-name="seven.dnom" horiz-adv-x="366" 
d="M107 0c6 136 64 255 169 349h-241v45h294v-48c-110 -98 -164 -210 -170 -346h-52z" />
    <glyph glyph-name="eight.dnom" horiz-adv-x="366" 
d="M183 -12c-99 0 -151 39 -151 115c0 52 25 86 73 102v2c-41 13 -61 44 -61 89c0 70 50 110 139 110s138 -40 138 -110c0 -45 -20 -76 -60 -89v-2c47 -16 73 -50 73 -103c0 -75 -52 -114 -151 -114zM183 224c59 0 91 24 91 69s-32 70 -91 70c-58 0 -91 -25 -91 -70
s32 -69 91 -69zM183 31c67 0 101 26 101 75s-34 75 -101 75s-102 -25 -102 -75s35 -75 102 -75z" />
    <glyph glyph-name="nine.dnom" horiz-adv-x="366" 
d="M175 -12c-85 0 -130 40 -132 105h47c2 -39 32 -61 85 -61c64 0 95 33 95 96v66c-26 -32 -62 -49 -110 -49c-79 0 -124 46 -124 128c0 87 49 133 140 133c93 0 143 -48 143 -134v-148c0 -87 -50 -136 -144 -136zM170 189c47 0 80 21 100 64v16c0 60 -32 93 -94 93
c-60 0 -91 -31 -91 -88c0 -56 29 -85 85 -85z" />
    <glyph glyph-name="exclamdown.case" horiz-adv-x="273" 
d="M102 591v89h68v-89h-68zM107 0l1 160l8 316h40l8 -316l1 -160h-58z" />
    <glyph glyph-name="questiondown.case" horiz-adv-x="423" 
d="M196 591v89h68v-89h-68zM214 -12c-119 0 -188 63 -188 171c0 69 25 111 95 154c63 39 85 74 85 137v26h48v-27c0 -77 -27 -124 -94 -167c-59 -38 -79 -69 -79 -123c0 -78 48 -121 134 -121c89 0 138 48 138 137h54c0 -119 -70 -187 -193 -187z" />
    <glyph glyph-name="at.case" horiz-adv-x="760" 
d="M411 -18c-226 0 -372 141 -372 356c0 213 144 360 359 360c206 0 340 -133 340 -327c0 -131 -61 -211 -156 -211c-49 0 -83 22 -95 72c-30 -47 -72 -72 -128 -72c-79 0 -124 51 -124 138v78c0 87 45 137 124 137c55 0 96 -23 126 -67l3 55h45v-222c0 -47 17 -71 55 -71
c59 0 97 58 97 159c0 172 -110 282 -286 282c-187 0 -305 -125 -305 -309c0 -189 124 -309 317 -309c79 0 143 20 192 52l20 -45c-50 -34 -123 -56 -212 -56zM369 208c45 0 80 23 109 78v102c-27 51 -62 78 -110 78c-51 0 -78 -32 -78 -95v-70c0 -61 27 -93 79 -93z" />
    <glyph glyph-name="parenleft.case" horiz-adv-x="327" 
d="M306 -96c-147 55 -232 213 -232 436s85 381 232 436v-46c-115 -56 -178 -195 -178 -390s63 -334 178 -390v-46z" />
    <glyph glyph-name="parenright.case" horiz-adv-x="327" 
d="M21 -96v46c115 56 178 195 178 390s-63 334 -178 390v46c147 -55 232 -213 232 -436s-85 -381 -232 -436z" />
    <glyph glyph-name="braceleft.case" horiz-adv-x="327" 
d="M259 -84c-95 0 -139 47 -139 158v166c0 60 -20 78 -85 78v44c65 0 85 18 85 78v166c0 111 44 158 139 158h47v-44h-39c-66 0 -93 -32 -93 -112v-162c0 -60 -18 -95 -60 -105v-2c42 -11 60 -45 60 -105v-162c0 -80 27 -112 93 -112h39v-44h-47z" />
    <glyph glyph-name="braceright.case" horiz-adv-x="327" 
d="M21 -84v44h38c66 0 94 32 94 112v162c0 60 18 94 59 105v2c-41 10 -59 45 -59 105v162c0 80 -28 112 -94 112h-38v44h46c95 0 139 -47 139 -158v-166c0 -60 21 -78 86 -78v-44c-65 0 -86 -18 -86 -78v-166c0 -111 -44 -158 -139 -158h-46z" />
    <glyph glyph-name="bracketleft.case" horiz-adv-x="327" 
d="M99 -84v848h207v-44h-153v-760h153v-44h-207z" />
    <glyph glyph-name="bracketright.case" horiz-adv-x="327" 
d="M21 -84v44h154v760h-154v44h208v-848h-208z" />
    <glyph glyph-name="bar.case" horiz-adv-x="279" 
d="M114 -160v1000h52v-1000h-52z" />
    <glyph glyph-name="brokenbar.case" horiz-adv-x="279" 
d="M114 440v400h52v-400h-52zM114 -160v400h52v-400h-52z" />
    <glyph glyph-name="periodcentered.case" horiz-adv-x="256" 
d="M94 295v89h68v-89h-68z" />
    <glyph glyph-name="bullet.case" horiz-adv-x="500" 
d="M155 243v194h189v-194h-189z" />
    <glyph glyph-name="hyphen.case" horiz-adv-x="362" 
d="M35 313v54h293v-54h-293z" />
    <glyph glyph-name="uni00AD.case" horiz-adv-x="362" 
d="M35 313v54h293v-54h-293z" />
    <glyph glyph-name="figuredash.case" 
d="M30 316v48h541v-48h-541z" />
    <glyph glyph-name="endash.case" horiz-adv-x="500" 
d="M30 316v48h440v-48h-440z" />
    <glyph glyph-name="emdash.case" horiz-adv-x="900" 
d="M30 316v48h840v-48h-840z" />
    <glyph glyph-name="guillemotleft.case" horiz-adv-x="454" 
d="M171 166l-145 174l145 174h63l-145 -174l145 -174h-63zM366 166l-145 174l145 174h63l-145 -174l145 -174h-63z" />
    <glyph glyph-name="guillemotright.case" horiz-adv-x="454" 
d="M26 166l145 174l-145 174h63l145 -174l-145 -174h-63zM221 166l145 174l-145 174h63l145 -174l-145 -174h-63z" />
    <glyph glyph-name="guilsinglleft.case" horiz-adv-x="259" 
d="M171 166l-145 174l145 174h63l-145 -174l145 -174h-63z" />
    <glyph glyph-name="guilsinglright.case" horiz-adv-x="259" 
d="M26 166l145 174l-145 174h63l145 -174l-145 -174h-63z" />
    <glyph glyph-name="caron.alt" horiz-adv-x="128" 
d="M20 535l41 195h61l-59 -195h-43z" />
    <glyph glyph-name="ringacute" horiz-adv-x="500" 
d="M193 784l108 127h72l-122 -127h-58zM250 567c-53 0 -92 38 -92 90s39 90 92 90s92 -38 92 -90s-39 -90 -92 -90zM250 607c28 0 48 20 48 50s-20 50 -48 50c-29 0 -49 -20 -49 -50s20 -50 49 -50z" />
    <glyph glyph-name="NULL" horiz-adv-x="0" 
 />
    <glyph glyph-name="CR" unicode="&#xd;" horiz-adv-x="270" 
 />
    </font>
</defs>
</svg>
