<?xml version="1.0" standalone="no"?>
<!DOCTYPE svg PUBLIC "-//W3C//DTD SVG 1.1//EN" "http://www.w3.org/Graphics/SVG/1.1/DTD/svg11.dtd" >
<svg xmlns="http://www.w3.org/2000/svg" xmlns:xlink="http://www.w3.org/1999/xlink" version="1.1">
<metadata>
Created by FontForge 20190801 at Fri Feb  5 15:51:31 2016
 By Jimmy Wärting
Copyright \(c\) 2014-2015 by Ryoichi Tsunekawa. All rights reserved.
</metadata>
<defs>
<font id="BioSans-Bold" horiz-adv-x="366" >
  <font-face 
    font-family="Bio Sans"
    font-weight="700"
    font-stretch="normal"
    units-per-em="1000"
    panose-1="2 11 7 6 2 2 2 4 2 4"
    ascent="800"
    descent="-200"
    x-height="522"
    cap-height="680"
    bbox="-189 -254 1105 1114"
    underline-thickness="72"
    underline-position="-100"
    stemh="120"
    stemv="148"
    unicode-range="U+000D-FB02"
  />
<missing-glyph horiz-adv-x="680" 
d="M73 0v680h534v-680h-534zM341 419l113 178h-227zM162 154l120 186l-120 186v-372zM518 154v372l-120 -186zM227 83h227l-113 178z" />
    <glyph glyph-name="fi" unicode="fi" horiz-adv-x="632" 
d="M88 0v410h-80v112h80v38c0 115 50 170 153 170h112v-114h-62c-40 0 -55 -17 -55 -63v-31h113v-112h-113v-410h-148zM416 596v126h156v-126h-156zM420 0v522h148v-522h-148z" />
    <glyph glyph-name="fl" unicode="fl" horiz-adv-x="632" 
d="M88 0v410h-80v112h80v38c0 115 50 170 153 170h112v-114h-62c-40 0 -55 -17 -55 -63v-31h113v-112h-113v-410h-148zM420 0v730h148v-730h-148z" />
    <glyph glyph-name=".notdef" horiz-adv-x="680" 
d="M73 0v680h534v-680h-534zM341 419l113 178h-227zM162 154l120 186l-120 186v-372zM518 154v372l-120 -186zM227 83h227l-113 178z" />
    <glyph glyph-name="space" unicode=" " horiz-adv-x="240" 
 />
    <glyph glyph-name="exclam" unicode="!" horiz-adv-x="309" 
d="M101 224l-21 262l-3 194h155l-3 -194l-21 -262h-107zM77 0v155h155v-155h-155z" />
    <glyph glyph-name="quotedbl" unicode="&#x22;" horiz-adv-x="458" 
d="M65 398l-16 282h143l-17 -282h-110zM282 398l-16 282h143l-17 -282h-110z" />
    <glyph glyph-name="numbersign" unicode="#" horiz-adv-x="596" 
d="M81 0l21 164h-64v102h76l20 158h-63v102h76l19 154h124l-19 -154h101l19 154h124l-19 -154h62v-102h-75l-20 -158h62v-102h-74l-21 -164h-124l21 164h-101l-21 -164h-124zM238 266h101l20 158h-101z" />
    <glyph glyph-name="dollar" unicode="$" horiz-adv-x="596" 
d="M55 206h136c0 -55 23 -83 71 -91v163c-144 25 -201 81 -201 198c0 118 63 185 184 200v75h112v-75c116 -15 173 -80 173 -198h-135c0 45 -18 72 -55 83v-157c147 -24 206 -83 206 -203s-62 -184 -189 -199v-75h-112v74c-131 13 -190 78 -190 205zM205 493
c0 -34 16 -56 57 -71v140c-38 -9 -57 -34 -57 -69zM340 259v-143c41 8 62 31 62 68c0 36 -17 59 -62 75z" />
    <glyph glyph-name="percent" unicode="%" horiz-adv-x="785" 
d="M183 310c-99 0 -152 46 -152 134v114c0 88 53 134 152 134s152 -46 152 -134v-114c0 -88 -53 -134 -152 -134zM136 -12l408 704h105l-407 -704h-106zM183 398c31 0 46 16 46 51v105c0 34 -15 50 -46 50s-46 -16 -46 -50v-105c0 -35 15 -51 46 -51zM602 -12
c-99 0 -152 46 -152 134v114c0 88 53 134 152 134s152 -46 152 -134v-114c0 -88 -53 -134 -152 -134zM602 76c31 0 46 16 46 51v105c0 34 -15 50 -46 50s-46 -16 -46 -50v-105c0 -35 15 -51 46 -51z" />
    <glyph glyph-name="ampersand" unicode="&#x26;" horiz-adv-x="678" 
d="M267 -12c-143 0 -230 72 -230 195c0 82 37 141 125 196c-35 49 -50 88 -50 138c0 107 70 175 195 175c116 0 181 -60 181 -156c0 -76 -37 -126 -132 -178l98 -114c10 32 16 69 19 112h141c-10 -86 -34 -159 -69 -216l121 -140h-190l-31 37c-50 -32 -110 -49 -178 -49z
M284 441c57 31 78 56 78 90c0 30 -20 53 -58 53c-37 0 -61 -21 -61 -60c0 -24 9 -46 41 -83zM293 108c29 0 55 6 77 19l-135 163c-36 -28 -49 -55 -49 -91c0 -58 40 -91 107 -91z" />
    <glyph glyph-name="quotesingle" unicode="'" horiz-adv-x="245" 
d="M66 398l-17 282h147l-17 -282h-113z" />
    <glyph glyph-name="parenleft" unicode="(" horiz-adv-x="343" 
d="M328 -130c-176 39 -276 198 -276 436s100 397 276 436v-109c-92 -45 -137 -148 -137 -327s45 -282 137 -327v-109z" />
    <glyph glyph-name="parenright" unicode=")" horiz-adv-x="343" 
d="M15 -130v109c92 45 137 148 137 327s-45 282 -137 327v109c176 -39 276 -198 276 -436s-100 -397 -276 -436z" />
    <glyph glyph-name="asterisk" unicode="*" horiz-adv-x="428" 
d="M142 281l-87 63l87 110l-131 33l33 105l125 -51l-9 139h108l-9 -139l125 51l33 -105l-131 -33l87 -110l-87 -63l-72 119z" />
    <glyph glyph-name="plus" unicode="+" horiz-adv-x="596" 
d="M237 54v196h-185v118h185v196h122v-196h185v-118h-185v-196h-122z" />
    <glyph glyph-name="comma" unicode="," horiz-adv-x="293" 
d="M65 -179v80c39 1 61 23 61 70v29h-57v155h155v-156c0 -122 -47 -177 -159 -178z" />
    <glyph glyph-name="hyphen" unicode="-" horiz-adv-x="383" 
d="M33 233v128h317v-128h-317z" />
    <glyph glyph-name="period" unicode="." horiz-adv-x="293" 
d="M69 0v155h155v-155h-155z" />
    <glyph glyph-name="slash" unicode="/" horiz-adv-x="466" 
d="M1 -140l335 870h129l-335 -870h-129z" />
    <glyph glyph-name="zero" unicode="0" horiz-adv-x="596" 
d="M298 -12c-161 0 -246 79 -246 229v246c0 151 85 229 246 229s246 -78 246 -229v-246c0 -150 -85 -229 -246 -229zM298 113c69 0 98 33 98 110v234c0 77 -29 110 -98 110s-98 -33 -98 -110v-234c0 -77 29 -110 98 -110z" />
    <glyph glyph-name="one" unicode="1" horiz-adv-x="596" 
d="M94 0v127h163v371c-58 -17 -122 -20 -183 -21v115c95 2 151 27 190 88h141v-553h162v-127h-473z" />
    <glyph glyph-name="two" unicode="2" horiz-adv-x="596" 
d="M48 0v70c0 129 58 206 210 277c102 48 136 82 136 139c0 49 -30 81 -95 81c-67 0 -100 -33 -100 -103v-19h-140v32c0 141 85 215 241 215c158 0 241 -75 241 -205c0 -113 -59 -185 -208 -252c-92 -41 -127 -67 -136 -108h344v-127h-493z" />
    <glyph glyph-name="three" unicode="3" horiz-adv-x="596" 
d="M299 -12c-165 0 -249 66 -249 196v35h143v-16c0 -60 34 -90 106 -90c65 0 102 25 102 84c0 58 -34 84 -114 84h-65v124h62c70 0 103 23 103 80c0 55 -31 82 -91 82c-63 0 -95 -31 -95 -88v-13h-141v21c0 134 82 205 239 205c152 0 234 -66 234 -190
c0 -71 -27 -120 -85 -147v-2c70 -27 101 -81 101 -163c0 -136 -84 -202 -250 -202z" />
    <glyph glyph-name="four" unicode="4" horiz-adv-x="596" 
d="M351 0v139h-317v130l307 411h158v-420h70v-121h-70v-139h-148zM176 260h175v243z" />
    <glyph glyph-name="five" unicode="5" horiz-adv-x="596" 
d="M297 -12c-158 0 -244 68 -245 202h142c3 -49 40 -77 102 -77c72 0 107 37 107 108s-35 108 -101 108c-43 0 -76 -16 -101 -41h-129l25 392h423v-127h-300l-9 -142c36 28 80 40 132 40c135 0 208 -79 208 -226c0 -159 -85 -237 -254 -237z" />
    <glyph glyph-name="six" unicode="6" horiz-adv-x="596" 
d="M304 -12c-162 0 -248 78 -248 230v239c0 155 87 235 253 235c157 0 232 -72 236 -198h-142c-4 41 -33 73 -96 73c-70 0 -103 -39 -103 -116v-67c38 38 85 55 146 55c129 0 200 -77 200 -219c0 -152 -81 -232 -246 -232zM305 113c66 0 97 37 97 103c0 64 -29 98 -89 98
c-51 0 -87 -25 -109 -75v-15c0 -73 34 -111 101 -111z" />
    <glyph glyph-name="seven" unicode="7" horiz-adv-x="596" 
d="M136 0c10 227 97 410 257 550h-347v130h500v-134c-165 -160 -242 -323 -252 -546h-158z" />
    <glyph glyph-name="eight" unicode="8" horiz-adv-x="596" 
d="M298 -12c-171 0 -260 70 -260 200c0 81 35 137 104 165v2c-58 27 -87 76 -87 146c0 123 87 191 244 191c156 0 243 -68 243 -190c0 -71 -29 -120 -88 -147v-2c69 -28 104 -84 104 -165c0 -130 -89 -200 -260 -200zM298 406c62 0 98 28 98 83c0 54 -34 80 -98 80
s-98 -26 -98 -80c0 -55 36 -83 98 -83zM297 111c76 0 113 26 113 84c0 60 -39 88 -113 88c-73 0 -112 -28 -112 -88c0 -58 36 -84 112 -84z" />
    <glyph glyph-name="nine" unicode="9" horiz-adv-x="596" 
d="M287 -12c-157 0 -232 72 -236 198h142c4 -41 33 -73 96 -73c70 0 103 39 103 116v67c-38 -38 -85 -55 -146 -55c-129 0 -200 77 -200 219c0 152 81 232 246 232c162 0 248 -78 248 -230v-239c0 -155 -87 -235 -253 -235zM283 366c51 0 87 25 109 75v15
c0 73 -34 111 -101 111c-66 0 -97 -37 -97 -103c0 -64 29 -98 89 -98z" />
    <glyph glyph-name="colon" unicode=":" horiz-adv-x="293" 
d="M69 346v155h155v-155h-155zM69 0v155h155v-155h-155z" />
    <glyph glyph-name="semicolon" unicode=";" horiz-adv-x="293" 
d="M69 346v155h155v-155h-155zM65 -179v80c39 1 61 23 61 70v29h-57v155h155v-156c0 -122 -47 -177 -159 -178z" />
    <glyph glyph-name="less" unicode="&#x3c;" horiz-adv-x="596" 
d="M544 55l-492 195v114l492 196v-128l-320 -124l320 -125v-128z" />
    <glyph glyph-name="equal" unicode="=" horiz-adv-x="596" 
d="M52 364v118h492v-118h-492zM52 136v118h492v-118h-492z" />
    <glyph glyph-name="greater" unicode="&#x3e;" horiz-adv-x="596" 
d="M52 56v128l320 125l-320 124v128l492 -195v-114z" />
    <glyph glyph-name="question" unicode="?" horiz-adv-x="467" 
d="M148 224v21c0 78 27 129 93 176c44 31 58 51 58 84c0 40 -26 62 -71 62c-51 0 -77 -30 -77 -88h-139c0 142 73 213 218 213c138 0 216 -65 216 -182c0 -69 -26 -115 -95 -162c-55 -38 -74 -66 -74 -109v-15h-129zM135 0v155h154v-155h-154z" />
    <glyph glyph-name="at" unicode="@" horiz-adv-x="752" 
d="M408 -68c-233 0 -379 141 -379 359s146 364 365 364c210 0 347 -134 347 -326c0 -134 -66 -209 -174 -209c-54 0 -92 18 -112 56c-26 -37 -62 -56 -110 -56c-77 0 -118 48 -118 134v71c0 88 41 134 118 134c44 0 79 -16 105 -48l4 36h88v-193c0 -31 10 -46 33 -46
c37 0 59 40 59 112c0 149 -92 240 -238 240c-159 0 -255 -107 -255 -265c0 -164 104 -267 267 -267c67 0 129 17 180 50l36 -92c-56 -34 -128 -54 -216 -54zM377 210c22 0 41 10 54 37v85c-12 27 -33 38 -55 38c-26 0 -39 -15 -39 -47v-68c0 -29 13 -45 40 -45z" />
    <glyph glyph-name="A" unicode="A" horiz-adv-x="615" 
d="M2 0l228 680h155l228 -680h-159l-43 137h-214l-43 -137h-152zM234 262h140l-70 248z" />
    <glyph glyph-name="B" unicode="B" horiz-adv-x="638" 
d="M75 0v680h273c160 0 230 -55 230 -177c0 -75 -27 -122 -93 -145v-2c82 -23 115 -76 115 -165c0 -132 -72 -191 -231 -191h-294zM225 409h100c79 0 105 18 105 73c0 54 -24 71 -97 71h-108v-144zM225 127h118c80 0 107 19 107 76c0 59 -30 79 -119 79h-106v-155z" />
    <glyph glyph-name="C" unicode="C" horiz-adv-x="615" 
d="M315 -12c-180 0 -264 87 -264 276v152c0 189 84 276 264 276c174 0 256 -81 260 -257h-143c-3 90 -35 128 -115 128c-84 0 -116 -42 -116 -150v-146c0 -108 32 -150 116 -150c80 0 112 38 115 127h143c-4 -175 -86 -256 -260 -256z" />
    <glyph glyph-name="D" unicode="D" horiz-adv-x="642" 
d="M75 0v680h253c183 0 264 -84 264 -268v-144c0 -185 -81 -268 -264 -268h-253zM225 128h82c101 0 135 37 135 143v138c0 106 -34 143 -135 143h-82v-424z" />
    <glyph glyph-name="E" unicode="E" horiz-adv-x="587" 
d="M75 0v680h466v-129h-316v-141h266v-128h-266v-153h326v-129h-476z" />
    <glyph glyph-name="F" unicode="F" horiz-adv-x="554" 
d="M75 0v680h458v-129h-308v-147h258v-129h-258v-275h-150z" />
    <glyph glyph-name="G" unicode="G" horiz-adv-x="635" 
d="M322 -12c-183 0 -271 89 -271 271v162c0 182 89 271 266 271c164 0 257 -76 263 -223h-143c-5 63 -40 94 -116 94c-87 0 -120 -42 -120 -150v-146c0 -107 35 -150 124 -150c84 0 118 39 118 139h-112v129h255v-129c0 -182 -85 -268 -264 -268z" />
    <glyph glyph-name="H" unicode="H" horiz-adv-x="684" 
d="M75 0v680h150v-269h234v269h150v-680h-150v281h-234v-281h-150z" />
    <glyph glyph-name="I" unicode="I" horiz-adv-x="300" 
d="M75 0v680h150v-680h-150z" />
    <glyph glyph-name="J" unicode="J" horiz-adv-x="553" 
d="M252 -12c-165 0 -237 72 -237 239v19h144v-19c0 -77 26 -110 91 -110c66 0 92 35 92 116v447h150v-453c0 -166 -73 -239 -240 -239z" />
    <glyph glyph-name="K" unicode="K" horiz-adv-x="622" 
d="M75 0v680h150v-297l231 297h172l-219 -279l222 -401h-171l-155 282l-80 -102v-180h-150z" />
    <glyph glyph-name="L" unicode="L" horiz-adv-x="518" 
d="M75 0v680h150v-549h287v-131h-437z" />
    <glyph glyph-name="M" unicode="M" horiz-adv-x="881" 
d="M75 0v680h220l145 -444l144 444h222v-680h-150v513l-169 -513h-101l-169 513v-513h-142z" />
    <glyph glyph-name="N" unicode="N" horiz-adv-x="682" 
d="M75 0v680h159l231 -429v429h142v-680h-143l-247 458v-458h-142z" />
    <glyph glyph-name="O" unicode="O" horiz-adv-x="652" 
d="M326 -12c-188 0 -275 87 -275 277v150c0 190 87 277 275 277s275 -87 275 -277v-150c0 -190 -87 -277 -275 -277zM326 117c90 0 125 43 125 150v146c0 107 -35 150 -125 150s-125 -43 -125 -150v-146c0 -107 35 -150 125 -150z" />
    <glyph glyph-name="P" unicode="P" horiz-adv-x="612" 
d="M75 0v680h269c172 0 245 -66 245 -222c0 -155 -73 -220 -245 -220h-119v-238h-150zM225 366h106c76 0 108 28 108 93s-32 93 -108 93h-106v-186z" />
    <glyph glyph-name="Q" unicode="Q" horiz-adv-x="652" 
d="M545 -86l-92 92c-35 -12 -78 -18 -127 -18c-188 0 -275 87 -275 277v150c0 190 87 277 275 277s275 -87 275 -277v-150c0 -71 -12 -128 -37 -171l80 -81zM326 117c10 0 19 1 28 2l-90 90l90 90l92 -93c3 18 5 38 5 61v146c0 107 -35 150 -125 150s-125 -43 -125 -150
v-146c0 -107 35 -150 125 -150z" />
    <glyph glyph-name="R" unicode="R" horiz-adv-x="633" 
d="M75 0v680h278c167 0 233 -63 233 -215c0 -111 -36 -175 -121 -200l147 -265h-171l-135 251h-81v-251h-150zM225 379h112c73 0 99 25 99 86c0 62 -26 87 -99 87h-112v-173z" />
    <glyph glyph-name="S" unicode="S" horiz-adv-x="563" 
d="M280 -12c-173 0 -252 68 -252 217h146c0 -66 37 -95 110 -95c66 0 99 24 99 73c0 56 -36 80 -137 96c-151 24 -208 80 -208 204c0 139 85 209 247 209c160 0 239 -68 239 -211h-146c0 59 -31 88 -96 88c-62 0 -94 -26 -94 -71c0 -51 35 -74 131 -88
c159 -23 214 -84 214 -212c0 -141 -83 -210 -253 -210z" />
    <glyph glyph-name="T" unicode="T" horiz-adv-x="526" 
d="M188 0v549h-182v131h514v-131h-182v-549h-150z" />
    <glyph glyph-name="U" unicode="U" horiz-adv-x="631" 
d="M316 -12c-179 0 -255 72 -255 240v452h150v-447c0 -85 29 -116 107 -116s107 31 107 116v447h145v-452c0 -168 -76 -240 -254 -240z" />
    <glyph glyph-name="V" unicode="V" horiz-adv-x="592" 
d="M218 0l-216 680h158l140 -484l139 484h151l-216 -680h-156z" />
    <glyph glyph-name="W" unicode="W" horiz-adv-x="878" 
d="M172 0l-168 680h155l101 -461l116 461h133l116 -461l101 461h148l-168 -680h-155l-110 439l-111 -439h-158z" />
    <glyph glyph-name="X" unicode="X" horiz-adv-x="579" 
d="M0 0l194 355l-187 325h173l121 -216l111 216h160l-188 -343l195 -337h-173l-129 232l-117 -232h-160z" />
    <glyph glyph-name="Y" unicode="Y" horiz-adv-x="541" 
d="M196 0v283l-222 397h171l132 -246l132 246h158l-221 -394v-286h-150z" />
    <glyph glyph-name="Z" unicode="Z" horiz-adv-x="559" 
d="M27 0v117l311 434h-293v129h479v-116l-311 -435h319v-129h-505z" />
    <glyph glyph-name="bracketleft" unicode="[" horiz-adv-x="343" 
d="M72 -118v848h256v-107h-118v-634h118v-107h-256z" />
    <glyph glyph-name="backslash" unicode="\" horiz-adv-x="466" 
d="M336 -140l-335 870h130l334 -870h-129z" />
    <glyph glyph-name="bracketright" unicode="]" horiz-adv-x="343" 
d="M15 -118v107h118v634h-118v107h256v-848h-256z" />
    <glyph glyph-name="asciicircum" unicode="^" horiz-adv-x="596" 
d="M25 333l215 347h116l215 -347h-139l-134 218l-134 -218h-139z" />
    <glyph glyph-name="underscore" unicode="_" horiz-adv-x="500" 
d="M0 -143v104h500v-104h-500z" />
    <glyph glyph-name="grave" unicode="`" horiz-adv-x="500" 
d="M217 590l-143 140h160l113 -140h-130z" />
    <glyph glyph-name="a" unicode="a" horiz-adv-x="542" 
d="M198 -12c-103 0 -165 58 -165 162c0 110 69 171 208 171h96v17c0 54 -21 80 -74 80c-51 0 -71 -23 -73 -59h-143c8 116 78 175 222 175c148 0 216 -62 216 -198v-336h-125l-5 65c-36 -51 -88 -77 -157 -77zM243 104c42 0 73 20 94 59v60h-69c-67 0 -89 -23 -89 -61
s22 -58 64 -58z" />
    <glyph glyph-name="b" unicode="b" horiz-adv-x="579" 
d="M347 -12c-66 0 -114 23 -153 75l-4 -63h-126v730h148v-250c35 37 79 54 135 54c119 0 186 -74 186 -215v-117c0 -141 -67 -214 -186 -214zM312 108c48 0 73 28 73 95v116c0 68 -25 95 -72 95s-80 -27 -101 -80v-147c21 -52 54 -79 100 -79z" />
    <glyph glyph-name="c" unicode="c" horiz-adv-x="526" 
d="M273 -12c-151 0 -228 75 -228 222v102c0 147 77 222 228 222c146 0 221 -69 223 -211h-141c-3 60 -24 91 -80 91s-82 -31 -82 -103v-101c0 -71 26 -102 82 -102s78 31 80 91h141c-2 -142 -77 -211 -223 -211z" />
    <glyph glyph-name="d" unicode="d" horiz-adv-x="579" 
d="M232 -12c-119 0 -186 73 -186 214v117c0 141 67 215 186 215c56 0 100 -17 135 -54v250h148v-730h-126l-4 63c-39 -52 -87 -75 -153 -75zM267 108c46 0 79 27 100 79v147c-21 53 -54 80 -101 80s-72 -27 -72 -95v-116c0 -67 25 -95 73 -95z" />
    <glyph glyph-name="e" unicode="e" horiz-adv-x="553" 
d="M283 -12c-158 0 -238 75 -238 222v102c0 145 80 222 232 222c153 0 233 -79 233 -224v-95h-317v-10c0 -68 27 -101 91 -101c50 0 79 20 82 56h141c-6 -113 -83 -172 -224 -172zM193 319h177c0 70 -26 99 -88 99c-63 0 -89 -29 -89 -99z" />
    <glyph glyph-name="f" unicode="f" horiz-adv-x="356" 
d="M88 0v410h-80v112h80v38c0 115 50 170 153 170h112v-114h-62c-40 0 -55 -17 -55 -63v-31h113v-112h-113v-410h-148z" />
    <glyph glyph-name="g" unicode="g" horiz-adv-x="579" 
d="M277 -194c-139 0 -216 50 -222 172h139c4 -40 29 -56 81 -56c65 0 92 25 92 92v60c-35 -37 -79 -54 -135 -54c-119 0 -186 74 -186 215v85c0 141 67 214 186 214c66 0 114 -23 153 -75l4 63h126v-508c0 -143 -78 -208 -238 -208zM266 140c47 0 80 27 101 80v115
c-21 52 -54 79 -100 79c-48 0 -73 -28 -73 -95v-84c0 -68 25 -95 72 -95z" />
    <glyph glyph-name="h" unicode="h" horiz-adv-x="570" 
d="M64 0v730h148v-250c36 37 79 54 134 54c108 0 164 -64 164 -188v-346h-148v333c0 49 -18 73 -58 73c-39 0 -70 -23 -92 -69v-337h-148z" />
    <glyph glyph-name="i" unicode="i" horiz-adv-x="276" 
d="M60 596v126h156v-126h-156zM64 0v522h148v-522h-148z" />
    <glyph glyph-name="j" unicode="j" horiz-adv-x="276" 
d="M60 596v126h156v-126h-156zM-3 -182v116h30c27 0 37 11 37 43v545h148v-548c0 -109 -41 -156 -139 -156h-76z" />
    <glyph glyph-name="k" unicode="k" horiz-adv-x="549" 
d="M64 0v730h148v-412l172 204h173l-183 -213l186 -309h-172l-119 202l-57 -67v-135h-148z" />
    <glyph glyph-name="l" unicode="l" horiz-adv-x="276" 
d="M64 0v730h148v-730h-148z" />
    <glyph glyph-name="m" unicode="m" horiz-adv-x="856" 
d="M64 0v522h126l4 -64c38 53 84 76 148 76c67 0 114 -25 140 -74c40 53 88 74 149 74c106 0 165 -62 165 -179v-355h-148v339c0 46 -20 67 -56 67s-64 -21 -88 -71v-335h-148v339c0 46 -21 67 -57 67c-35 0 -64 -21 -87 -71v-335h-148z" />
    <glyph glyph-name="n" unicode="n" horiz-adv-x="570" 
d="M64 0v522h126l4 -63c40 52 88 75 152 75c108 0 164 -64 164 -188v-346h-148v333c0 49 -18 73 -58 73c-39 0 -70 -23 -92 -69v-337h-148z" />
    <glyph glyph-name="o" unicode="o" horiz-adv-x="564" 
d="M282 -12c-158 0 -237 75 -237 225v96c0 150 79 225 237 225s237 -75 237 -225v-96c0 -150 -79 -225 -237 -225zM282 108c63 0 89 32 89 108v90c0 76 -26 108 -89 108s-89 -32 -89 -108v-90c0 -76 26 -108 89 -108z" />
    <glyph glyph-name="p" unicode="p" horiz-adv-x="579" 
d="M64 -182v704h126l4 -63c39 52 87 75 153 75c119 0 186 -73 186 -214v-117c0 -141 -67 -215 -186 -215c-56 0 -100 17 -135 54v-224h-148zM313 108c47 0 72 27 72 95v116c0 67 -25 95 -73 95c-46 0 -79 -27 -100 -79v-147c21 -53 54 -80 101 -80z" />
    <glyph glyph-name="q" unicode="q" horiz-adv-x="579" 
d="M367 -182v224c-35 -37 -79 -54 -135 -54c-119 0 -186 74 -186 215v117c0 141 67 214 186 214c66 0 114 -23 153 -75l4 63h126v-704h-148zM266 108c47 0 80 27 101 80v147c-21 52 -54 79 -100 79c-48 0 -73 -28 -73 -95v-116c0 -68 25 -95 72 -95z" />
    <glyph glyph-name="r" unicode="r" horiz-adv-x="377" 
d="M64 0v522h126l6 -97c20 74 61 107 133 107h39v-138h-28c-77 0 -114 -29 -128 -102v-292h-148z" />
    <glyph glyph-name="s" unicode="s" horiz-adv-x="504" 
d="M252 -12c-151 0 -221 56 -221 172h141c0 -45 24 -65 81 -65c49 0 73 15 73 47c0 37 -28 53 -106 62c-129 15 -180 59 -180 158c0 113 76 172 213 172c138 0 208 -58 208 -166h-141c0 41 -20 59 -68 59c-44 0 -66 -17 -66 -47c0 -34 27 -49 103 -58
c132 -15 183 -64 183 -165c0 -114 -72 -169 -220 -169z" />
    <glyph glyph-name="t" unicode="t" horiz-adv-x="361" 
d="M236 0c-107 0 -152 50 -152 170v240h-76v112h79l8 130h137v-130h108v-112h-108v-231c0 -49 12 -63 55 -63h58v-116h-109z" />
    <glyph glyph-name="u" unicode="u" horiz-adv-x="574" 
d="M226 -12c-109 0 -166 63 -166 188v346h148v-333c0 -51 19 -73 61 -73c40 0 71 20 93 70v336h148v-522h-126l-4 64c-41 -53 -89 -76 -154 -76z" />
    <glyph glyph-name="v" unicode="v" horiz-adv-x="504" 
d="M173 0l-170 522h156l96 -356l97 356h149l-170 -522h-158z" />
    <glyph glyph-name="w" unicode="w" horiz-adv-x="800" 
d="M156 0l-150 522h155l81 -340l96 340h130l96 -340l81 340h149l-150 -522h-150l-93 326l-93 -326h-152z" />
    <glyph glyph-name="x" unicode="x" horiz-adv-x="499" 
d="M-11 0l166 272l-159 250h173l93 -151l82 151h159l-159 -261l166 -261h-173l-100 163l-89 -163h-159z" />
    <glyph glyph-name="y" unicode="y" horiz-adv-x="498" 
d="M62 -182v116h58c28 0 40 8 50 39l11 33l-178 516h157l97 -326l89 326h149l-185 -567c-35 -108 -71 -137 -173 -137h-75z" />
    <glyph glyph-name="z" unicode="z" horiz-adv-x="477" 
d="M24 0v102l236 305h-215v115h403v-102l-236 -305h241v-115h-429z" />
    <glyph glyph-name="braceleft" unicode="{" horiz-adv-x="343" 
d="M248 -118c-113 0 -162 49 -162 183v116c0 56 -17 72 -67 72v106c50 0 67 16 67 72v116c0 134 49 183 162 183h80v-107h-43c-51 0 -62 -17 -62 -81v-106c0 -73 -24 -115 -76 -129v-2c52 -14 76 -56 76 -129v-106c0 -64 11 -81 62 -81h43v-107h-80z" />
    <glyph glyph-name="bar" unicode="|" horiz-adv-x="290" 
d="M86 -226v1000h118v-1000h-118z" />
    <glyph glyph-name="braceright" unicode="}" horiz-adv-x="343" 
d="M15 -118v107h43c51 0 62 17 62 81v106c0 73 24 115 76 129v2c-52 14 -76 56 -76 129v106c0 64 -11 81 -62 81h-43v107h80c113 0 162 -49 162 -183v-116c0 -56 17 -72 67 -72v-106c-50 0 -67 -16 -67 -72v-116c0 -134 -49 -183 -162 -183h-80z" />
    <glyph glyph-name="asciitilde" unicode="~" horiz-adv-x="596" 
d="M398 207c-46 0 -81 14 -129 51c-31 24 -50 33 -71 33c-34 0 -53 -25 -54 -71h-104c1 121 58 190 158 190c46 0 81 -14 129 -51c31 -24 50 -33 71 -33c34 0 53 25 54 71h104c-1 -121 -58 -190 -158 -190z" />
    <glyph glyph-name="uni00A0" unicode="&#xa0;" horiz-adv-x="240" 
 />
    <glyph glyph-name="exclamdown" unicode="&#xa1;" horiz-adv-x="309" 
d="M77 367v155h155v-155h-155zM77 -158l3 194l21 262h107l21 -262l3 -194h-155z" />
    <glyph glyph-name="cent" unicode="&#xa2;" horiz-adv-x="596" 
d="M255 -72v75c-120 15 -180 85 -180 209v98c0 124 60 194 180 209v75h108v-75c115 -15 171 -82 173 -201h-143c-1 43 -15 68 -45 78v-271c30 11 44 36 45 79h143c-2 -119 -58 -186 -173 -201v-75h-108zM270 125v272c-33 -10 -47 -38 -47 -88v-97c0 -48 14 -76 47 -87z" />
    <glyph glyph-name="sterling" unicode="&#xa3;" horiz-adv-x="596" 
d="M70 0v113c52 28 80 64 80 136v12h-101v117h69c-21 51 -27 80 -27 118c0 128 82 196 234 196c151 0 223 -68 223 -211h-138c0 55 -25 86 -87 86c-60 0 -84 -30 -84 -89c0 -31 6 -55 20 -100h227v-117h-205c0 -59 -17 -103 -49 -134h309v-127h-471z" />
    <glyph glyph-name="currency" unicode="&#xa4;" horiz-adv-x="596" 
d="M103 72l-76 76l107 108c-13 25 -20 53 -20 84s7 59 20 84l-107 108l76 76l106 -108c26 14 57 22 90 22s64 -8 90 -22l106 108l76 -76l-107 -108c13 -25 20 -53 20 -84s-7 -59 -20 -84l107 -108l-76 -76l-106 108c-26 -14 -57 -22 -90 -22s-64 8 -90 22zM299 265
c44 0 75 32 75 75s-31 75 -75 75s-75 -32 -75 -75s31 -75 75 -75z" />
    <glyph glyph-name="yen" unicode="&#xa5;" horiz-adv-x="596" 
d="M224 0v103h-154v89h154v51h-154v89h140l-201 348h170l123 -231l123 231h162l-202 -348h141v-89h-154v-51h154v-89h-154v-103h-148z" />
    <glyph glyph-name="brokenbar" unicode="&#xa6;" horiz-adv-x="290" 
d="M86 374v400h118v-400h-118zM86 -226v400h118v-400h-118z" />
    <glyph glyph-name="section" unicode="&#xa7;" horiz-adv-x="610" 
d="M301 -196c-162 0 -243 62 -243 190h141c0 -56 35 -80 104 -80c64 0 97 21 97 57c0 40 -35 62 -135 83c-155 33 -217 86 -217 183c0 63 28 110 80 141v2c-42 31 -61 73 -61 130c0 119 84 182 233 182s231 -63 231 -182h-141c0 49 -31 73 -89 73c-57 0 -89 -23 -89 -59
c0 -40 35 -61 133 -81c155 -32 217 -84 217 -181c0 -64 -28 -109 -79 -140v-2c44 -32 63 -74 63 -134c0 -120 -83 -182 -245 -182zM374 168c26 12 44 33 44 63c0 45 -35 68 -137 89c-18 4 -34 7 -49 12c-26 -15 -40 -37 -40 -64c0 -47 35 -70 138 -90c16 -3 30 -6 44 -10z
" />
    <glyph glyph-name="dieresis" unicode="&#xa8;" horiz-adv-x="500" 
d="M79 596v126h136v-126h-136zM285 596v126h136v-126h-136z" />
    <glyph glyph-name="copyright" unicode="&#xa9;" horiz-adv-x="760" 
d="M380 -12c-204 0 -352 148 -352 352s148 352 352 352s352 -148 352 -352s-148 -352 -352 -352zM380 75c153 0 255 106 255 265s-102 265 -255 265s-255 -106 -255 -265s102 -265 255 -265zM380 152c-101 0 -145 46 -145 149v78c0 103 44 149 145 149
c99 0 144 -45 145 -143h-94c-2 44 -15 60 -48 60c-36 0 -48 -18 -48 -69v-72c0 -51 12 -69 48 -69c33 0 46 16 48 60h94c-1 -98 -46 -143 -145 -143z" />
    <glyph glyph-name="ordfeminine" unicode="&#xaa;" horiz-adv-x="414" 
d="M145 307c-77 0 -121 43 -121 114c0 78 52 119 145 119h81v15c0 33 -16 50 -53 50c-34 0 -51 -14 -56 -38h-105c10 82 62 125 166 125c108 0 160 -47 160 -139v-234h-96l-3 44c-27 -38 -68 -56 -118 -56zM180 394c29 0 55 10 70 37v41h-64c-38 0 -55 -12 -55 -39
c0 -25 15 -39 49 -39zM34 150v89h328v-89h-328z" />
    <glyph glyph-name="guillemotleft" unicode="&#xab;" horiz-adv-x="557" 
d="M147 82l-132 180l132 180h149l-132 -180l132 -180h-149zM393 82l-132 180l132 180h149l-132 -180l132 -180h-149z" />
    <glyph glyph-name="logicalnot" unicode="&#xac;" horiz-adv-x="596" 
d="M422 124v196h-370v118h492v-314h-122z" />
    <glyph glyph-name="uni00AD" unicode="&#xad;" horiz-adv-x="383" 
d="M33 233v128h317v-128h-317z" />
    <glyph glyph-name="registered" unicode="&#xae;" horiz-adv-x="760" 
d="M380 -12c-204 0 -352 148 -352 352s148 352 352 352s352 -148 352 -352s-148 -352 -352 -352zM380 75c153 0 255 106 255 265s-102 265 -255 265s-255 -106 -255 -265s102 -265 255 -265zM235 162v356h160c96 0 138 -36 138 -117c0 -55 -20 -89 -62 -105l82 -134h-112
l-68 123h-38v-123h-100zM335 360h48c37 0 50 10 50 38c0 29 -13 40 -50 40h-48v-78z" />
    <glyph glyph-name="macron" unicode="&#xaf;" horiz-adv-x="500" 
d="M102 609h296v99h-296v-99z" />
    <glyph glyph-name="degree" unicode="&#xb0;" horiz-adv-x="410" 
d="M205 364c-103 0 -178 73 -178 175s75 175 178 175s178 -73 178 -175s-75 -175 -178 -175zM205 464c41 0 69 31 69 75s-28 75 -69 75s-69 -31 -69 -75s28 -75 69 -75z" />
    <glyph glyph-name="plusminus" unicode="&#xb1;" horiz-adv-x="596" 
d="M237 161v150h-185v118h185v165h122v-165h185v-118h-185v-150h-122zM52 0v118h492v-118h-492z" />
    <glyph glyph-name="uni00B2" unicode="&#xb2;" 
d="M30 416v48c0 78 36 126 125 166c51 23 70 41 70 68c0 23 -15 36 -43 36c-32 0 -46 -17 -46 -49v-8h-99v18c0 82 52 127 148 127c94 0 146 -44 146 -121c0 -66 -37 -110 -125 -149c-46 -20 -63 -31 -69 -47h194v-89h-301z" />
    <glyph glyph-name="uni00B3" unicode="&#xb3;" 
d="M184 404c-100 0 -152 39 -152 116v19h100v-7c0 -26 18 -40 51 -40c31 0 48 13 48 40c0 29 -18 40 -56 40h-44v83h40c35 0 52 13 52 40c0 26 -16 39 -43 39s-43 -13 -43 -38v-6h-99v11c0 80 50 121 146 121c93 0 144 -38 144 -115c0 -42 -16 -70 -50 -85v-2
c41 -15 59 -46 59 -94c0 -82 -52 -122 -153 -122z" />
    <glyph glyph-name="acute" unicode="&#xb4;" horiz-adv-x="500" 
d="M153 590l113 140h160l-143 -140h-130z" />
    <glyph glyph-name="uni00B5" unicode="&#xb5;" horiz-adv-x="578" 
d="M64 -182v704h148v-331c0 -55 21 -75 60 -75c38 0 71 19 94 70v336h148v-522h-126l-4 63c-39 -53 -84 -75 -145 -75c-9 0 -18 1 -27 2v-172h-148z" />
    <glyph glyph-name="paragraph" unicode="&#xb6;" horiz-adv-x="610" 
d="M207 -183v449c-129 8 -184 71 -184 207c0 145 64 207 215 207h291v-863h-119v755h-84v-755h-119z" />
    <glyph glyph-name="periodcentered" unicode="&#xb7;" horiz-adv-x="293" 
d="M69 220v155h155v-155h-155z" />
    <glyph glyph-name="cedilla" unicode="&#xb8;" horiz-adv-x="500" 
d="M112 -187l23 56c21 -10 39 -16 65 -16c33 0 44 9 44 24c0 16 -11 23 -56 23h-17l45 115h66l-26 -69c74 0 108 -24 108 -75c0 -47 -29 -81 -139 -81c-46 0 -80 6 -113 23z" />
    <glyph glyph-name="uni00B9" unicode="&#xb9;" 
d="M61 416v87h91v186c-35 -7 -71 -8 -103 -8v78c58 1 90 15 111 51h98v-307h91v-87h-288z" />
    <glyph glyph-name="ordmasculine" unicode="&#xba;" horiz-adv-x="408" 
d="M204 307c-112 0 -167 53 -167 160v64c0 108 55 161 167 161s167 -53 167 -161v-64c0 -107 -55 -160 -167 -160zM204 396c39 0 56 18 56 70v67c0 50 -17 70 -56 70s-56 -20 -56 -70v-67c0 -52 17 -70 56 -70zM40 150v89h328v-89h-328z" />
    <glyph glyph-name="guillemotright" unicode="&#xbb;" horiz-adv-x="557" 
d="M15 80l132 180l-132 180h149l132 -180l-132 -180h-149zM261 80l132 180l-132 180h149l132 -180l-132 -180h-149z" />
    <glyph glyph-name="onequarter" unicode="&#xbc;" horiz-adv-x="846" 
d="M221 -12l367 704h103l-367 -704h-103zM61 286v87h91v186c-35 -7 -71 -8 -103 -8v78c58 1 90 15 111 51h98v-307h91v-87h-288zM683 0v80h-180v89l175 225h111v-232h40v-82h-40v-80h-106zM595 162h88v118z" />
    <glyph glyph-name="onehalf" unicode="&#xbd;" horiz-adv-x="846" 
d="M555 692h103l-367 -704h-103l155 298h-282v87h91v186c-35 -7 -71 -8 -103 -8v78c58 1 90 15 111 51h98v-307h91v-76zM686 136c-46 -20 -63 -31 -69 -47h194v-89h-301v48c0 78 36 126 125 166c51 23 70 41 70 68c0 23 -15 36 -43 36c-32 0 -46 -17 -46 -49v-8h-99v18
c0 82 52 127 148 127c94 0 146 -44 146 -121c0 -66 -37 -110 -125 -149z" />
    <glyph glyph-name="threequarters" unicode="&#xbe;" horiz-adv-x="846" 
d="M184 274c-100 0 -152 39 -152 116v19h100v-7c0 -26 18 -40 51 -40c31 0 48 13 48 40c0 29 -18 40 -56 40h-44v83h40c35 0 52 13 52 40c0 26 -16 39 -43 39s-43 -13 -43 -38v-6h-99v11c0 80 50 121 146 121c93 0 144 -38 144 -115c0 -42 -16 -70 -50 -85v-2
c41 -15 59 -46 59 -94c0 -82 -52 -122 -153 -122zM221 -12l367 704h103l-367 -704h-103zM683 0v80h-180v89l175 225h111v-232h40v-82h-40v-80h-106zM595 162h88v118z" />
    <glyph glyph-name="questiondown" unicode="&#xbf;" horiz-adv-x="467" 
d="M178 367v155h154v-155h-154zM237 -170c-138 0 -216 65 -216 182c0 69 26 115 95 162c55 38 74 66 74 109v15h129v-21c0 -78 -27 -129 -93 -176c-44 -31 -58 -51 -58 -84c0 -40 26 -62 71 -62c51 0 77 30 77 88h139c0 -142 -73 -213 -218 -213z" />
    <glyph glyph-name="Agrave" unicode="&#xc0;" horiz-adv-x="615" 
d="M274 742l-143 140h160l113 -140h-130zM2 0l228 680h155l228 -680h-159l-43 137h-214l-43 -137h-152zM234 262h140l-70 248z" />
    <glyph glyph-name="Aacute" unicode="&#xc1;" horiz-adv-x="615" 
d="M210 742l113 140h160l-143 -140h-130zM2 0l228 680h155l228 -680h-159l-43 137h-214l-43 -137h-152zM234 262h140l-70 248z" />
    <glyph glyph-name="Acircumflex" unicode="&#xc2;" horiz-adv-x="615" 
d="M118 742l122 140h134l122 -140h-129l-60 58l-60 -58h-129zM2 0l228 680h155l228 -680h-159l-43 137h-214l-43 -137h-152zM234 262h140l-70 248z" />
    <glyph glyph-name="Atilde" unicode="&#xc3;" horiz-adv-x="615" 
d="M366 737c-28 0 -44 5 -76 27c-21 14 -26 16 -36 16c-19 0 -28 -11 -31 -39h-84c3 96 38 140 109 140c28 0 44 -5 76 -27c21 -14 26 -16 36 -16c19 0 28 11 31 39h84c-3 -96 -38 -140 -109 -140zM2 0l228 680h155l228 -680h-159l-43 137h-214l-43 -137h-152zM234 262h140
l-70 248z" />
    <glyph glyph-name="Adieresis" unicode="&#xc4;" horiz-adv-x="615" 
d="M136 748v126h136v-126h-136zM342 748v126h136v-126h-136zM2 0l228 680h155l228 -680h-159l-43 137h-214l-43 -137h-152zM234 262h140l-70 248z" />
    <glyph glyph-name="Aring" unicode="&#xc5;" horiz-adv-x="615" 
d="M307 723c-71 0 -123 48 -123 116c0 67 52 117 123 117s123 -50 123 -117c0 -68 -52 -116 -123 -116zM307 797c23 0 38 16 38 42c0 25 -15 41 -38 41s-38 -16 -38 -41c0 -26 15 -42 38 -42zM2 0l228 680h155l228 -680h-159l-43 137h-214l-43 -137h-152zM234 262h140
l-70 248z" />
    <glyph glyph-name="AE" unicode="&#xc6;" horiz-adv-x="901" 
d="M-26 0l379 680h502v-129h-290v-143h240v-128h-240v-151h300v-129h-450v137h-204l-75 -137h-162zM277 262h138v274z" />
    <glyph glyph-name="Ccedilla" unicode="&#xc7;" horiz-adv-x="615" 
d="M317 117c80 0 112 38 115 127h143c-4 -162 -74 -243 -223 -255l-16 -43c74 0 108 -24 108 -75c0 -47 -29 -81 -139 -81c-46 0 -80 6 -113 23l23 56c21 -10 39 -16 65 -16c33 0 44 9 44 24c0 16 -11 23 -56 23h-17l35 89c-160 9 -235 97 -235 275v152
c0 189 84 276 264 276c174 0 256 -81 260 -257h-143c-3 90 -35 128 -115 128c-84 0 -116 -42 -116 -150v-146c0 -108 32 -150 116 -150z" />
    <glyph glyph-name="Egrave" unicode="&#xc8;" horiz-adv-x="587" 
d="M275 742l-143 140h160l113 -140h-130zM75 0v680h466v-129h-316v-141h266v-128h-266v-153h326v-129h-476z" />
    <glyph glyph-name="Eacute" unicode="&#xc9;" horiz-adv-x="587" 
d="M211 742l113 140h160l-143 -140h-130zM75 0v680h466v-129h-316v-141h266v-128h-266v-153h326v-129h-476z" />
    <glyph glyph-name="Ecircumflex" unicode="&#xca;" horiz-adv-x="587" 
d="M119 742l122 140h134l122 -140h-129l-60 58l-60 -58h-129zM75 0v680h466v-129h-316v-141h266v-128h-266v-153h326v-129h-476z" />
    <glyph glyph-name="Edieresis" unicode="&#xcb;" horiz-adv-x="587" 
d="M137 748v126h136v-126h-136zM343 748v126h136v-126h-136zM75 0v680h466v-129h-316v-141h266v-128h-266v-153h326v-129h-476z" />
    <glyph glyph-name="Igrave" unicode="&#xcc;" horiz-adv-x="300" 
d="M117 742l-143 140h160l113 -140h-130zM75 0v680h150v-680h-150z" />
    <glyph glyph-name="Iacute" unicode="&#xcd;" horiz-adv-x="300" 
d="M53 742l113 140h160l-143 -140h-130zM75 0v680h150v-680h-150z" />
    <glyph glyph-name="Icircumflex" unicode="&#xce;" horiz-adv-x="300" 
d="M-30 742l112 140h136l112 -140h-124l-56 59l-55 -59h-125zM75 0v680h150v-680h-150z" />
    <glyph glyph-name="Idieresis" unicode="&#xcf;" horiz-adv-x="300" 
d="M-9 748v126h132v-126h-132zM177 748v126h132v-126h-132zM75 0v680h150v-680h-150z" />
    <glyph glyph-name="Eth" unicode="&#xd0;" horiz-adv-x="652" 
d="M338 680c183 0 264 -84 264 -268v-144c0 -185 -81 -268 -264 -268h-253v282h-63v128h63v270h253zM452 271v138c0 106 -34 143 -135 143h-82v-142h113v-128h-113v-154h82c101 0 135 37 135 143z" />
    <glyph glyph-name="Ntilde" unicode="&#xd1;" horiz-adv-x="682" 
d="M400 737c-28 0 -44 5 -76 27c-21 14 -26 16 -36 16c-19 0 -28 -11 -31 -39h-84c3 96 38 140 109 140c28 0 44 -5 76 -27c21 -14 26 -16 36 -16c19 0 28 11 31 39h84c-3 -96 -38 -140 -109 -140zM75 0v680h159l231 -429v429h142v-680h-143l-247 458v-458h-142z" />
    <glyph glyph-name="Ograve" unicode="&#xd2;" horiz-adv-x="652" 
d="M293 742l-143 140h160l113 -140h-130zM326 -12c-188 0 -275 87 -275 277v150c0 190 87 277 275 277s275 -87 275 -277v-150c0 -190 -87 -277 -275 -277zM326 117c90 0 125 43 125 150v146c0 107 -35 150 -125 150s-125 -43 -125 -150v-146c0 -107 35 -150 125 -150z" />
    <glyph glyph-name="Oacute" unicode="&#xd3;" horiz-adv-x="652" 
d="M229 742l113 140h160l-143 -140h-130zM326 -12c-188 0 -275 87 -275 277v150c0 190 87 277 275 277s275 -87 275 -277v-150c0 -190 -87 -277 -275 -277zM326 117c90 0 125 43 125 150v146c0 107 -35 150 -125 150s-125 -43 -125 -150v-146c0 -107 35 -150 125 -150z" />
    <glyph glyph-name="Ocircumflex" unicode="&#xd4;" horiz-adv-x="652" 
d="M137 742l122 140h134l122 -140h-129l-60 58l-60 -58h-129zM326 -12c-188 0 -275 87 -275 277v150c0 190 87 277 275 277s275 -87 275 -277v-150c0 -190 -87 -277 -275 -277zM326 117c90 0 125 43 125 150v146c0 107 -35 150 -125 150s-125 -43 -125 -150v-146
c0 -107 35 -150 125 -150z" />
    <glyph glyph-name="Otilde" unicode="&#xd5;" horiz-adv-x="652" 
d="M385 737c-28 0 -44 5 -76 27c-21 14 -26 16 -36 16c-19 0 -28 -11 -31 -39h-84c3 96 38 140 109 140c28 0 44 -5 76 -27c21 -14 26 -16 36 -16c19 0 28 11 31 39h84c-3 -96 -38 -140 -109 -140zM326 -12c-188 0 -275 87 -275 277v150c0 190 87 277 275 277
s275 -87 275 -277v-150c0 -190 -87 -277 -275 -277zM326 117c90 0 125 43 125 150v146c0 107 -35 150 -125 150s-125 -43 -125 -150v-146c0 -107 35 -150 125 -150z" />
    <glyph glyph-name="Odieresis" unicode="&#xd6;" horiz-adv-x="652" 
d="M155 748v126h136v-126h-136zM361 748v126h136v-126h-136zM326 -12c-188 0 -275 87 -275 277v150c0 190 87 277 275 277s275 -87 275 -277v-150c0 -190 -87 -277 -275 -277zM326 117c90 0 125 43 125 150v146c0 107 -35 150 -125 150s-125 -43 -125 -150v-146
c0 -107 35 -150 125 -150z" />
    <glyph glyph-name="multiply" unicode="&#xd7;" horiz-adv-x="596" 
d="M132 55l-86 86l166 168l-166 168l86 86l166 -168l166 168l86 -86l-166 -168l166 -168l-86 -86l-166 168z" />
    <glyph glyph-name="Oslash" unicode="&#xd8;" horiz-adv-x="652" 
d="M601 624l-33 -46c22 -42 33 -96 33 -163v-150c0 -190 -87 -277 -275 -277c-65 0 -118 10 -159 32l-23 -32l-93 68l33 46c-22 42 -33 96 -33 163v150c0 190 87 277 275 277c65 0 118 -10 159 -32l23 32zM201 265l202 280c-19 12 -45 18 -77 18c-90 0 -125 -43 -125 -150
v-148zM451 415l-202 -280c19 -12 45 -18 77 -18c90 0 125 43 125 150v148z" />
    <glyph glyph-name="Ugrave" unicode="&#xd9;" horiz-adv-x="631" 
d="M282 742l-143 140h160l113 -140h-130zM316 -12c-179 0 -255 72 -255 240v452h150v-447c0 -85 29 -116 107 -116s107 31 107 116v447h145v-452c0 -168 -76 -240 -254 -240z" />
    <glyph glyph-name="Uacute" unicode="&#xda;" horiz-adv-x="631" 
d="M218 742l113 140h160l-143 -140h-130zM316 -12c-179 0 -255 72 -255 240v452h150v-447c0 -85 29 -116 107 -116s107 31 107 116v447h145v-452c0 -168 -76 -240 -254 -240z" />
    <glyph glyph-name="Ucircumflex" unicode="&#xdb;" horiz-adv-x="631" 
d="M126 742l122 140h134l122 -140h-129l-60 58l-60 -58h-129zM316 -12c-179 0 -255 72 -255 240v452h150v-447c0 -85 29 -116 107 -116s107 31 107 116v447h145v-452c0 -168 -76 -240 -254 -240z" />
    <glyph glyph-name="Udieresis" unicode="&#xdc;" horiz-adv-x="631" 
d="M144 748v126h136v-126h-136zM350 748v126h136v-126h-136zM316 -12c-179 0 -255 72 -255 240v452h150v-447c0 -85 29 -116 107 -116s107 31 107 116v447h145v-452c0 -168 -76 -240 -254 -240z" />
    <glyph glyph-name="Yacute" unicode="&#xdd;" horiz-adv-x="541" 
d="M173 742l113 140h160l-143 -140h-130zM196 0v283l-222 397h171l132 -246l132 246h158l-221 -394v-286h-150z" />
    <glyph glyph-name="Thorn" unicode="&#xde;" horiz-adv-x="612" 
d="M75 0v680h150v-92h119c172 0 245 -66 245 -222c0 -155 -73 -220 -245 -220h-119v-146h-150zM225 274h106c76 0 108 28 108 93s-32 93 -108 93h-106v-186z" />
    <glyph glyph-name="germandbls" unicode="&#xdf;" horiz-adv-x="604" 
d="M88 0v410h-80v112h80v28c0 127 69 192 213 192c139 0 211 -61 211 -165c0 -49 -15 -85 -55 -131c-25 -28 -32 -43 -32 -61c0 -24 14 -38 56 -58c73 -34 101 -76 101 -150c0 -115 -71 -177 -220 -177h-65v116h65c50 0 72 18 72 50c0 27 -13 41 -59 65
c-67 35 -94 70 -94 135c0 48 14 84 51 130c27 33 35 51 35 74c0 34 -21 58 -64 58c-48 0 -67 -29 -67 -78v-550h-148z" />
    <glyph glyph-name="agrave" unicode="&#xe0;" horiz-adv-x="542" 
d="M232 590l-143 140h160l113 -140h-130zM198 -12c-103 0 -165 58 -165 162c0 110 69 171 208 171h96v17c0 54 -21 80 -74 80c-51 0 -71 -23 -73 -59h-143c8 116 78 175 222 175c148 0 216 -62 216 -198v-336h-125l-5 65c-36 -51 -88 -77 -157 -77zM243 104
c42 0 73 20 94 59v60h-69c-67 0 -89 -23 -89 -61s22 -58 64 -58z" />
    <glyph glyph-name="aacute" unicode="&#xe1;" horiz-adv-x="542" 
d="M168 590l113 140h160l-143 -140h-130zM198 -12c-103 0 -165 58 -165 162c0 110 69 171 208 171h96v17c0 54 -21 80 -74 80c-51 0 -71 -23 -73 -59h-143c8 116 78 175 222 175c148 0 216 -62 216 -198v-336h-125l-5 65c-36 -51 -88 -77 -157 -77zM243 104
c42 0 73 20 94 59v60h-69c-67 0 -89 -23 -89 -61s22 -58 64 -58z" />
    <glyph glyph-name="acircumflex" unicode="&#xe2;" horiz-adv-x="542" 
d="M76 590l122 140h134l122 -140h-129l-60 58l-60 -58h-129zM198 -12c-103 0 -165 58 -165 162c0 110 69 171 208 171h96v17c0 54 -21 80 -74 80c-51 0 -71 -23 -73 -59h-143c8 116 78 175 222 175c148 0 216 -62 216 -198v-336h-125l-5 65c-36 -51 -88 -77 -157 -77z
M243 104c42 0 73 20 94 59v60h-69c-67 0 -89 -23 -89 -61s22 -58 64 -58z" />
    <glyph glyph-name="atilde" unicode="&#xe3;" horiz-adv-x="542" 
d="M324 585c-28 0 -44 5 -76 27c-21 14 -26 16 -36 16c-19 0 -28 -11 -31 -39h-84c3 96 38 140 109 140c28 0 44 -5 76 -27c21 -14 26 -16 36 -16c19 0 28 11 31 39h84c-3 -96 -38 -140 -109 -140zM198 -12c-103 0 -165 58 -165 162c0 110 69 171 208 171h96v17
c0 54 -21 80 -74 80c-51 0 -71 -23 -73 -59h-143c8 116 78 175 222 175c148 0 216 -62 216 -198v-336h-125l-5 65c-36 -51 -88 -77 -157 -77zM243 104c42 0 73 20 94 59v60h-69c-67 0 -89 -23 -89 -61s22 -58 64 -58z" />
    <glyph glyph-name="adieresis" unicode="&#xe4;" horiz-adv-x="542" 
d="M94 596v126h136v-126h-136zM300 596v126h136v-126h-136zM198 -12c-103 0 -165 58 -165 162c0 110 69 171 208 171h96v17c0 54 -21 80 -74 80c-51 0 -71 -23 -73 -59h-143c8 116 78 175 222 175c148 0 216 -62 216 -198v-336h-125l-5 65c-36 -51 -88 -77 -157 -77z
M243 104c42 0 73 20 94 59v60h-69c-67 0 -89 -23 -89 -61s22 -58 64 -58z" />
    <glyph glyph-name="aring" unicode="&#xe5;" horiz-adv-x="542" 
d="M265 571c-71 0 -123 48 -123 116c0 67 52 117 123 117s123 -50 123 -117c0 -68 -52 -116 -123 -116zM265 645c23 0 38 16 38 42c0 25 -15 41 -38 41s-38 -16 -38 -41c0 -26 15 -42 38 -42zM198 -12c-103 0 -165 58 -165 162c0 110 69 171 208 171h96v17
c0 54 -21 80 -74 80c-51 0 -71 -23 -73 -59h-143c8 116 78 175 222 175c148 0 216 -62 216 -198v-336h-125l-5 65c-36 -51 -88 -77 -157 -77zM243 104c42 0 73 20 94 59v60h-69c-67 0 -89 -23 -89 -61s22 -58 64 -58z" />
    <glyph glyph-name="ae" unicode="&#xe6;" horiz-adv-x="845" 
d="M209 -12c-112 0 -176 57 -176 162c0 110 69 171 208 171h96v18c0 53 -21 79 -74 79c-51 0 -71 -23 -73 -59h-143c8 120 82 175 207 175c80 0 134 -22 165 -70c32 47 86 70 164 70c143 0 219 -76 219 -224v-95h-317v-10c0 -68 28 -101 92 -101c50 0 78 20 81 56h141
c-6 -113 -83 -172 -224 -172c-93 0 -159 26 -197 77c-41 -52 -95 -77 -169 -77zM485 319h177c0 70 -26 99 -88 99c-63 0 -89 -29 -89 -99zM243 104c44 0 76 22 96 64c-1 13 -2 27 -2 42v13h-68c-68 0 -90 -23 -90 -61s22 -58 64 -58z" />
    <glyph glyph-name="ccedilla" unicode="&#xe7;" horiz-adv-x="526" 
d="M275 108c56 0 78 31 80 91h141c-2 -131 -66 -200 -190 -210l-16 -43c74 0 108 -24 108 -75c0 -47 -29 -81 -139 -81c-46 0 -80 6 -113 23l23 56c21 -10 39 -16 65 -16c33 0 44 9 44 24c0 16 -11 23 -56 23h-17l35 89c-129 11 -195 85 -195 221v102c0 147 77 222 228 222
c146 0 221 -69 223 -211h-141c-3 60 -24 91 -80 91s-82 -31 -82 -103v-101c0 -71 26 -102 82 -102z" />
    <glyph glyph-name="egrave" unicode="&#xe8;" horiz-adv-x="553" 
d="M242 590l-143 140h160l113 -140h-130zM283 -12c-158 0 -238 75 -238 222v102c0 145 80 222 232 222c153 0 233 -79 233 -224v-95h-317v-10c0 -68 27 -101 91 -101c50 0 79 20 82 56h141c-6 -113 -83 -172 -224 -172zM193 319h177c0 70 -26 99 -88 99
c-63 0 -89 -29 -89 -99z" />
    <glyph glyph-name="eacute" unicode="&#xe9;" horiz-adv-x="553" 
d="M178 590l113 140h160l-143 -140h-130zM283 -12c-158 0 -238 75 -238 222v102c0 145 80 222 232 222c153 0 233 -79 233 -224v-95h-317v-10c0 -68 27 -101 91 -101c50 0 79 20 82 56h141c-6 -113 -83 -172 -224 -172zM193 319h177c0 70 -26 99 -88 99
c-63 0 -89 -29 -89 -99z" />
    <glyph glyph-name="ecircumflex" unicode="&#xea;" horiz-adv-x="553" 
d="M86 590l122 140h134l122 -140h-129l-60 58l-60 -58h-129zM283 -12c-158 0 -238 75 -238 222v102c0 145 80 222 232 222c153 0 233 -79 233 -224v-95h-317v-10c0 -68 27 -101 91 -101c50 0 79 20 82 56h141c-6 -113 -83 -172 -224 -172zM193 319h177c0 70 -26 99 -88 99
c-63 0 -89 -29 -89 -99z" />
    <glyph glyph-name="edieresis" unicode="&#xeb;" horiz-adv-x="553" 
d="M104 596v126h136v-126h-136zM310 596v126h136v-126h-136zM283 -12c-158 0 -238 75 -238 222v102c0 145 80 222 232 222c153 0 233 -79 233 -224v-95h-317v-10c0 -68 27 -101 91 -101c50 0 79 20 82 56h141c-6 -113 -83 -172 -224 -172zM193 319h177c0 70 -26 99 -88 99
c-63 0 -89 -29 -89 -99z" />
    <glyph glyph-name="igrave" unicode="&#xec;" horiz-adv-x="276" 
d="M105 590l-143 140h160l113 -140h-130zM64 0v522h148v-522h-148z" />
    <glyph glyph-name="iacute" unicode="&#xed;" horiz-adv-x="276" 
d="M41 590l113 140h160l-143 -140h-130zM64 0v522h148v-522h-148z" />
    <glyph glyph-name="icircumflex" unicode="&#xee;" horiz-adv-x="276" 
d="M-42 590l112 140h136l112 -140h-124l-56 59l-55 -59h-125zM64 0v522h148v-522h-148z" />
    <glyph glyph-name="idieresis" unicode="&#xef;" horiz-adv-x="276" 
d="M-21 596v126h132v-126h-132zM165 596v126h132v-126h-132zM64 0v522h148v-522h-148z" />
    <glyph glyph-name="eth" unicode="&#xf0;" horiz-adv-x="561" 
d="M280 -12c-158 0 -237 75 -237 225v63c0 142 67 216 179 216c56 0 93 -18 125 -56c-16 42 -39 84 -70 124l-129 -49l-32 85l97 37c-35 34 -75 67 -120 97h193c21 -15 40 -31 58 -48l94 35l32 -85l-61 -23c70 -92 108 -200 108 -316v-80c0 -150 -79 -225 -237 -225z
M280 108c63 0 89 32 89 108v76c-11 48 -45 80 -97 80c-51 0 -81 -30 -81 -98v-58c0 -76 26 -108 89 -108z" />
    <glyph glyph-name="ntilde" unicode="&#xf1;" horiz-adv-x="570" 
d="M344 585c-28 0 -44 5 -76 27c-21 14 -26 16 -36 16c-19 0 -28 -11 -31 -39h-84c3 96 38 140 109 140c28 0 44 -5 76 -27c21 -14 26 -16 36 -16c19 0 28 11 31 39h84c-3 -96 -38 -140 -109 -140zM64 0v522h126l4 -63c40 52 88 75 152 75c108 0 164 -64 164 -188v-346h-148
v333c0 49 -18 73 -58 73c-39 0 -70 -23 -92 -69v-337h-148z" />
    <glyph glyph-name="ograve" unicode="&#xf2;" horiz-adv-x="564" 
d="M249 590l-143 140h160l113 -140h-130zM282 -12c-158 0 -237 75 -237 225v96c0 150 79 225 237 225s237 -75 237 -225v-96c0 -150 -79 -225 -237 -225zM282 108c63 0 89 32 89 108v90c0 76 -26 108 -89 108s-89 -32 -89 -108v-90c0 -76 26 -108 89 -108z" />
    <glyph glyph-name="oacute" unicode="&#xf3;" horiz-adv-x="564" 
d="M185 590l113 140h160l-143 -140h-130zM282 -12c-158 0 -237 75 -237 225v96c0 150 79 225 237 225s237 -75 237 -225v-96c0 -150 -79 -225 -237 -225zM282 108c63 0 89 32 89 108v90c0 76 -26 108 -89 108s-89 -32 -89 -108v-90c0 -76 26 -108 89 -108z" />
    <glyph glyph-name="ocircumflex" unicode="&#xf4;" horiz-adv-x="564" 
d="M93 590l122 140h134l122 -140h-129l-60 58l-60 -58h-129zM282 -12c-158 0 -237 75 -237 225v96c0 150 79 225 237 225s237 -75 237 -225v-96c0 -150 -79 -225 -237 -225zM282 108c63 0 89 32 89 108v90c0 76 -26 108 -89 108s-89 -32 -89 -108v-90c0 -76 26 -108 89 -108
z" />
    <glyph glyph-name="otilde" unicode="&#xf5;" horiz-adv-x="564" 
d="M341 585c-28 0 -44 5 -76 27c-21 14 -26 16 -36 16c-19 0 -28 -11 -31 -39h-84c3 96 38 140 109 140c28 0 44 -5 76 -27c21 -14 26 -16 36 -16c19 0 28 11 31 39h84c-3 -96 -38 -140 -109 -140zM282 -12c-158 0 -237 75 -237 225v96c0 150 79 225 237 225
s237 -75 237 -225v-96c0 -150 -79 -225 -237 -225zM282 108c63 0 89 32 89 108v90c0 76 -26 108 -89 108s-89 -32 -89 -108v-90c0 -76 26 -108 89 -108z" />
    <glyph glyph-name="odieresis" unicode="&#xf6;" horiz-adv-x="564" 
d="M111 596v126h136v-126h-136zM317 596v126h136v-126h-136zM282 -12c-158 0 -237 75 -237 225v96c0 150 79 225 237 225s237 -75 237 -225v-96c0 -150 -79 -225 -237 -225zM282 108c63 0 89 32 89 108v90c0 76 -26 108 -89 108s-89 -32 -89 -108v-90c0 -76 26 -108 89 -108
z" />
    <glyph glyph-name="divide" unicode="&#xf7;" horiz-adv-x="596" 
d="M220 456v132h156v-132h-156zM52 250v118h492v-118h-492zM220 30v132h156v-132h-156z" />
    <glyph glyph-name="oslash" unicode="&#xf8;" horiz-adv-x="564" 
d="M519 467l-27 -32c18 -34 27 -76 27 -126v-96c0 -150 -79 -225 -237 -225c-55 0 -101 9 -137 28l-23 -28l-77 67l27 32c-18 34 -27 76 -27 126v96c0 150 79 225 237 225c55 0 101 -9 137 -28l23 28zM193 306v-72l140 169c-13 7 -30 11 -51 11c-63 0 -89 -32 -89 -108z
M371 216v72l-140 -169c13 -7 30 -11 51 -11c63 0 89 32 89 108z" />
    <glyph glyph-name="ugrave" unicode="&#xf9;" horiz-adv-x="574" 
d="M252 590l-143 140h160l113 -140h-130zM226 -12c-109 0 -166 63 -166 188v346h148v-333c0 -51 19 -73 61 -73c40 0 71 20 93 70v336h148v-522h-126l-4 64c-41 -53 -89 -76 -154 -76z" />
    <glyph glyph-name="uacute" unicode="&#xfa;" horiz-adv-x="574" 
d="M188 590l113 140h160l-143 -140h-130zM226 -12c-109 0 -166 63 -166 188v346h148v-333c0 -51 19 -73 61 -73c40 0 71 20 93 70v336h148v-522h-126l-4 64c-41 -53 -89 -76 -154 -76z" />
    <glyph glyph-name="ucircumflex" unicode="&#xfb;" horiz-adv-x="574" 
d="M96 590l122 140h134l122 -140h-129l-60 58l-60 -58h-129zM226 -12c-109 0 -166 63 -166 188v346h148v-333c0 -51 19 -73 61 -73c40 0 71 20 93 70v336h148v-522h-126l-4 64c-41 -53 -89 -76 -154 -76z" />
    <glyph glyph-name="udieresis" unicode="&#xfc;" horiz-adv-x="574" 
d="M114 596v126h136v-126h-136zM320 596v126h136v-126h-136zM226 -12c-109 0 -166 63 -166 188v346h148v-333c0 -51 19 -73 61 -73c40 0 71 20 93 70v336h148v-522h-126l-4 64c-41 -53 -89 -76 -154 -76z" />
    <glyph glyph-name="yacute" unicode="&#xfd;" horiz-adv-x="498" 
d="M152 590l113 140h160l-143 -140h-130zM62 -182v116h58c28 0 40 8 50 39l11 33l-178 516h157l97 -326l89 326h149l-185 -567c-35 -108 -71 -137 -173 -137h-75z" />
    <glyph glyph-name="thorn" unicode="&#xfe;" horiz-adv-x="579" 
d="M64 -182v912h148v-250c35 37 79 54 135 54c119 0 186 -73 186 -214v-117c0 -141 -67 -215 -186 -215c-56 0 -100 17 -135 54v-224h-148zM313 108c47 0 72 27 72 95v116c0 67 -25 95 -73 95c-46 0 -79 -26 -100 -78v-149c21 -53 54 -79 101 -79z" />
    <glyph glyph-name="ydieresis" unicode="&#xff;" horiz-adv-x="498" 
d="M78 596v126h136v-126h-136zM284 596v126h136v-126h-136zM62 -182v116h58c28 0 40 8 50 39l11 33l-178 516h157l97 -326l89 326h149l-185 -567c-35 -108 -71 -137 -173 -137h-75z" />
    <glyph glyph-name="Amacron" unicode="&#x100;" horiz-adv-x="615" 
d="M159 761h296v99h-296v-99zM2 0l228 680h155l228 -680h-159l-43 137h-214l-43 -137h-152zM234 262h140l-70 248z" />
    <glyph glyph-name="amacron" unicode="&#x101;" horiz-adv-x="542" 
d="M117 609h296v99h-296v-99zM198 -12c-103 0 -165 58 -165 162c0 110 69 171 208 171h96v17c0 54 -21 80 -74 80c-51 0 -71 -23 -73 -59h-143c8 116 78 175 222 175c148 0 216 -62 216 -198v-336h-125l-5 65c-36 -51 -88 -77 -157 -77zM243 104c42 0 73 20 94 59v60h-69
c-67 0 -89 -23 -89 -61s22 -58 64 -58z" />
    <glyph glyph-name="Abreve" unicode="&#x102;" horiz-adv-x="615" 
d="M307 733c-96 0 -158 59 -162 146h98c3 -34 25 -54 64 -54s61 20 64 54h98c-4 -87 -66 -146 -162 -146zM2 0l228 680h155l228 -680h-159l-43 137h-214l-43 -137h-152zM234 262h140l-70 248z" />
    <glyph glyph-name="abreve" unicode="&#x103;" horiz-adv-x="542" 
d="M265 581c-96 0 -158 59 -162 146h98c3 -34 25 -54 64 -54s61 20 64 54h98c-4 -87 -66 -146 -162 -146zM198 -12c-103 0 -165 58 -165 162c0 110 69 171 208 171h96v17c0 54 -21 80 -74 80c-51 0 -71 -23 -73 -59h-143c8 116 78 175 222 175c148 0 216 -62 216 -198v-336
h-125l-5 65c-36 -51 -88 -77 -157 -77zM243 104c42 0 73 20 94 59v60h-69c-67 0 -89 -23 -89 -61s22 -58 64 -58z" />
    <glyph glyph-name="Aogonek" unicode="&#x104;" horiz-adv-x="615" 
d="M565 -116c15 0 31 3 49 12v-89c-23 -8 -49 -13 -80 -13c-79 0 -125 32 -125 92c0 42 22 80 69 114h-24l-43 137h-214l-43 -137h-152l228 680h155l228 -680h-33c-37 -24 -60 -50 -60 -80c0 -24 15 -36 45 -36zM234 262h140l-70 248z" />
    <glyph glyph-name="aogonek" unicode="&#x105;" horiz-adv-x="542" 
d="M437 -116c15 0 31 3 49 12v-89c-23 -8 -49 -13 -80 -13c-79 0 -125 32 -125 92c0 45 25 85 78 121l-4 58c-36 -51 -88 -77 -157 -77c-103 0 -165 58 -165 162c0 110 69 171 208 171h96v17c0 54 -21 80 -74 80c-51 0 -71 -23 -73 -59h-143c8 116 78 175 222 175
c148 0 216 -62 216 -198v-336h-33c-37 -24 -60 -50 -60 -80c0 -24 15 -36 45 -36zM337 163v60h-69c-67 0 -89 -23 -89 -61s22 -58 64 -58s73 20 94 59z" />
    <glyph glyph-name="Cacute" unicode="&#x106;" horiz-adv-x="615" 
d="M217 742l113 140h160l-143 -140h-130zM315 -12c-180 0 -264 87 -264 276v152c0 189 84 276 264 276c174 0 256 -81 260 -257h-143c-3 90 -35 128 -115 128c-84 0 -116 -42 -116 -150v-146c0 -108 32 -150 116 -150c80 0 112 38 115 127h143c-4 -175 -86 -256 -260 -256z
" />
    <glyph glyph-name="cacute" unicode="&#x107;" horiz-adv-x="526" 
d="M174 590l113 140h160l-143 -140h-130zM273 -12c-151 0 -228 75 -228 222v102c0 147 77 222 228 222c146 0 221 -69 223 -211h-141c-3 60 -24 91 -80 91s-82 -31 -82 -103v-101c0 -71 26 -102 82 -102s78 31 80 91h141c-2 -142 -77 -211 -223 -211z" />
    <glyph glyph-name="Ccircumflex" unicode="&#x108;" horiz-adv-x="615" 
d="M125 742l122 140h134l122 -140h-129l-60 58l-60 -58h-129zM315 -12c-180 0 -264 87 -264 276v152c0 189 84 276 264 276c174 0 256 -81 260 -257h-143c-3 90 -35 128 -115 128c-84 0 -116 -42 -116 -150v-146c0 -108 32 -150 116 -150c80 0 112 38 115 127h143
c-4 -175 -86 -256 -260 -256z" />
    <glyph glyph-name="ccircumflex" unicode="&#x109;" horiz-adv-x="526" 
d="M82 590l122 140h134l122 -140h-129l-60 58l-60 -58h-129zM273 -12c-151 0 -228 75 -228 222v102c0 147 77 222 228 222c146 0 221 -69 223 -211h-141c-3 60 -24 91 -80 91s-82 -31 -82 -103v-101c0 -71 26 -102 82 -102s78 31 80 91h141c-2 -142 -77 -211 -223 -211z" />
    <glyph glyph-name="Cdotaccent" unicode="&#x10a;" horiz-adv-x="615" 
d="M242 748v126h144v-126h-144zM315 -12c-180 0 -264 87 -264 276v152c0 189 84 276 264 276c174 0 256 -81 260 -257h-143c-3 90 -35 128 -115 128c-84 0 -116 -42 -116 -150v-146c0 -108 32 -150 116 -150c80 0 112 38 115 127h143c-4 -175 -86 -256 -260 -256z" />
    <glyph glyph-name="cdotaccent" unicode="&#x10b;" horiz-adv-x="526" 
d="M199 596v126h144v-126h-144zM273 -12c-151 0 -228 75 -228 222v102c0 147 77 222 228 222c146 0 221 -69 223 -211h-141c-3 60 -24 91 -80 91s-82 -31 -82 -103v-101c0 -71 26 -102 82 -102s78 31 80 91h141c-2 -142 -77 -211 -223 -211z" />
    <glyph glyph-name="Ccaron" unicode="&#x10c;" horiz-adv-x="615" 
d="M247 742l-122 140h129l60 -58l60 58h129l-122 -140h-134zM315 -12c-180 0 -264 87 -264 276v152c0 189 84 276 264 276c174 0 256 -81 260 -257h-143c-3 90 -35 128 -115 128c-84 0 -116 -42 -116 -150v-146c0 -108 32 -150 116 -150c80 0 112 38 115 127h143
c-4 -175 -86 -256 -260 -256z" />
    <glyph glyph-name="ccaron" unicode="&#x10d;" horiz-adv-x="526" 
d="M204 590l-122 140h129l60 -58l60 58h129l-122 -140h-134zM273 -12c-151 0 -228 75 -228 222v102c0 147 77 222 228 222c146 0 221 -69 223 -211h-141c-3 60 -24 91 -80 91s-82 -31 -82 -103v-101c0 -71 26 -102 82 -102s78 31 80 91h141c-2 -142 -77 -211 -223 -211z" />
    <glyph glyph-name="Dcaron" unicode="&#x10e;" horiz-adv-x="642" 
d="M242 742l-122 140h129l60 -58l60 58h129l-122 -140h-134zM75 0v680h253c183 0 264 -84 264 -268v-144c0 -185 -81 -268 -264 -268h-253zM225 128h82c101 0 135 37 135 143v138c0 106 -34 143 -135 143h-82v-424z" />
    <glyph glyph-name="dcaron" unicode="&#x10f;" horiz-adv-x="630" 
d="M232 -12c-119 0 -186 73 -186 214v117c0 141 67 215 186 215c56 0 100 -17 135 -54v250h148v-730h-126l-4 63c-39 -52 -87 -75 -153 -75zM539 508l38 222h138l-81 -222h-95zM267 108c46 0 79 27 100 79v147c-21 53 -54 80 -101 80s-72 -27 -72 -95v-116
c0 -67 25 -95 73 -95z" />
    <glyph glyph-name="Dcroat" unicode="&#x110;" horiz-adv-x="652" 
d="M338 680c183 0 264 -84 264 -268v-144c0 -185 -81 -268 -264 -268h-253v282h-63v128h63v270h253zM452 271v138c0 106 -34 143 -135 143h-82v-142h113v-128h-113v-154h82c101 0 135 37 135 143z" />
    <glyph glyph-name="dcroat" unicode="&#x111;" horiz-adv-x="587" 
d="M584 674v-97h-69v-577h-126l-4 63c-39 -52 -87 -75 -153 -75c-119 0 -186 73 -186 214v117c0 141 67 215 186 215c56 0 100 -17 135 -54v97h-124v97h124v56h148v-56h69zM367 187v147c-21 53 -54 80 -101 80s-72 -27 -72 -95v-116c0 -67 25 -95 73 -95c46 0 79 27 100 79z
" />
    <glyph glyph-name="Emacron" unicode="&#x112;" horiz-adv-x="587" 
d="M160 761h296v99h-296v-99zM75 0v680h466v-129h-316v-141h266v-128h-266v-153h326v-129h-476z" />
    <glyph glyph-name="emacron" unicode="&#x113;" horiz-adv-x="553" 
d="M127 609h296v99h-296v-99zM283 -12c-158 0 -238 75 -238 222v102c0 145 80 222 232 222c153 0 233 -79 233 -224v-95h-317v-10c0 -68 27 -101 91 -101c50 0 79 20 82 56h141c-6 -113 -83 -172 -224 -172zM193 319h177c0 70 -26 99 -88 99c-63 0 -89 -29 -89 -99z" />
    <glyph glyph-name="Ebreve" unicode="&#x114;" horiz-adv-x="587" 
d="M308 733c-96 0 -158 59 -162 146h98c3 -34 25 -54 64 -54s61 20 64 54h98c-4 -87 -66 -146 -162 -146zM75 0v680h466v-129h-316v-141h266v-128h-266v-153h326v-129h-476z" />
    <glyph glyph-name="ebreve" unicode="&#x115;" horiz-adv-x="553" 
d="M275 581c-96 0 -158 59 -162 146h98c3 -34 25 -54 64 -54s61 20 64 54h98c-4 -87 -66 -146 -162 -146zM283 -12c-158 0 -238 75 -238 222v102c0 145 80 222 232 222c153 0 233 -79 233 -224v-95h-317v-10c0 -68 27 -101 91 -101c50 0 79 20 82 56h141
c-6 -113 -83 -172 -224 -172zM193 319h177c0 70 -26 99 -88 99c-63 0 -89 -29 -89 -99z" />
    <glyph glyph-name="Edotaccent" unicode="&#x116;" horiz-adv-x="587" 
d="M236 748v126h144v-126h-144zM75 0v680h466v-129h-316v-141h266v-128h-266v-153h326v-129h-476z" />
    <glyph glyph-name="edotaccent" unicode="&#x117;" horiz-adv-x="553" 
d="M203 596v126h144v-126h-144zM283 -12c-158 0 -238 75 -238 222v102c0 145 80 222 232 222c153 0 233 -79 233 -224v-95h-317v-10c0 -68 27 -101 91 -101c50 0 79 20 82 56h141c-6 -113 -83 -172 -224 -172zM193 319h177c0 70 -26 99 -88 99c-63 0 -89 -29 -89 -99z" />
    <glyph glyph-name="Eogonek" unicode="&#x118;" horiz-adv-x="587" 
d="M503 -116c15 0 31 3 49 12v-89c-23 -8 -49 -13 -80 -13c-79 0 -125 32 -125 92c0 42 22 80 69 114h-341v680h466v-129h-316v-141h266v-128h-266v-153h326v-129h-33c-37 -24 -60 -50 -60 -80c0 -24 15 -36 45 -36z" />
    <glyph glyph-name="eogonek" unicode="&#x119;" horiz-adv-x="553" 
d="M510 215h-317v-10c0 -68 27 -101 91 -101c50 0 79 20 82 56h141c-3 -62 -28 -108 -73 -136c-38 -32 -60 -69 -60 -102c0 -26 14 -38 45 -38c17 0 33 4 49 12v-89c-22 -9 -48 -13 -79 -13c-83 0 -126 32 -126 94c0 35 15 69 43 101c-7 -1 -15 -1 -23 -1
c-158 0 -238 75 -238 222v102c0 145 80 222 232 222c153 0 233 -79 233 -224v-95zM282 418c-63 0 -89 -29 -89 -99h177c0 70 -26 99 -88 99z" />
    <glyph glyph-name="Ecaron" unicode="&#x11a;" horiz-adv-x="587" 
d="M241 742l-122 140h129l60 -58l60 58h129l-122 -140h-134zM75 0v680h466v-129h-316v-141h266v-128h-266v-153h326v-129h-476z" />
    <glyph glyph-name="ecaron" unicode="&#x11b;" horiz-adv-x="553" 
d="M208 590l-122 140h129l60 -58l60 58h129l-122 -140h-134zM283 -12c-158 0 -238 75 -238 222v102c0 145 80 222 232 222c153 0 233 -79 233 -224v-95h-317v-10c0 -68 27 -101 91 -101c50 0 79 20 82 56h141c-6 -113 -83 -172 -224 -172zM193 319h177c0 70 -26 99 -88 99
c-63 0 -89 -29 -89 -99z" />
    <glyph glyph-name="Gcircumflex" unicode="&#x11c;" horiz-adv-x="635" 
d="M127 742l122 140h134l122 -140h-129l-60 58l-60 -58h-129zM322 -12c-183 0 -271 89 -271 271v162c0 182 89 271 266 271c164 0 257 -76 263 -223h-143c-5 63 -40 94 -116 94c-87 0 -120 -42 -120 -150v-146c0 -107 35 -150 124 -150c84 0 118 39 118 139h-112v129h255
v-129c0 -182 -85 -268 -264 -268z" />
    <glyph glyph-name="gcircumflex" unicode="&#x11d;" horiz-adv-x="579" 
d="M94 590l122 140h134l122 -140h-129l-60 58l-60 -58h-129zM277 -194c-139 0 -216 50 -222 172h139c4 -40 29 -56 81 -56c65 0 92 25 92 92v60c-35 -37 -79 -54 -135 -54c-119 0 -186 74 -186 215v85c0 141 67 214 186 214c66 0 114 -23 153 -75l4 63h126v-508
c0 -143 -78 -208 -238 -208zM266 140c47 0 80 27 101 80v115c-21 52 -54 79 -100 79c-48 0 -73 -28 -73 -95v-84c0 -68 25 -95 72 -95z" />
    <glyph glyph-name="Gbreve" unicode="&#x11e;" horiz-adv-x="635" 
d="M316 733c-96 0 -158 59 -162 146h98c3 -34 25 -54 64 -54s61 20 64 54h98c-4 -87 -66 -146 -162 -146zM322 -12c-183 0 -271 89 -271 271v162c0 182 89 271 266 271c164 0 257 -76 263 -223h-143c-5 63 -40 94 -116 94c-87 0 -120 -42 -120 -150v-146
c0 -107 35 -150 124 -150c84 0 118 39 118 139h-112v129h255v-129c0 -182 -85 -268 -264 -268z" />
    <glyph glyph-name="gbreve" unicode="&#x11f;" horiz-adv-x="579" 
d="M283 581c-96 0 -158 59 -162 146h98c3 -34 25 -54 64 -54s61 20 64 54h98c-4 -87 -66 -146 -162 -146zM277 -194c-139 0 -216 50 -222 172h139c4 -40 29 -56 81 -56c65 0 92 25 92 92v60c-35 -37 -79 -54 -135 -54c-119 0 -186 74 -186 215v85c0 141 67 214 186 214
c66 0 114 -23 153 -75l4 63h126v-508c0 -143 -78 -208 -238 -208zM266 140c47 0 80 27 101 80v115c-21 52 -54 79 -100 79c-48 0 -73 -28 -73 -95v-84c0 -68 25 -95 72 -95z" />
    <glyph glyph-name="Gdotaccent" unicode="&#x120;" horiz-adv-x="635" 
d="M244 748v126h144v-126h-144zM322 -12c-183 0 -271 89 -271 271v162c0 182 89 271 266 271c164 0 257 -76 263 -223h-143c-5 63 -40 94 -116 94c-87 0 -120 -42 -120 -150v-146c0 -107 35 -150 124 -150c84 0 118 39 118 139h-112v129h255v-129c0 -182 -85 -268 -264 -268
z" />
    <glyph glyph-name="gdotaccent" unicode="&#x121;" horiz-adv-x="579" 
d="M211 596v126h144v-126h-144zM277 -194c-139 0 -216 50 -222 172h139c4 -40 29 -56 81 -56c65 0 92 25 92 92v60c-35 -37 -79 -54 -135 -54c-119 0 -186 74 -186 215v85c0 141 67 214 186 214c66 0 114 -23 153 -75l4 63h126v-508c0 -143 -78 -208 -238 -208zM266 140
c47 0 80 27 101 80v115c-21 52 -54 79 -100 79c-48 0 -73 -28 -73 -95v-84c0 -68 25 -95 72 -95z" />
    <glyph glyph-name="Gcommaaccent" unicode="&#x122;" horiz-adv-x="635" 
d="M322 -12c-183 0 -271 89 -271 271v162c0 182 89 271 266 271c164 0 257 -76 263 -223h-143c-5 63 -40 94 -116 94c-87 0 -120 -42 -120 -150v-146c0 -107 35 -150 124 -150c84 0 118 39 118 139h-112v129h255v-129c0 -182 -85 -268 -264 -268zM251 -254v55
c45 0 62 13 62 42h-60v98h143v-65c0 -97 -28 -130 -145 -130z" />
    <glyph glyph-name="gcommaaccent" unicode="&#x123;" horiz-adv-x="579" 
d="M356 776v-55c-45 0 -62 -13 -62 -42h60v-98h-143v65c0 97 28 130 145 130zM277 -194c-139 0 -216 50 -222 172h139c4 -40 29 -56 81 -56c65 0 92 25 92 92v60c-35 -37 -79 -54 -135 -54c-119 0 -186 74 -186 215v85c0 141 67 214 186 214c66 0 114 -23 153 -75l4 63h126
v-508c0 -143 -78 -208 -238 -208zM266 140c47 0 80 27 101 80v115c-21 52 -54 79 -100 79c-48 0 -73 -28 -73 -95v-84c0 -68 25 -95 72 -95z" />
    <glyph glyph-name="Hcircumflex" unicode="&#x124;" horiz-adv-x="684" 
d="M153 742l122 140h134l122 -140h-129l-60 58l-60 -58h-129zM75 0v680h150v-269h234v269h150v-680h-150v281h-234v-281h-150z" />
    <glyph glyph-name="hcircumflex" unicode="&#x125;" horiz-adv-x="570" 
d="M-51 792l122 140h134l122 -140h-129l-60 58l-60 -58h-129zM64 0v730h148v-250c36 37 79 54 134 54c108 0 164 -64 164 -188v-346h-148v333c0 49 -18 73 -58 73c-39 0 -70 -23 -92 -69v-337h-148z" />
    <glyph glyph-name="Hbar" unicode="&#x126;" horiz-adv-x="704" 
d="M682 591v-104h-63v-487h-150v281h-234v-281h-150v487h-63v104h63v89h150v-89h234v89h150v-89h63zM469 411v76h-234v-76h234z" />
    <glyph glyph-name="hbar" unicode="&#x127;" horiz-adv-x="578" 
d="M354 534c108 0 164 -64 164 -188v-346h-148v333c0 49 -18 73 -58 73c-39 0 -70 -23 -92 -69v-337h-148v577h-69v97h69v56h148v-56h124v-97h-124v-97c36 37 79 54 134 54z" />
    <glyph glyph-name="Itilde" unicode="&#x128;" horiz-adv-x="300" 
d="M202 737c-20 0 -30 4 -67 28c-17 11 -26 15 -35 15c-19 0 -26 -13 -28 -39h-82c3 89 30 140 107 140c20 0 30 -4 67 -28c17 -11 26 -15 35 -15c19 0 26 13 28 39h82c-3 -89 -30 -140 -107 -140zM75 0v680h150v-680h-150z" />
    <glyph glyph-name="itilde" unicode="&#x129;" horiz-adv-x="276" 
d="M190 585c-20 0 -30 4 -67 28c-17 11 -26 15 -35 15c-19 0 -26 -13 -28 -39h-82c3 89 30 140 107 140c20 0 30 -4 67 -28c17 -11 26 -15 35 -15c19 0 26 13 28 39h82c-3 -89 -30 -140 -107 -140zM64 0v522h148v-522h-148z" />
    <glyph glyph-name="Imacron" unicode="&#x12a;" horiz-adv-x="300" 
d="M13 761v99h274v-99h-274zM75 0v680h150v-680h-150z" />
    <glyph glyph-name="imacron" unicode="&#x12b;" horiz-adv-x="276" 
d="M1 609v99h274v-99h-274zM64 0v522h148v-522h-148z" />
    <glyph glyph-name="Ibreve" unicode="&#x12c;" horiz-adv-x="300" 
d="M150 733c-91 0 -153 59 -155 146h97c2 -34 23 -54 58 -54s56 20 58 54h97c-2 -87 -64 -146 -155 -146zM75 0v680h150v-680h-150z" />
    <glyph glyph-name="ibreve" unicode="&#x12d;" horiz-adv-x="276" 
d="M138 581c-91 0 -153 59 -155 146h97c2 -34 23 -54 58 -54s56 20 58 54h97c-2 -87 -64 -146 -155 -146zM64 0v522h148v-522h-148z" />
    <glyph glyph-name="Iogonek" unicode="&#x12e;" horiz-adv-x="300" 
d="M191 -116c18 0 35 4 52 12v-89c-26 -9 -53 -13 -83 -13c-81 0 -127 33 -127 91c0 43 25 81 73 115h-31v680h150v-680h-24c-36 -22 -57 -51 -57 -80c0 -24 16 -36 47 -36z" />
    <glyph glyph-name="iogonek" unicode="&#x12f;" horiz-adv-x="276" 
d="M216 722v-126h-156v126h156zM178 -116c18 0 35 4 52 12v-89c-26 -9 -53 -13 -83 -13c-81 0 -127 33 -127 91c0 43 25 81 73 115h-29v522h148v-522h-24c-36 -22 -57 -51 -57 -80c0 -24 16 -36 47 -36z" />
    <glyph glyph-name="Idotaccent" unicode="&#x130;" horiz-adv-x="300" 
d="M78 748v126h144v-126h-144zM75 0v680h150v-680h-150z" />
    <glyph glyph-name="dotlessi" unicode="&#x131;" horiz-adv-x="276" 
d="M64 0v522h148v-522h-148z" />
    <glyph glyph-name="IJ" unicode="&#x132;" horiz-adv-x="853" 
d="M75 0v680h150v-680h-150zM552 -12c-165 0 -237 72 -237 239v19h144v-19c0 -77 26 -110 91 -110c66 0 92 35 92 116v447h150v-453c0 -166 -73 -239 -240 -239z" />
    <glyph glyph-name="ij" unicode="&#x133;" horiz-adv-x="552" 
d="M60 596v126h156v-126h-156zM336 596v126h156v-126h-156zM64 0v522h148v-522h-148zM273 -182v116h30c27 0 37 11 37 43v545h148v-548c0 -109 -41 -156 -139 -156h-76z" />
    <glyph glyph-name="Jcircumflex" unicode="&#x134;" horiz-adv-x="553" 
d="M237 742l112 140h136l112 -140h-124l-56 59l-55 -59h-125zM252 -12c-165 0 -237 72 -237 239v19h144v-19c0 -77 26 -110 91 -110c66 0 92 35 92 116v447h150v-453c0 -166 -73 -239 -240 -239z" />
    <glyph glyph-name="jcircumflex" unicode="&#x135;" horiz-adv-x="276" 
d="M-42 590l112 140h136l112 -140h-124l-56 59l-55 -59h-125zM-3 -182v116h30c27 0 37 11 37 43v545h148v-548c0 -109 -41 -156 -139 -156h-76z" />
    <glyph glyph-name="Kcommaaccent" unicode="&#x136;" horiz-adv-x="622" 
d="M75 0v680h150v-297l231 297h172l-219 -279l222 -401h-171l-155 282l-80 -102v-180h-150zM266 -254v55c45 0 62 13 62 42h-60v98h143v-65c0 -97 -28 -130 -145 -130z" />
    <glyph glyph-name="kcommaaccent" unicode="&#x137;" horiz-adv-x="549" 
d="M64 0v730h148v-412l172 204h173l-183 -213l186 -309h-172l-119 202l-57 -67v-135h-148zM223 -254v55c45 0 62 13 62 42h-60v98h143v-65c0 -97 -28 -130 -145 -130z" />
    <glyph glyph-name="kgreenlandic" unicode="&#x138;" horiz-adv-x="549" 
d="M64 0v522h148v-204l172 204h173l-183 -213l186 -309h-172l-119 202l-57 -67v-135h-148z" />
    <glyph glyph-name="Lacute" unicode="&#x139;" horiz-adv-x="518" 
d="M53 742l113 140h160l-143 -140h-130zM75 0v680h150v-549h287v-131h-437z" />
    <glyph glyph-name="lacute" unicode="&#x13a;" horiz-adv-x="276" 
d="M41 792l113 140h160l-143 -140h-130zM64 0v730h148v-730h-148z" />
    <glyph glyph-name="Lcommaaccent" unicode="&#x13b;" horiz-adv-x="518" 
d="M75 0v680h150v-549h287v-131h-437zM220 -254v55c45 0 62 13 62 42h-60v98h143v-65c0 -97 -28 -130 -145 -130z" />
    <glyph glyph-name="lcommaaccent" unicode="&#x13c;" horiz-adv-x="276" 
d="M64 0v730h148v-730h-148zM65 -254v55c45 0 62 13 62 42h-60v98h143v-65c0 -97 -28 -130 -145 -130z" />
    <glyph glyph-name="Lcaron" unicode="&#x13d;" horiz-adv-x="518" 
d="M75 0v680h150v-549h287v-131h-437zM268 458l38 222h138l-81 -222h-95z" />
    <glyph glyph-name="lcaron" unicode="&#x13e;" horiz-adv-x="327" 
d="M64 0v730h148v-730h-148zM236 508l38 222h138l-81 -222h-95z" />
    <glyph glyph-name="Ldot" unicode="&#x13f;" horiz-adv-x="518" 
d="M75 0v680h150v-549h287v-131h-437zM339 315v140h140v-140h-140z" />
    <glyph glyph-name="ldot" unicode="&#x140;" horiz-adv-x="376" 
d="M64 0v730h148v-730h-148zM256 294v134h139v-134h-139z" />
    <glyph glyph-name="Lslash" unicode="&#x141;" horiz-adv-x="528" 
d="M235 131h287v-131h-437v165l-63 -42v145l63 42v370h150v-271l177 117v-144l-177 -118v-133z" />
    <glyph glyph-name="lslash" unicode="&#x142;" horiz-adv-x="306" 
d="M303 539v-132l-76 -50v-357h-148v258l-76 -50v132l76 50v340h148v-241z" />
    <glyph glyph-name="Nacute" unicode="&#x143;" horiz-adv-x="682" 
d="M244 742l113 140h160l-143 -140h-130zM75 0v680h159l231 -429v429h142v-680h-143l-247 458v-458h-142z" />
    <glyph glyph-name="nacute" unicode="&#x144;" horiz-adv-x="570" 
d="M188 590l113 140h160l-143 -140h-130zM64 0v522h126l4 -63c40 52 88 75 152 75c108 0 164 -64 164 -188v-346h-148v333c0 49 -18 73 -58 73c-39 0 -70 -23 -92 -69v-337h-148z" />
    <glyph glyph-name="Ncommaaccent" unicode="&#x145;" horiz-adv-x="682" 
d="M75 0v680h159l231 -429v429h142v-680h-143l-247 458v-458h-142zM267 -254v55c45 0 62 13 62 42h-60v98h143v-65c0 -97 -28 -130 -145 -130z" />
    <glyph glyph-name="ncommaaccent" unicode="&#x146;" horiz-adv-x="570" 
d="M64 0v522h126l4 -63c40 52 88 75 152 75c108 0 164 -64 164 -188v-346h-148v333c0 49 -18 73 -58 73c-39 0 -70 -23 -92 -69v-337h-148zM214 -254v55c45 0 62 13 62 42h-60v98h143v-65c0 -97 -28 -130 -145 -130z" />
    <glyph glyph-name="Ncaron" unicode="&#x147;" horiz-adv-x="682" 
d="M274 742l-122 140h129l60 -58l60 58h129l-122 -140h-134zM75 0v680h159l231 -429v429h142v-680h-143l-247 458v-458h-142z" />
    <glyph glyph-name="ncaron" unicode="&#x148;" horiz-adv-x="570" 
d="M218 590l-122 140h129l60 -58l60 58h129l-122 -140h-134zM64 0v522h126l4 -63c40 52 88 75 152 75c108 0 164 -64 164 -188v-346h-148v333c0 49 -18 73 -58 73c-39 0 -70 -23 -92 -69v-337h-148z" />
    <glyph glyph-name="napostrophe" unicode="&#x149;" horiz-adv-x="651" 
d="M-1 494v66c46 0 60 16 60 49v1h-58v120h142v-98c0 -93 -35 -138 -144 -138zM145 0v522h126l4 -63c40 52 88 75 152 75c108 0 164 -64 164 -188v-346h-148v333c0 49 -18 73 -58 73c-39 0 -70 -23 -92 -69v-337h-148z" />
    <glyph glyph-name="Eng" unicode="&#x14a;" horiz-adv-x="682" 
d="M391 -182v116h37c27 0 37 11 37 43v22l-248 459v-458h-142v680h159l231 -429v429h142v-706c0 -109 -41 -156 -139 -156h-77z" />
    <glyph glyph-name="eng" unicode="&#x14b;" horiz-adv-x="570" 
d="M346 534c108 0 164 -64 164 -188v-373c0 -108 -41 -155 -139 -155h-76v113h30c27 0 37 11 37 43v359c0 49 -18 73 -58 73c-39 0 -70 -23 -92 -69v-337h-148v522h126l4 -63c40 52 88 75 152 75z" />
    <glyph glyph-name="Omacron" unicode="&#x14c;" horiz-adv-x="652" 
d="M178 761h296v99h-296v-99zM326 -12c-188 0 -275 87 -275 277v150c0 190 87 277 275 277s275 -87 275 -277v-150c0 -190 -87 -277 -275 -277zM326 117c90 0 125 43 125 150v146c0 107 -35 150 -125 150s-125 -43 -125 -150v-146c0 -107 35 -150 125 -150z" />
    <glyph glyph-name="omacron" unicode="&#x14d;" horiz-adv-x="564" 
d="M134 609h296v99h-296v-99zM282 -12c-158 0 -237 75 -237 225v96c0 150 79 225 237 225s237 -75 237 -225v-96c0 -150 -79 -225 -237 -225zM282 108c63 0 89 32 89 108v90c0 76 -26 108 -89 108s-89 -32 -89 -108v-90c0 -76 26 -108 89 -108z" />
    <glyph glyph-name="Obreve" unicode="&#x14e;" horiz-adv-x="652" 
d="M326 733c-96 0 -158 59 -162 146h98c3 -34 25 -54 64 -54s61 20 64 54h98c-4 -87 -66 -146 -162 -146zM326 -12c-188 0 -275 87 -275 277v150c0 190 87 277 275 277s275 -87 275 -277v-150c0 -190 -87 -277 -275 -277zM326 117c90 0 125 43 125 150v146
c0 107 -35 150 -125 150s-125 -43 -125 -150v-146c0 -107 35 -150 125 -150z" />
    <glyph glyph-name="obreve" unicode="&#x14f;" horiz-adv-x="564" 
d="M282 581c-96 0 -158 59 -162 146h98c3 -34 25 -54 64 -54s61 20 64 54h98c-4 -87 -66 -146 -162 -146zM282 -12c-158 0 -237 75 -237 225v96c0 150 79 225 237 225s237 -75 237 -225v-96c0 -150 -79 -225 -237 -225zM282 108c63 0 89 32 89 108v90c0 76 -26 108 -89 108
s-89 -32 -89 -108v-90c0 -76 26 -108 89 -108z" />
    <glyph glyph-name="Ohungarumlaut" unicode="&#x150;" horiz-adv-x="652" 
d="M145 742l88 140h148l-119 -140h-117zM350 742l88 140h148l-119 -140h-117zM326 -12c-188 0 -275 87 -275 277v150c0 190 87 277 275 277s275 -87 275 -277v-150c0 -190 -87 -277 -275 -277zM326 117c90 0 125 43 125 150v146c0 107 -35 150 -125 150s-125 -43 -125 -150
v-146c0 -107 35 -150 125 -150z" />
    <glyph glyph-name="ohungarumlaut" unicode="&#x151;" horiz-adv-x="564" 
d="M101 590l88 140h148l-119 -140h-117zM306 590l88 140h148l-119 -140h-117zM282 -12c-158 0 -237 75 -237 225v96c0 150 79 225 237 225s237 -75 237 -225v-96c0 -150 -79 -225 -237 -225zM282 108c63 0 89 32 89 108v90c0 76 -26 108 -89 108s-89 -32 -89 -108v-90
c0 -76 26 -108 89 -108z" />
    <glyph glyph-name="OE" unicode="&#x152;" horiz-adv-x="891" 
d="M315 0c-184 0 -265 83 -265 268v144c0 184 81 268 265 268h530v-129h-291v-141h241v-128h-241v-153h301v-129h-540zM335 128h69v424h-69c-100 0 -135 -38 -135 -143v-138c0 -105 35 -143 135 -143z" />
    <glyph glyph-name="oe" unicode="&#x153;" horiz-adv-x="879" 
d="M270 -12c-147 0 -225 76 -225 225v96c0 149 78 225 225 225c83 0 141 -24 175 -75c33 51 90 75 170 75c143 0 221 -76 221 -222v-97h-317v-10c0 -68 27 -101 91 -101c50 0 79 20 82 56h141c-6 -113 -82 -172 -212 -172c-84 0 -142 24 -176 75c-34 -51 -92 -75 -175 -75z
M519 319h177c0 70 -26 99 -88 99c-63 0 -89 -29 -89 -99zM282 108c63 0 89 32 89 108v90c0 76 -26 108 -89 108s-89 -32 -89 -108v-90c0 -76 26 -108 89 -108z" />
    <glyph glyph-name="Racute" unicode="&#x154;" horiz-adv-x="633" 
d="M209 742l113 140h160l-143 -140h-130zM75 0v680h278c167 0 233 -63 233 -215c0 -111 -36 -175 -121 -200l147 -265h-171l-135 251h-81v-251h-150zM225 379h112c73 0 99 25 99 86c0 62 -26 87 -99 87h-112v-173z" />
    <glyph glyph-name="racute" unicode="&#x155;" horiz-adv-x="377" 
d="M110 590l113 140h160l-143 -140h-130zM64 0v522h126l6 -97c20 74 61 107 133 107h39v-138h-28c-77 0 -114 -29 -128 -102v-292h-148z" />
    <glyph glyph-name="Rcommaaccent" unicode="&#x156;" horiz-adv-x="633" 
d="M75 0v680h278c167 0 233 -63 233 -215c0 -111 -36 -175 -121 -200l147 -265h-171l-135 251h-81v-251h-150zM225 379h112c73 0 99 25 99 86c0 62 -26 87 -99 87h-112v-173zM258 -254v55c45 0 62 13 62 42h-60v98h143v-65c0 -97 -28 -130 -145 -130z" />
    <glyph glyph-name="rcommaaccent" unicode="&#x157;" horiz-adv-x="377" 
d="M64 0v522h126l6 -97c20 74 61 107 133 107h39v-138h-28c-77 0 -114 -29 -128 -102v-292h-148zM65 -254v55c45 0 62 13 62 42h-60v98h143v-65c0 -97 -28 -130 -145 -130z" />
    <glyph glyph-name="Rcaron" unicode="&#x158;" horiz-adv-x="633" 
d="M239 742l-122 140h129l60 -58l60 58h129l-122 -140h-134zM75 0v680h278c167 0 233 -63 233 -215c0 -111 -36 -175 -121 -200l147 -265h-171l-135 251h-81v-251h-150zM225 379h112c73 0 99 25 99 86c0 62 -26 87 -99 87h-112v-173z" />
    <glyph glyph-name="rcaron" unicode="&#x159;" horiz-adv-x="377" 
d="M140 590l-122 140h129l60 -58l60 58h129l-122 -140h-134zM64 0v522h126l6 -97c20 74 61 107 133 107h39v-138h-28c-77 0 -114 -29 -128 -102v-292h-148z" />
    <glyph glyph-name="Sacute" unicode="&#x15a;" horiz-adv-x="563" 
d="M177 742l113 140h160l-143 -140h-130zM280 -12c-173 0 -252 68 -252 217h146c0 -66 37 -95 110 -95c66 0 99 24 99 73c0 56 -36 80 -137 96c-151 24 -208 80 -208 204c0 139 85 209 247 209c160 0 239 -68 239 -211h-146c0 59 -31 88 -96 88c-62 0 -94 -26 -94 -71
c0 -51 35 -74 131 -88c159 -23 214 -84 214 -212c0 -141 -83 -210 -253 -210z" />
    <glyph glyph-name="sacute" unicode="&#x15b;" horiz-adv-x="504" 
d="M152 590l113 140h160l-143 -140h-130zM252 -12c-151 0 -221 56 -221 172h141c0 -45 24 -65 81 -65c49 0 73 15 73 47c0 37 -28 53 -106 62c-129 15 -180 59 -180 158c0 113 76 172 213 172c138 0 208 -58 208 -166h-141c0 41 -20 59 -68 59c-44 0 -66 -17 -66 -47
c0 -34 27 -49 103 -58c132 -15 183 -64 183 -165c0 -114 -72 -169 -220 -169z" />
    <glyph glyph-name="Scircumflex" unicode="&#x15c;" horiz-adv-x="563" 
d="M85 742l122 140h134l122 -140h-129l-60 58l-60 -58h-129zM280 -12c-173 0 -252 68 -252 217h146c0 -66 37 -95 110 -95c66 0 99 24 99 73c0 56 -36 80 -137 96c-151 24 -208 80 -208 204c0 139 85 209 247 209c160 0 239 -68 239 -211h-146c0 59 -31 88 -96 88
c-62 0 -94 -26 -94 -71c0 -51 35 -74 131 -88c159 -23 214 -84 214 -212c0 -141 -83 -210 -253 -210z" />
    <glyph glyph-name="scircumflex" unicode="&#x15d;" horiz-adv-x="504" 
d="M60 590l122 140h134l122 -140h-129l-60 58l-60 -58h-129zM252 -12c-151 0 -221 56 -221 172h141c0 -45 24 -65 81 -65c49 0 73 15 73 47c0 37 -28 53 -106 62c-129 15 -180 59 -180 158c0 113 76 172 213 172c138 0 208 -58 208 -166h-141c0 41 -20 59 -68 59
c-44 0 -66 -17 -66 -47c0 -34 27 -49 103 -58c132 -15 183 -64 183 -165c0 -114 -72 -169 -220 -169z" />
    <glyph glyph-name="Scedilla" unicode="&#x15e;" horiz-adv-x="563" 
d="M533 198c0 -131 -72 -200 -219 -209l-16 -43c74 0 108 -24 108 -75c0 -47 -29 -81 -139 -81c-46 0 -80 6 -113 23l23 56c21 -10 39 -16 65 -16c33 0 44 9 44 24c0 16 -11 23 -56 23h-17l35 89c-151 8 -220 77 -220 216h146c0 -66 37 -95 110 -95c66 0 99 24 99 73
c0 56 -36 80 -137 96c-151 24 -208 80 -208 204c0 139 85 209 247 209c160 0 239 -68 239 -211h-146c0 59 -31 88 -96 88c-62 0 -94 -26 -94 -71c0 -51 35 -74 131 -88c159 -23 214 -84 214 -212z" />
    <glyph glyph-name="scedilla" unicode="&#x15f;" horiz-adv-x="504" 
d="M472 157c0 -105 -62 -160 -188 -168l-16 -43c74 0 108 -24 108 -75c0 -47 -29 -81 -139 -81c-46 0 -80 6 -113 23l23 56c21 -10 39 -16 65 -16c33 0 44 9 44 24c0 16 -11 23 -56 23h-17l35 89c-128 8 -187 64 -187 171h141c0 -45 24 -65 81 -65c49 0 73 15 73 47
c0 37 -28 53 -106 62c-129 15 -180 59 -180 158c0 113 76 172 213 172c138 0 208 -58 208 -166h-141c0 41 -20 59 -68 59c-44 0 -66 -17 -66 -47c0 -34 27 -49 103 -58c132 -15 183 -64 183 -165z" />
    <glyph glyph-name="Scaron" unicode="&#x160;" horiz-adv-x="563" 
d="M207 742l-122 140h129l60 -58l60 58h129l-122 -140h-134zM280 -12c-173 0 -252 68 -252 217h146c0 -66 37 -95 110 -95c66 0 99 24 99 73c0 56 -36 80 -137 96c-151 24 -208 80 -208 204c0 139 85 209 247 209c160 0 239 -68 239 -211h-146c0 59 -31 88 -96 88
c-62 0 -94 -26 -94 -71c0 -51 35 -74 131 -88c159 -23 214 -84 214 -212c0 -141 -83 -210 -253 -210z" />
    <glyph glyph-name="scaron" unicode="&#x161;" horiz-adv-x="504" 
d="M182 590l-122 140h129l60 -58l60 58h129l-122 -140h-134zM252 -12c-151 0 -221 56 -221 172h141c0 -45 24 -65 81 -65c49 0 73 15 73 47c0 37 -28 53 -106 62c-129 15 -180 59 -180 158c0 113 76 172 213 172c138 0 208 -58 208 -166h-141c0 41 -20 59 -68 59
c-44 0 -66 -17 -66 -47c0 -34 27 -49 103 -58c132 -15 183 -64 183 -165c0 -114 -72 -169 -220 -169z" />
    <glyph glyph-name="uni0162" unicode="&#x162;" horiz-adv-x="526" 
d="M338 0h-41l-25 -54c72 -1 105 -25 105 -75c0 -47 -29 -81 -139 -81c-46 0 -80 6 -113 23l23 56c21 -10 39 -16 65 -16c33 0 44 9 44 24c0 16 -11 23 -56 23h-17l47 100h-43v549h-182v131h514v-131h-182v-549z" />
    <glyph glyph-name="uni0163" unicode="&#x163;" horiz-adv-x="361" 
d="M231 0l-20 -54c74 0 108 -24 108 -75c0 -47 -29 -81 -139 -81c-46 0 -80 6 -113 23l23 56c21 -10 39 -16 65 -16c33 0 44 9 44 24c0 16 -11 23 -56 23h-17l43 109c-59 19 -85 70 -85 161v240h-76v112h79l8 130h137v-130h108v-112h-108v-231c0 -49 12 -63 55 -63h58v-116
h-114z" />
    <glyph glyph-name="Tcaron" unicode="&#x164;" horiz-adv-x="526" 
d="M196 742l-122 140h129l60 -58l60 58h129l-122 -140h-134zM188 0v549h-182v131h514v-131h-182v-549h-150z" />
    <glyph glyph-name="tcaron" unicode="&#x165;" horiz-adv-x="361" 
d="M258 559l38 222h138l-81 -222h-95zM236 0c-107 0 -152 50 -152 170v240h-76v112h79l8 130h137v-130h108v-112h-108v-231c0 -49 12 -63 55 -63h58v-116h-109z" />
    <glyph glyph-name="Tbar" unicode="&#x166;" horiz-adv-x="526" 
d="M520 549h-182v-149h121v-128h-121v-272h-150v272h-121v128h121v149h-182v131h514v-131z" />
    <glyph glyph-name="tbar" unicode="&#x167;" horiz-adv-x="361" 
d="M287 116h58v-116h-109c-107 0 -152 50 -152 170v69h-69v100h69v71h-76v112h79l8 130h137v-130h108v-112h-108v-71h99v-100h-99v-60c0 -49 12 -63 55 -63z" />
    <glyph glyph-name="Utilde" unicode="&#x168;" horiz-adv-x="631" 
d="M374 737c-28 0 -44 5 -76 27c-21 14 -26 16 -36 16c-19 0 -28 -11 -31 -39h-84c3 96 38 140 109 140c28 0 44 -5 76 -27c21 -14 26 -16 36 -16c19 0 28 11 31 39h84c-3 -96 -38 -140 -109 -140zM316 -12c-179 0 -255 72 -255 240v452h150v-447c0 -85 29 -116 107 -116
s107 31 107 116v447h145v-452c0 -168 -76 -240 -254 -240z" />
    <glyph glyph-name="utilde" unicode="&#x169;" horiz-adv-x="574" 
d="M344 585c-28 0 -44 5 -76 27c-21 14 -26 16 -36 16c-19 0 -28 -11 -31 -39h-84c3 96 38 140 109 140c28 0 44 -5 76 -27c21 -14 26 -16 36 -16c19 0 28 11 31 39h84c-3 -96 -38 -140 -109 -140zM226 -12c-109 0 -166 63 -166 188v346h148v-333c0 -51 19 -73 61 -73
c40 0 71 20 93 70v336h148v-522h-126l-4 64c-41 -53 -89 -76 -154 -76z" />
    <glyph glyph-name="Umacron" unicode="&#x16a;" horiz-adv-x="631" 
d="M167 761h296v99h-296v-99zM316 -12c-179 0 -255 72 -255 240v452h150v-447c0 -85 29 -116 107 -116s107 31 107 116v447h145v-452c0 -168 -76 -240 -254 -240z" />
    <glyph glyph-name="umacron" unicode="&#x16b;" horiz-adv-x="574" 
d="M137 609h296v99h-296v-99zM226 -12c-109 0 -166 63 -166 188v346h148v-333c0 -51 19 -73 61 -73c40 0 71 20 93 70v336h148v-522h-126l-4 64c-41 -53 -89 -76 -154 -76z" />
    <glyph glyph-name="Ubreve" unicode="&#x16c;" horiz-adv-x="631" 
d="M315 733c-96 0 -158 59 -162 146h98c3 -34 25 -54 64 -54s61 20 64 54h98c-4 -87 -66 -146 -162 -146zM316 -12c-179 0 -255 72 -255 240v452h150v-447c0 -85 29 -116 107 -116s107 31 107 116v447h145v-452c0 -168 -76 -240 -254 -240z" />
    <glyph glyph-name="ubreve" unicode="&#x16d;" horiz-adv-x="574" 
d="M285 581c-96 0 -158 59 -162 146h98c3 -34 25 -54 64 -54s61 20 64 54h98c-4 -87 -66 -146 -162 -146zM226 -12c-109 0 -166 63 -166 188v346h148v-333c0 -51 19 -73 61 -73c40 0 71 20 93 70v336h148v-522h-126l-4 64c-41 -53 -89 -76 -154 -76z" />
    <glyph glyph-name="Uring" unicode="&#x16e;" horiz-adv-x="631" 
d="M315 723c-71 0 -123 48 -123 116c0 67 52 117 123 117s123 -50 123 -117c0 -68 -52 -116 -123 -116zM315 797c23 0 38 16 38 42c0 25 -15 41 -38 41s-38 -16 -38 -41c0 -26 15 -42 38 -42zM316 -12c-179 0 -255 72 -255 240v452h150v-447c0 -85 29 -116 107 -116
s107 31 107 116v447h145v-452c0 -168 -76 -240 -254 -240z" />
    <glyph glyph-name="uring" unicode="&#x16f;" horiz-adv-x="574" 
d="M285 571c-71 0 -123 48 -123 116c0 67 52 117 123 117s123 -50 123 -117c0 -68 -52 -116 -123 -116zM285 645c23 0 38 16 38 42c0 25 -15 41 -38 41s-38 -16 -38 -41c0 -26 15 -42 38 -42zM226 -12c-109 0 -166 63 -166 188v346h148v-333c0 -51 19 -73 61 -73
c40 0 71 20 93 70v336h148v-522h-126l-4 64c-41 -53 -89 -76 -154 -76z" />
    <glyph glyph-name="Uhungarumlaut" unicode="&#x170;" horiz-adv-x="631" 
d="M134 742l88 140h148l-119 -140h-117zM339 742l88 140h148l-119 -140h-117zM316 -12c-179 0 -255 72 -255 240v452h150v-447c0 -85 29 -116 107 -116s107 31 107 116v447h145v-452c0 -168 -76 -240 -254 -240z" />
    <glyph glyph-name="uhungarumlaut" unicode="&#x171;" horiz-adv-x="574" 
d="M104 590l88 140h148l-119 -140h-117zM309 590l88 140h148l-119 -140h-117zM226 -12c-109 0 -166 63 -166 188v346h148v-333c0 -51 19 -73 61 -73c40 0 71 20 93 70v336h148v-522h-126l-4 64c-41 -53 -89 -76 -154 -76z" />
    <glyph glyph-name="Uogonek" unicode="&#x172;" horiz-adv-x="631" 
d="M425 680h145v-452c0 -129 -45 -202 -147 -228c-47 -19 -73 -48 -73 -80c0 -24 15 -36 45 -36c17 0 33 4 49 12v-89c-22 -9 -48 -13 -78 -13c-82 0 -127 33 -127 92c0 40 20 74 59 102c-166 5 -237 78 -237 240v452h150v-447c0 -85 29 -116 107 -116s107 31 107 116v447z
" />
    <glyph glyph-name="uogonek" unicode="&#x173;" horiz-adv-x="574" 
d="M462 -116c15 0 31 3 49 12v-89c-23 -8 -49 -13 -80 -13c-79 0 -125 32 -125 92c0 45 25 84 78 120l-4 58c-41 -53 -89 -76 -154 -76c-109 0 -166 63 -166 188v346h148v-333c0 -51 19 -73 61 -73c40 0 71 20 93 70v336h148v-522h-33c-37 -24 -60 -50 -60 -80
c0 -24 15 -36 45 -36z" />
    <glyph glyph-name="Wcircumflex" unicode="&#x174;" horiz-adv-x="878" 
d="M250 742l122 140h134l122 -140h-129l-60 58l-60 -58h-129zM172 0l-168 680h155l101 -461l116 461h133l116 -461l101 461h148l-168 -680h-155l-110 439l-111 -439h-158z" />
    <glyph glyph-name="wcircumflex" unicode="&#x175;" horiz-adv-x="800" 
d="M211 590l122 140h134l122 -140h-129l-60 58l-60 -58h-129zM156 0l-150 522h155l81 -340l96 340h130l96 -340l81 340h149l-150 -522h-150l-93 326l-93 -326h-152z" />
    <glyph glyph-name="Ycircumflex" unicode="&#x176;" horiz-adv-x="541" 
d="M81 742l122 140h134l122 -140h-129l-60 58l-60 -58h-129zM196 0v283l-222 397h171l132 -246l132 246h158l-221 -394v-286h-150z" />
    <glyph glyph-name="ycircumflex" unicode="&#x177;" horiz-adv-x="498" 
d="M60 590l122 140h134l122 -140h-129l-60 58l-60 -58h-129zM62 -182v116h58c28 0 40 8 50 39l11 33l-178 516h157l97 -326l89 326h149l-185 -567c-35 -108 -71 -137 -173 -137h-75z" />
    <glyph glyph-name="Ydieresis" unicode="&#x178;" horiz-adv-x="541" 
d="M99 748v126h136v-126h-136zM305 748v126h136v-126h-136zM196 0v283l-222 397h171l132 -246l132 246h158l-221 -394v-286h-150z" />
    <glyph glyph-name="Zacute" unicode="&#x179;" horiz-adv-x="559" 
d="M187 742l113 140h160l-143 -140h-130zM27 0v117l311 434h-293v129h479v-116l-311 -435h319v-129h-505z" />
    <glyph glyph-name="zacute" unicode="&#x17a;" horiz-adv-x="477" 
d="M145 590l113 140h160l-143 -140h-130zM24 0v102l236 305h-215v115h403v-102l-236 -305h241v-115h-429z" />
    <glyph glyph-name="Zdotaccent" unicode="&#x17b;" horiz-adv-x="559" 
d="M212 748v126h144v-126h-144zM27 0v117l311 434h-293v129h479v-116l-311 -435h319v-129h-505z" />
    <glyph glyph-name="zdotaccent" unicode="&#x17c;" horiz-adv-x="477" 
d="M170 596v126h144v-126h-144zM24 0v102l236 305h-215v115h403v-102l-236 -305h241v-115h-429z" />
    <glyph glyph-name="Zcaron" unicode="&#x17d;" horiz-adv-x="559" 
d="M217 742l-122 140h129l60 -58l60 58h129l-122 -140h-134zM27 0v117l311 434h-293v129h479v-116l-311 -435h319v-129h-505z" />
    <glyph glyph-name="zcaron" unicode="&#x17e;" horiz-adv-x="477" 
d="M175 590l-122 140h129l60 -58l60 58h129l-122 -140h-134zM24 0v102l236 305h-215v115h403v-102l-236 -305h241v-115h-429z" />
    <glyph glyph-name="florin" unicode="&#x192;" horiz-adv-x="596" 
d="M49 -60l14 112h53c46 0 65 20 72 74l28 228h-111v113h125l7 61c15 125 63 172 176 172h119l-13 -112h-65c-45 0 -64 -20 -71 -74l-6 -47h125v-113h-139l-29 -242c-15 -124 -64 -172 -176 -172h-109z" />
    <glyph glyph-name="Aringacute" unicode="&#x1fa;" horiz-adv-x="615" 
d="M210 974l113 140h160l-143 -140h-130zM307 715c-71 0 -123 48 -123 116c0 67 52 117 123 117s123 -50 123 -117c0 -68 -52 -116 -123 -116zM307 789c23 0 38 16 38 42c0 25 -15 41 -38 41s-38 -16 -38 -41c0 -26 15 -42 38 -42zM2 0l228 680h155l228 -680h-159l-43 137
h-214l-43 -137h-152zM234 262h140l-70 248z" />
    <glyph glyph-name="aringacute" unicode="&#x1fb;" horiz-adv-x="542" 
d="M168 822l113 140h160l-143 -140h-130zM265 563c-71 0 -123 48 -123 116c0 67 52 117 123 117s123 -50 123 -117c0 -68 -52 -116 -123 -116zM265 637c23 0 38 16 38 42c0 25 -15 41 -38 41s-38 -16 -38 -41c0 -26 15 -42 38 -42zM198 -12c-103 0 -165 58 -165 162
c0 110 69 171 208 171h96v17c0 54 -21 80 -74 80c-51 0 -71 -23 -73 -59h-143c8 116 78 175 222 175c148 0 216 -62 216 -198v-336h-125l-5 65c-36 -51 -88 -77 -157 -77zM243 104c42 0 73 20 94 59v60h-69c-67 0 -89 -23 -89 -61s22 -58 64 -58z" />
    <glyph glyph-name="AEacute" unicode="&#x1fc;" horiz-adv-x="901" 
d="M362 742l113 140h160l-143 -140h-130zM-26 0l379 680h502v-129h-290v-143h240v-128h-240v-151h300v-129h-450v137h-204l-75 -137h-162zM277 262h138v274z" />
    <glyph glyph-name="aeacute" unicode="&#x1fd;" horiz-adv-x="845" 
d="M320 590l113 140h160l-143 -140h-130zM209 -12c-112 0 -176 57 -176 162c0 110 69 171 208 171h96v18c0 53 -21 79 -74 79c-51 0 -71 -23 -73 -59h-143c8 120 82 175 207 175c80 0 134 -22 165 -70c32 47 86 70 164 70c143 0 219 -76 219 -224v-95h-317v-10
c0 -68 28 -101 92 -101c50 0 78 20 81 56h141c-6 -113 -83 -172 -224 -172c-93 0 -159 26 -197 77c-41 -52 -95 -77 -169 -77zM485 319h177c0 70 -26 99 -88 99c-63 0 -89 -29 -89 -99zM243 104c44 0 76 22 96 64c-1 13 -2 27 -2 42v13h-68c-68 0 -90 -23 -90 -61
s22 -58 64 -58z" />
    <glyph glyph-name="Oslashacute" unicode="&#x1fe;" horiz-adv-x="652" 
d="M502 882l-143 -140h-130l113 140h160zM601 624l-33 -46c22 -42 33 -96 33 -163v-150c0 -190 -87 -277 -275 -277c-65 0 -118 10 -159 32l-23 -32l-93 68l33 46c-22 42 -33 96 -33 163v150c0 190 87 277 275 277c65 0 118 -10 159 -32l23 32zM201 265l202 280
c-19 12 -45 18 -77 18c-90 0 -125 -43 -125 -150v-148zM451 415l-202 -280c19 -12 45 -18 77 -18c90 0 125 43 125 150v148z" />
    <glyph glyph-name="oslashacute" unicode="&#x1ff;" horiz-adv-x="564" 
d="M458 730l-143 -140h-130l113 140h160zM519 467l-27 -32c18 -34 27 -76 27 -126v-96c0 -150 -79 -225 -237 -225c-55 0 -101 9 -137 28l-23 -28l-77 67l27 32c-18 34 -27 76 -27 126v96c0 150 79 225 237 225c55 0 101 -9 137 -28l23 28zM193 306v-72l140 169
c-13 7 -30 11 -51 11c-63 0 -89 -32 -89 -108zM371 216v72l-140 -169c13 -7 30 -11 51 -11c63 0 89 32 89 108z" />
    <glyph glyph-name="Scommaaccent" unicode="&#x218;" horiz-adv-x="563" 
d="M280 -12c-173 0 -252 68 -252 217h146c0 -66 37 -95 110 -95c66 0 99 24 99 73c0 56 -36 80 -137 96c-151 24 -208 80 -208 204c0 139 85 209 247 209c160 0 239 -68 239 -211h-146c0 59 -31 88 -96 88c-62 0 -94 -26 -94 -71c0 -51 35 -74 131 -88
c159 -23 214 -84 214 -212c0 -141 -83 -210 -253 -210zM219 -254v55c45 0 62 13 62 42h-60v98h143v-65c0 -97 -28 -130 -145 -130z" />
    <glyph glyph-name="scommaaccent" unicode="&#x219;" horiz-adv-x="504" 
d="M252 -12c-151 0 -221 56 -221 172h141c0 -45 24 -65 81 -65c49 0 73 15 73 47c0 37 -28 53 -106 62c-129 15 -180 59 -180 158c0 113 76 172 213 172c138 0 208 -58 208 -166h-141c0 41 -20 59 -68 59c-44 0 -66 -17 -66 -47c0 -34 27 -49 103 -58
c132 -15 183 -64 183 -165c0 -114 -72 -169 -220 -169zM189 -254v55c45 0 62 13 62 42h-60v98h143v-65c0 -97 -28 -130 -145 -130z" />
    <glyph glyph-name="uni021A" unicode="&#x21a;" horiz-adv-x="526" 
d="M188 0v549h-182v131h514v-131h-182v-549h-150zM190 -254v55c45 0 62 13 62 42h-60v98h143v-65c0 -97 -28 -130 -145 -130z" />
    <glyph glyph-name="uni021B" unicode="&#x21b;" horiz-adv-x="361" 
d="M236 0c-107 0 -152 50 -152 170v240h-76v112h79l8 130h137v-130h108v-112h-108v-231c0 -49 12 -63 55 -63h58v-116h-109zM132 -254v55c45 0 62 13 62 42h-60v98h143v-65c0 -97 -28 -130 -145 -130z" />
    <glyph glyph-name="uni0237" unicode="&#x237;" horiz-adv-x="276" 
d="M-3 -182v116h30c27 0 37 11 37 43v545h148v-548c0 -109 -41 -156 -139 -156h-76z" />
    <glyph glyph-name="uni02BC" unicode="&#x2bc;" horiz-adv-x="185" 
d="M20 494v66c46 0 60 16 60 49v1h-58v120h142v-98c0 -93 -35 -138 -144 -138z" />
    <glyph glyph-name="circumflex" unicode="&#x2c6;" horiz-adv-x="500" 
d="M61 590l122 140h134l122 -140h-129l-60 58l-60 -58h-129z" />
    <glyph glyph-name="caron" unicode="&#x2c7;" horiz-adv-x="500" 
d="M183 590l-122 140h129l60 -58l60 58h129l-122 -140h-134z" />
    <glyph glyph-name="uni02C9" unicode="&#x2c9;" horiz-adv-x="500" 
d="M102 609h296v99h-296v-99z" />
    <glyph glyph-name="breve" unicode="&#x2d8;" horiz-adv-x="500" 
d="M250 581c-96 0 -158 59 -162 146h98c3 -34 25 -54 64 -54s61 20 64 54h98c-4 -87 -66 -146 -162 -146z" />
    <glyph glyph-name="dotaccent" unicode="&#x2d9;" horiz-adv-x="500" 
d="M178 596v126h144v-126h-144z" />
    <glyph glyph-name="ring" unicode="&#x2da;" horiz-adv-x="500" 
d="M250 571c-71 0 -123 48 -123 116c0 67 52 117 123 117s123 -50 123 -117c0 -68 -52 -116 -123 -116zM250 645c23 0 38 16 38 42c0 25 -15 41 -38 41s-38 -16 -38 -41c0 -26 15 -42 38 -42z" />
    <glyph glyph-name="ogonek" unicode="&#x2db;" horiz-adv-x="500" 
d="M273 -206c-79 0 -125 32 -125 92c0 63 50 116 156 162l41 -33c-52 -27 -86 -59 -86 -95c0 -24 15 -36 45 -36c15 0 31 3 49 12v-89c-23 -8 -49 -13 -80 -13z" />
    <glyph glyph-name="tilde" unicode="&#x2dc;" horiz-adv-x="500" 
d="M309 585c-28 0 -44 5 -76 27c-21 14 -26 16 -36 16c-19 0 -28 -11 -31 -39h-84c3 96 38 140 109 140c28 0 44 -5 76 -27c21 -14 26 -16 36 -16c19 0 28 11 31 39h84c-3 -96 -38 -140 -109 -140z" />
    <glyph glyph-name="hungarumlaut" unicode="&#x2dd;" horiz-adv-x="500" 
d="M69 590l88 140h148l-119 -140h-117zM274 590l88 140h148l-119 -140h-117z" />
    <glyph glyph-name="gravecomb" unicode="&#x300;" horiz-adv-x="0" 
d="M-33 590l-143 140h160l113 -140h-130z" />
    <glyph glyph-name="acutecomb" unicode="&#x301;" horiz-adv-x="0" 
d="M-97 590l113 140h160l-143 -140h-130z" />
    <glyph glyph-name="uni0302" unicode="&#x302;" horiz-adv-x="0" 
d="M-189 590l122 140h134l122 -140h-129l-60 58l-60 -58h-129z" />
    <glyph glyph-name="tildecomb" unicode="&#x303;" horiz-adv-x="0" 
d="M59 585c-28 0 -44 5 -76 27c-21 14 -26 16 -36 16c-19 0 -28 -11 -31 -39h-84c3 96 38 140 109 140c28 0 44 -5 76 -27c21 -14 26 -16 36 -16c19 0 28 11 31 39h84c-3 -96 -38 -140 -109 -140z" />
    <glyph glyph-name="uni0304" unicode="&#x304;" horiz-adv-x="0" 
d="M-148 609h296v99h-296v-99z" />
    <glyph glyph-name="uni0306" unicode="&#x306;" horiz-adv-x="0" 
d="M0 581c-96 0 -158 59 -162 146h98c3 -34 25 -54 64 -54s61 20 64 54h98c-4 -87 -66 -146 -162 -146z" />
    <glyph glyph-name="uni0307" unicode="&#x307;" horiz-adv-x="0" 
d="M-72 596v126h144v-126h-144z" />
    <glyph glyph-name="uni0308" unicode="&#x308;" horiz-adv-x="0" 
d="M-171 596v126h136v-126h-136zM35 596v126h136v-126h-136z" />
    <glyph glyph-name="uni030A" unicode="&#x30a;" horiz-adv-x="0" 
d="M0 571c-71 0 -123 48 -123 116c0 67 52 117 123 117s123 -50 123 -117c0 -68 -52 -116 -123 -116zM0 645c23 0 38 16 38 42c0 25 -15 41 -38 41s-38 -16 -38 -41c0 -26 15 -42 38 -42z" />
    <glyph glyph-name="uni030B" unicode="&#x30b;" horiz-adv-x="0" 
d="M-181 590l88 140h148l-119 -140h-117zM24 590l88 140h148l-119 -140h-117z" />
    <glyph glyph-name="uni030C" unicode="&#x30c;" horiz-adv-x="0" 
d="M-67 590l-122 140h129l60 -58l60 58h129l-122 -140h-134z" />
    <glyph glyph-name="uni0312" unicode="&#x312;" horiz-adv-x="0" 
d="M-72 581v72c0 92 31 123 145 123v-55c-45 0 -62 -13 -62 -42h60v-98h-143z" />
    <glyph glyph-name="uni0326" unicode="&#x326;" horiz-adv-x="0" 
d="M-73 -254v55c45 0 62 13 62 42h-60v98h143v-65c0 -97 -28 -130 -145 -130z" />
    <glyph glyph-name="uni0327" unicode="&#x327;" horiz-adv-x="0" 
d="M-138 -187l23 56c21 -10 39 -16 65 -16c33 0 44 9 44 24c0 16 -11 23 -56 23h-17l45 115h66l-26 -69c74 0 108 -24 108 -75c0 -47 -29 -81 -139 -81c-46 0 -80 6 -113 23z" />
    <glyph glyph-name="uni0328" unicode="&#x328;" horiz-adv-x="0" 
d="M23 -206c-79 0 -125 32 -125 92c0 63 50 116 156 162l41 -33c-52 -27 -86 -59 -86 -95c0 -24 15 -36 45 -36c15 0 31 3 49 12v-89c-23 -8 -49 -13 -80 -13z" />
    <glyph glyph-name="uni0394" unicode="&#x394;" horiz-adv-x="605" 
d="M2 0l221 680h159l221 -680h-601zM191 125h216l-108 366z" />
    <glyph glyph-name="uni03A9" unicode="&#x3a9;" horiz-adv-x="652" 
d="M56 0v124h75c-52 38 -80 103 -80 194v97c0 190 86 277 275 277c188 0 275 -87 275 -277v-97c0 -91 -28 -156 -80 -194h76v-124h-232v114c58 21 86 69 86 157v142c0 104 -38 150 -125 150c-88 0 -125 -46 -125 -150v-142c0 -88 28 -136 87 -157v-114h-232z" />
    <glyph glyph-name="uni03BC" unicode="&#x3bc;" horiz-adv-x="578" 
d="M64 -182v704h148v-331c0 -55 21 -75 60 -75c38 0 71 19 94 70v336h148v-522h-126l-4 63c-39 -53 -84 -75 -145 -75c-9 0 -18 1 -27 2v-172h-148z" />
    <glyph glyph-name="pi" unicode="&#x3c0;" horiz-adv-x="604" 
d="M88 0v406h-80v116h579v-116h-79v-240c0 -39 11 -50 46 -50h34v-116h-93c-98 0 -135 44 -135 156v250h-124v-406h-148z" />
    <glyph glyph-name="Wgrave" unicode="&#x1e80;" horiz-adv-x="878" 
d="M406 742l-143 140h160l113 -140h-130zM172 0l-168 680h155l101 -461l116 461h133l116 -461l101 461h148l-168 -680h-155l-110 439l-111 -439h-158z" />
    <glyph glyph-name="wgrave" unicode="&#x1e81;" horiz-adv-x="800" 
d="M367 590l-143 140h160l113 -140h-130zM156 0l-150 522h155l81 -340l96 340h130l96 -340l81 340h149l-150 -522h-150l-93 326l-93 -326h-152z" />
    <glyph glyph-name="Wacute" unicode="&#x1e82;" horiz-adv-x="878" 
d="M342 742l113 140h160l-143 -140h-130zM172 0l-168 680h155l101 -461l116 461h133l116 -461l101 461h148l-168 -680h-155l-110 439l-111 -439h-158z" />
    <glyph glyph-name="wacute" unicode="&#x1e83;" horiz-adv-x="800" 
d="M303 590l113 140h160l-143 -140h-130zM156 0l-150 522h155l81 -340l96 340h130l96 -340l81 340h149l-150 -522h-150l-93 326l-93 -326h-152z" />
    <glyph glyph-name="Wdieresis" unicode="&#x1e84;" horiz-adv-x="878" 
d="M268 748v126h136v-126h-136zM474 748v126h136v-126h-136zM172 0l-168 680h155l101 -461l116 461h133l116 -461l101 461h148l-168 -680h-155l-110 439l-111 -439h-158z" />
    <glyph glyph-name="wdieresis" unicode="&#x1e85;" horiz-adv-x="800" 
d="M229 596v126h136v-126h-136zM435 596v126h136v-126h-136zM156 0l-150 522h155l81 -340l96 340h130l96 -340l81 340h149l-150 -522h-150l-93 326l-93 -326h-152z" />
    <glyph glyph-name="uni1E9E" unicode="&#x1e9e;" horiz-adv-x="643" 
d="M63 0v457c0 153 75 223 240 223h266v-114l-125 -172c123 -17 174 -79 174 -197c0 -141 -72 -197 -247 -197h-102v127h90c78 0 108 15 108 74c0 62 -33 76 -113 76h-71v108l120 168h-86c-72 0 -104 -30 -104 -96v-457h-150z" />
    <glyph glyph-name="Ygrave" unicode="&#x1ef2;" horiz-adv-x="541" 
d="M237 742l-143 140h160l113 -140h-130zM196 0v283l-222 397h171l132 -246l132 246h158l-221 -394v-286h-150z" />
    <glyph glyph-name="ygrave" unicode="&#x1ef3;" horiz-adv-x="498" 
d="M216 590l-143 140h160l113 -140h-130zM62 -182v116h58c28 0 40 8 50 39l11 33l-178 516h157l97 -326l89 326h149l-185 -567c-35 -108 -71 -137 -173 -137h-75z" />
    <glyph glyph-name="uni2002" unicode="&#x2002;" horiz-adv-x="500" 
 />
    <glyph glyph-name="uni2003" unicode="&#x2003;" horiz-adv-x="900" 
 />
    <glyph glyph-name="uni2007" unicode="&#x2007;" horiz-adv-x="596" 
 />
    <glyph glyph-name="uni2008" unicode="&#x2008;" horiz-adv-x="293" 
 />
    <glyph glyph-name="uni200B" unicode="&#x200b;" horiz-adv-x="0" 
 />
    <glyph glyph-name="figuredash" unicode="&#x2012;" horiz-adv-x="596" 
d="M30 240v114h536v-114h-536z" />
    <glyph glyph-name="endash" unicode="&#x2013;" horiz-adv-x="500" 
d="M30 240v114h440v-114h-440z" />
    <glyph glyph-name="emdash" unicode="&#x2014;" horiz-adv-x="900" 
d="M30 240v114h840v-114h-840z" />
    <glyph glyph-name="quoteleft" unicode="&#x2018;" horiz-adv-x="271" 
d="M58 367v152c0 119 46 172 155 173v-78c-38 -1 -60 -22 -60 -68v-28h56v-151h-151z" />
    <glyph glyph-name="quoteright" unicode="&#x2019;" horiz-adv-x="271" 
d="M58 355v78c38 1 60 22 60 68v28h-56v151h151v-152c0 -119 -46 -172 -155 -173z" />
    <glyph glyph-name="quotesinglbase" unicode="&#x201a;" horiz-adv-x="271" 
d="M58 -174v78c38 1 60 22 60 68v28h-56v151h151v-152c0 -119 -46 -172 -155 -173z" />
    <glyph glyph-name="quotedblleft" unicode="&#x201c;" horiz-adv-x="502" 
d="M58 367v152c0 119 46 172 155 173v-78c-38 -1 -60 -22 -60 -68v-28h56v-151h-151zM289 367v152c0 119 46 172 155 173v-78c-38 -1 -60 -22 -60 -68v-28h56v-151h-151z" />
    <glyph glyph-name="quotedblright" unicode="&#x201d;" horiz-adv-x="501" 
d="M58 355v78c38 1 60 22 60 68v28h-56v151h151v-152c0 -119 -46 -172 -155 -173zM288 355v78c38 1 60 22 60 68v28h-56v151h151v-152c0 -119 -46 -172 -155 -173z" />
    <glyph glyph-name="quotedblbase" unicode="&#x201e;" horiz-adv-x="501" 
d="M58 -174v78c38 1 60 22 60 68v28h-56v151h151v-152c0 -119 -46 -172 -155 -173zM288 -174v78c38 1 60 22 60 68v28h-56v151h151v-152c0 -119 -46 -172 -155 -173z" />
    <glyph glyph-name="dagger" unicode="&#x2020;" horiz-adv-x="610" 
d="M232 -182v517l-194 -10v137l194 -9v227h146v-227l194 9v-137l-194 10v-517h-146z" />
    <glyph glyph-name="daggerdbl" unicode="&#x2021;" horiz-adv-x="610" 
d="M232 -182v207l-194 -9v137l194 -10v212l-194 -10v137l194 -9v207h146v-207l194 9v-137l-194 10v-212l194 10v-137l-194 9v-207h-146z" />
    <glyph glyph-name="bullet" unicode="&#x2022;" horiz-adv-x="500" 
d="M121 168v258h258v-258h-258z" />
    <glyph glyph-name="ellipsis" unicode="&#x2026;" horiz-adv-x="900" 
d="M73 0v155h155v-155h-155zM373 0v155h155v-155h-155zM673 0v155h155v-155h-155z" />
    <glyph glyph-name="perthousand" unicode="&#x2030;" horiz-adv-x="1136" 
d="M183 310c-99 0 -152 46 -152 134v114c0 88 53 134 152 134s152 -46 152 -134v-114c0 -88 -53 -134 -152 -134zM136 -12l408 704h105l-407 -704h-106zM183 398c31 0 46 16 46 51v105c0 34 -15 50 -46 50s-46 -16 -46 -50v-105c0 -35 15 -51 46 -51zM602 -12
c-99 0 -152 46 -152 134v114c0 88 53 134 152 134s152 -46 152 -134v-114c0 -88 -53 -134 -152 -134zM953 -12c-99 0 -152 46 -152 134v114c0 88 53 134 152 134s152 -46 152 -134v-114c0 -88 -53 -134 -152 -134zM602 76c31 0 46 16 46 51v105c0 34 -15 50 -46 50
s-46 -16 -46 -50v-105c0 -35 15 -51 46 -51zM953 76c31 0 46 16 46 51v105c0 34 -15 50 -46 50s-46 -16 -46 -50v-105c0 -35 15 -51 46 -51z" />
    <glyph glyph-name="guilsinglleft" unicode="&#x2039;" horiz-adv-x="311" 
d="M147 82l-132 180l132 180h149l-132 -180l132 -180h-149z" />
    <glyph glyph-name="guilsinglright" unicode="&#x203a;" horiz-adv-x="311" 
d="M15 80l132 180l-132 180h149l132 -180l-132 -180h-149z" />
    <glyph glyph-name="fraction" unicode="&#x2044;" horiz-adv-x="114" 
d="M-178 -12l367 704h103l-367 -704h-103z" />
    <glyph glyph-name="uni2070" unicode="&#x2070;" 
d="M183 404c-99 0 -152 46 -152 134v150c0 88 53 134 152 134s152 -46 152 -134v-150c0 -88 -53 -134 -152 -134zM183 492c31 0 46 16 46 51v141c0 34 -15 50 -46 50s-46 -16 -46 -50v-141c0 -35 15 -51 46 -51z" />
    <glyph glyph-name="uni2074" unicode="&#x2074;" 
d="M203 416v80h-180v89l175 225h111v-232h40v-82h-40v-80h-106zM115 578h88v118z" />
    <glyph glyph-name="uni2075" unicode="&#x2075;" 
d="M182 404c-98 0 -149 41 -149 122h101c2 -21 19 -34 49 -34c32 0 48 15 48 48s-16 51 -49 51c-19 0 -36 -6 -46 -20h-91l14 239h258v-89h-175l-4 -70c20 14 46 21 77 21c80 0 122 -47 122 -130c0 -92 -52 -138 -155 -138z" />
    <glyph glyph-name="uni2076" unicode="&#x2076;" 
d="M187 404c-100 0 -153 47 -153 134v146c0 91 54 138 154 138c101 0 147 -48 147 -118h-101c-2 16 -14 30 -45 30c-34 0 -49 -17 -49 -54v-35c21 18 47 26 80 26c76 0 118 -45 118 -128c0 -92 -50 -139 -151 -139zM187 492c31 0 45 15 45 50s-13 49 -41 49
c-23 0 -39 -11 -51 -32v-16c0 -34 15 -51 47 -51z" />
    <glyph glyph-name="uni2077" unicode="&#x2077;" 
d="M77 416c6 130 58 231 150 303h-199v91h308v-95c-99 -88 -140 -174 -146 -299h-113z" />
    <glyph glyph-name="uni2078" unicode="&#x2078;" 
d="M183 404c-107 0 -159 39 -159 118c0 49 21 82 62 98v2c-35 15 -52 43 -52 86c0 75 52 114 149 114s149 -39 149 -114c0 -43 -17 -71 -52 -86v-2c41 -16 62 -49 62 -98c0 -79 -52 -118 -159 -118zM183 656c31 0 46 13 46 41c0 27 -15 38 -46 38s-46 -11 -46 -38
c0 -28 15 -41 46 -41zM183 491c35 0 53 12 53 40c0 29 -18 42 -53 42s-53 -13 -53 -42c0 -28 18 -40 53 -40z" />
    <glyph glyph-name="uni2079" unicode="&#x2079;" 
d="M178 404c-101 0 -147 48 -147 118h101c2 -16 14 -30 45 -30c34 0 49 17 49 54v35c-21 -18 -47 -26 -80 -26c-76 0 -118 45 -118 128c0 92 50 139 151 139c100 0 153 -47 153 -134v-146c0 -91 -54 -138 -154 -138zM175 635c23 0 39 11 51 32v16c0 34 -15 51 -47 51
c-31 0 -45 -15 -45 -50s13 -49 41 -49z" />
    <glyph glyph-name="uni2080" unicode="&#x2080;" 
d="M183 -132c-99 0 -152 46 -152 134v150c0 88 53 134 152 134s152 -46 152 -134v-150c0 -88 -53 -134 -152 -134zM183 -44c31 0 46 16 46 51v141c0 34 -15 50 -46 50s-46 -16 -46 -50v-141c0 -35 15 -51 46 -51z" />
    <glyph glyph-name="uni2081" unicode="&#x2081;" 
d="M61 -120v87h91v186c-35 -7 -71 -8 -103 -8v78c58 1 90 15 111 51h98v-307h91v-87h-288z" />
    <glyph glyph-name="uni2082" unicode="&#x2082;" 
d="M30 -120v48c0 78 36 126 125 166c51 23 70 41 70 68c0 23 -15 36 -43 36c-32 0 -46 -17 -46 -49v-8h-99v18c0 82 52 127 148 127c94 0 146 -44 146 -121c0 -66 -37 -110 -125 -149c-46 -20 -63 -31 -69 -47h194v-89h-301z" />
    <glyph glyph-name="uni2083" unicode="&#x2083;" 
d="M184 -132c-100 0 -152 39 -152 116v19h100v-7c0 -26 18 -40 51 -40c31 0 48 13 48 40c0 29 -18 40 -56 40h-44v83h40c35 0 52 13 52 40c0 26 -16 39 -43 39s-43 -13 -43 -38v-6h-99v11c0 80 50 121 146 121c93 0 144 -38 144 -115c0 -42 -16 -70 -50 -85v-2
c41 -15 59 -46 59 -94c0 -82 -52 -122 -153 -122z" />
    <glyph glyph-name="uni2084" unicode="&#x2084;" 
d="M203 -120v80h-180v89l175 225h111v-232h40v-82h-40v-80h-106zM115 42h88v118z" />
    <glyph glyph-name="uni2085" unicode="&#x2085;" 
d="M182 -132c-98 0 -149 41 -149 122h101c2 -21 19 -34 49 -34c32 0 48 15 48 48s-16 51 -49 51c-19 0 -36 -6 -46 -20h-91l14 239h258v-89h-175l-4 -70c20 14 46 21 77 21c80 0 122 -47 122 -130c0 -92 -52 -138 -155 -138z" />
    <glyph glyph-name="uni2086" unicode="&#x2086;" 
d="M187 -132c-100 0 -153 47 -153 134v146c0 91 54 138 154 138c101 0 147 -48 147 -118h-101c-2 16 -14 30 -45 30c-34 0 -49 -17 -49 -54v-35c21 18 47 26 80 26c76 0 118 -45 118 -128c0 -92 -50 -139 -151 -139zM187 -44c31 0 45 15 45 50s-13 49 -41 49
c-23 0 -39 -11 -51 -32v-16c0 -34 15 -51 47 -51z" />
    <glyph glyph-name="uni2087" unicode="&#x2087;" 
d="M77 -120c6 130 58 231 150 303h-199v91h308v-95c-99 -88 -140 -174 -146 -299h-113z" />
    <glyph glyph-name="uni2088" unicode="&#x2088;" 
d="M183 -132c-107 0 -159 39 -159 118c0 49 21 82 62 98v2c-35 15 -52 43 -52 86c0 75 52 114 149 114s149 -39 149 -114c0 -43 -17 -71 -52 -86v-2c41 -16 62 -49 62 -98c0 -79 -52 -118 -159 -118zM183 120c31 0 46 13 46 41c0 27 -15 38 -46 38s-46 -11 -46 -38
c0 -28 15 -41 46 -41zM183 -45c35 0 53 12 53 40c0 29 -18 42 -53 42s-53 -13 -53 -42c0 -28 18 -40 53 -40z" />
    <glyph glyph-name="uni2089" unicode="&#x2089;" 
d="M178 -132c-101 0 -147 48 -147 118h101c2 -16 14 -30 45 -30c34 0 49 17 49 54v35c-21 -18 -47 -26 -80 -26c-76 0 -118 45 -118 128c0 92 50 139 151 139c100 0 153 -47 153 -134v-146c0 -91 -54 -138 -154 -138zM175 99c23 0 39 11 51 32v16c0 34 -15 51 -47 51
c-31 0 -45 -15 -45 -50s13 -49 41 -49z" />
    <glyph glyph-name="Euro" unicode="&#x20ac;" horiz-adv-x="596" 
d="M324 -12c-159 0 -242 80 -242 232v9h-43v86h43v50h-43v86h43v9c0 152 82 232 242 232c148 0 229 -69 233 -222h-137c-3 65 -34 97 -96 97c-65 0 -97 -36 -97 -106v-10h175l-15 -86h-160v-50h151l-15 -86h-136v-10c0 -70 32 -106 97 -106c62 0 93 32 96 97h137
c-4 -151 -83 -222 -233 -222z" />
    <glyph glyph-name="uni20B9" unicode="&#x20b9;" horiz-adv-x="596" 
d="M323 0l-264 242v89h107c86 0 127 25 138 88h-257l20 96h234c-14 49 -53 69 -125 69h-129l20 96h498l-20 -96h-135c18 -18 31 -41 38 -69h117l-20 -96h-91c-9 -106 -70 -163 -190 -180l263 -239h-204z" />
    <glyph glyph-name="uni2113" unicode="&#x2113;" horiz-adv-x="484" 
d="M267 -12c-138 0 -206 74 -206 215v333c0 137 67 206 195 206c122 0 183 -62 183 -184c0 -135 -74 -240 -230 -341v-5c0 -63 30 -96 89 -96c36 0 67 12 105 43l50 -104c-52 -47 -115 -67 -186 -67zM209 363c73 60 104 118 104 185c0 48 -16 70 -50 70
c-38 0 -54 -27 -54 -88v-167z" />
    <glyph glyph-name="uni2116" unicode="&#x2116;" horiz-adv-x="1065" 
d="M75 0v680h159l231 -429v429h142v-680h-143l-247 458v-458h-142zM850 157c-112 0 -167 53 -167 160v64c0 108 55 161 167 161s167 -53 167 -161v-64c0 -107 -55 -160 -167 -160zM850 246c39 0 56 18 56 70v67c0 50 -17 70 -56 70s-56 -20 -56 -70v-67c0 -52 17 -70 56 -70
zM686 0v89h328v-89h-328z" />
    <glyph glyph-name="uni2117" unicode="&#x2117;" horiz-adv-x="760" 
d="M380 -12c-204 0 -352 148 -352 352s148 352 352 352s352 -148 352 -352s-148 -352 -352 -352zM380 75c153 0 255 106 255 265s-102 265 -255 265s-255 -106 -255 -265s102 -265 255 -265zM252 162v356h155c100 0 143 -37 143 -122c0 -84 -43 -121 -143 -121h-55v-113
h-100zM352 355h46c37 0 52 12 52 41s-15 42 -52 42h-46v-83z" />
    <glyph glyph-name="uni2120" unicode="&#x2120;" horiz-adv-x="711" 
d="M136 342c-86 0 -124 32 -124 108h85c0 -27 13 -40 40 -40c26 0 38 12 38 29c0 21 -14 30 -57 39c-73 15 -102 45 -102 105c0 70 42 105 121 105c78 0 118 -34 118 -105h-85c0 24 -11 37 -34 37s-34 -12 -34 -29c0 -21 15 -31 57 -39c71 -13 102 -45 102 -108
c0 -69 -38 -102 -125 -102zM319 350v330h125l55 -186l55 186h129v-330h-87v234l-71 -234h-56l-70 229v-229h-80z" />
    <glyph glyph-name="trademark" unicode="&#x2122;" horiz-adv-x="693" 
d="M84 350v258h-84v72h255v-72h-84v-258h-87zM301 350v330h126l55 -186l55 186h128v-330h-87v231l-70 -231h-56l-71 232v-232h-80z" />
    <glyph glyph-name="uni2126" unicode="&#x2126;" horiz-adv-x="652" 
d="M56 0v124h75c-52 38 -80 103 -80 194v97c0 190 86 277 275 277c188 0 275 -87 275 -277v-97c0 -91 -28 -156 -80 -194h76v-124h-232v114c58 21 86 69 86 157v142c0 104 -38 150 -125 150c-88 0 -125 -46 -125 -150v-142c0 -88 28 -136 87 -157v-114h-232z" />
    <glyph glyph-name="estimated" unicode="&#x212e;" horiz-adv-x="794" 
d="M404 -12c-205 0 -371 157 -371 352c0 194 166 352 371 352s371 -158 371 -352v-9h-601c-3 0 -5 -2 -5 -5v-191c0 -9 4 -15 9 -21c56 -66 138 -105 228 -105c94 0 181 46 239 117h54c-68 -84 -175 -138 -295 -138zM174 351h461c4 0 6 2 6 6v193c0 8 -4 16 -10 22
c-59 62 -139 99 -225 99c-90 0 -170 -39 -228 -103c-5 -6 -9 -14 -9 -22v-190c0 -3 2 -5 5 -5z" />
    <glyph glyph-name="uni2153" unicode="&#x2153;" horiz-adv-x="846" 
d="M555 692h103l-367 -704h-103l155 298h-282v87h91v186c-35 -7 -71 -8 -103 -8v78c58 1 90 15 111 51h98v-307h91v-76zM758 204c41 -15 59 -46 59 -94c0 -82 -52 -122 -153 -122c-100 0 -152 39 -152 116v19h100v-7c0 -26 18 -40 51 -40c31 0 48 13 48 40
c0 29 -18 40 -56 40h-44v83h40c35 0 52 13 52 40c0 26 -16 39 -43 39s-43 -13 -43 -38v-6h-99v11c0 80 50 121 146 121c93 0 144 -38 144 -115c0 -42 -16 -70 -50 -85v-2z" />
    <glyph glyph-name="uni2154" unicode="&#x2154;" horiz-adv-x="846" 
d="M30 286v48c0 78 36 126 125 166c51 23 70 41 70 68c0 23 -15 36 -43 36c-32 0 -46 -17 -46 -49v-8h-99v18c0 82 52 127 148 127c94 0 146 -44 146 -121c0 -66 -37 -110 -125 -149c-46 -20 -63 -31 -69 -47h194v-89h-301zM188 -12l367 704h103l-367 -704h-103zM664 -12
c-100 0 -152 39 -152 116v19h100v-7c0 -26 18 -40 51 -40c31 0 48 13 48 40c0 29 -18 40 -56 40h-44v83h40c35 0 52 13 52 40c0 26 -16 39 -43 39s-43 -13 -43 -38v-6h-99v11c0 80 50 121 146 121c93 0 144 -38 144 -115c0 -42 -16 -70 -50 -85v-2c41 -15 59 -46 59 -94
c0 -82 -52 -122 -153 -122z" />
    <glyph glyph-name="uni2155" unicode="&#x2155;" horiz-adv-x="846" 
d="M555 692h103l-367 -704h-103l155 298h-282v87h91v186c-35 -7 -71 -8 -103 -8v78c58 1 90 15 111 51h98v-307h91v-76zM695 256c80 0 122 -47 122 -130c0 -92 -52 -138 -155 -138c-98 0 -149 41 -149 122h101c2 -21 19 -34 49 -34c32 0 48 15 48 48s-16 51 -49 51
c-19 0 -36 -6 -46 -20h-91l14 239h258v-89h-175l-4 -70c20 14 46 21 77 21z" />
    <glyph glyph-name="uni2156" unicode="&#x2156;" horiz-adv-x="846" 
d="M30 286v48c0 78 36 126 125 166c51 23 70 41 70 68c0 23 -15 36 -43 36c-32 0 -46 -17 -46 -49v-8h-99v18c0 82 52 127 148 127c94 0 146 -44 146 -121c0 -66 -37 -110 -125 -149c-46 -20 -63 -31 -69 -47h194v-89h-301zM188 -12l367 704h103l-367 -704h-103zM662 -12
c-98 0 -149 41 -149 122h101c2 -21 19 -34 49 -34c32 0 48 15 48 48s-16 51 -49 51c-19 0 -36 -6 -46 -20h-91l14 239h258v-89h-175l-4 -70c20 14 46 21 77 21c80 0 122 -47 122 -130c0 -92 -52 -138 -155 -138z" />
    <glyph glyph-name="uni2157" unicode="&#x2157;" horiz-adv-x="846" 
d="M184 274c-100 0 -152 39 -152 116v19h100v-7c0 -26 18 -40 51 -40c31 0 48 13 48 40c0 29 -18 40 -56 40h-44v83h40c35 0 52 13 52 40c0 26 -16 39 -43 39s-43 -13 -43 -38v-6h-99v11c0 80 50 121 146 121c93 0 144 -38 144 -115c0 -42 -16 -70 -50 -85v-2
c41 -15 59 -46 59 -94c0 -82 -52 -122 -153 -122zM188 -12l367 704h103l-367 -704h-103zM662 -12c-98 0 -149 41 -149 122h101c2 -21 19 -34 49 -34c32 0 48 15 48 48s-16 51 -49 51c-19 0 -36 -6 -46 -20h-91l14 239h258v-89h-175l-4 -70c20 14 46 21 77 21
c80 0 122 -47 122 -130c0 -92 -52 -138 -155 -138z" />
    <glyph glyph-name="uni2158" unicode="&#x2158;" horiz-adv-x="846" 
d="M188 -12l367 704h103l-367 -704h-103zM203 286v80h-180v89l175 225h111v-232h40v-82h-40v-80h-106zM115 448h88v118zM662 -12c-98 0 -149 41 -149 122h101c2 -21 19 -34 49 -34c32 0 48 15 48 48s-16 51 -49 51c-19 0 -36 -6 -46 -20h-91l14 239h258v-89h-175l-4 -70
c20 14 46 21 77 21c80 0 122 -47 122 -130c0 -92 -52 -138 -155 -138z" />
    <glyph glyph-name="uni2159" unicode="&#x2159;" horiz-adv-x="846" 
d="M555 692h103l-367 -704h-103l155 298h-282v87h91v186c-35 -7 -71 -8 -103 -8v78c58 1 90 15 111 51h98v-307h91v-76zM700 255c76 0 118 -45 118 -128c0 -92 -50 -139 -151 -139c-100 0 -153 47 -153 134v146c0 91 54 138 154 138c101 0 147 -48 147 -118h-101
c-2 16 -14 30 -45 30c-34 0 -49 -17 -49 -54v-35c21 18 47 26 80 26zM667 76c31 0 45 15 45 50s-13 49 -41 49c-23 0 -39 -11 -51 -32v-16c0 -34 15 -51 47 -51z" />
    <glyph glyph-name="uni215A" unicode="&#x215a;" horiz-adv-x="846" 
d="M188 -12l367 704h103l-367 -704h-103zM182 274c-98 0 -149 41 -149 122h101c2 -21 19 -34 49 -34c32 0 48 15 48 48s-16 51 -49 51c-19 0 -36 -6 -46 -20h-91l14 239h258v-89h-175l-4 -70c20 14 46 21 77 21c80 0 122 -47 122 -130c0 -92 -52 -138 -155 -138zM667 -12
c-100 0 -153 47 -153 134v146c0 91 54 138 154 138c101 0 147 -48 147 -118h-101c-2 16 -14 30 -45 30c-34 0 -49 -17 -49 -54v-35c21 18 47 26 80 26c76 0 118 -45 118 -128c0 -92 -50 -139 -151 -139zM667 76c31 0 45 15 45 50s-13 49 -41 49c-23 0 -39 -11 -51 -32v-16
c0 -34 15 -51 47 -51z" />
    <glyph glyph-name="oneeighth" unicode="&#x215b;" horiz-adv-x="846" 
d="M555 692h103l-367 -704h-103l155 298h-282v87h91v186c-35 -7 -71 -8 -103 -8v78c58 1 90 15 111 51h98v-307h91v-76zM760 204c41 -16 62 -49 62 -98c0 -79 -52 -118 -159 -118s-159 39 -159 118c0 49 21 82 62 98v2c-35 15 -52 43 -52 86c0 75 52 114 149 114
s149 -39 149 -114c0 -43 -17 -71 -52 -86v-2zM663 319c-31 0 -46 -11 -46 -38c0 -28 15 -41 46 -41s46 13 46 41c0 27 -15 38 -46 38zM663 75c35 0 53 12 53 40c0 29 -18 42 -53 42s-53 -13 -53 -42c0 -28 18 -40 53 -40z" />
    <glyph glyph-name="threeeighths" unicode="&#x215c;" horiz-adv-x="846" 
d="M184 274c-100 0 -152 39 -152 116v19h100v-7c0 -26 18 -40 51 -40c31 0 48 13 48 40c0 29 -18 40 -56 40h-44v83h40c35 0 52 13 52 40c0 26 -16 39 -43 39s-43 -13 -43 -38v-6h-99v11c0 80 50 121 146 121c93 0 144 -38 144 -115c0 -42 -16 -70 -50 -85v-2
c41 -15 59 -46 59 -94c0 -82 -52 -122 -153 -122zM188 -12l367 704h103l-367 -704h-103zM663 -12c-107 0 -159 39 -159 118c0 49 21 82 62 98v2c-35 15 -52 43 -52 86c0 75 52 114 149 114s149 -39 149 -114c0 -43 -17 -71 -52 -86v-2c41 -16 62 -49 62 -98
c0 -79 -52 -118 -159 -118zM663 240c31 0 46 13 46 41c0 27 -15 38 -46 38s-46 -11 -46 -38c0 -28 15 -41 46 -41zM663 75c35 0 53 12 53 40c0 29 -18 42 -53 42s-53 -13 -53 -42c0 -28 18 -40 53 -40z" />
    <glyph glyph-name="fiveeighths" unicode="&#x215d;" horiz-adv-x="846" 
d="M188 -12l367 704h103l-367 -704h-103zM182 274c-98 0 -149 41 -149 122h101c2 -21 19 -34 49 -34c32 0 48 15 48 48s-16 51 -49 51c-19 0 -36 -6 -46 -20h-91l14 239h258v-89h-175l-4 -70c20 14 46 21 77 21c80 0 122 -47 122 -130c0 -92 -52 -138 -155 -138zM663 -12
c-107 0 -159 39 -159 118c0 49 21 82 62 98v2c-35 15 -52 43 -52 86c0 75 52 114 149 114s149 -39 149 -114c0 -43 -17 -71 -52 -86v-2c41 -16 62 -49 62 -98c0 -79 -52 -118 -159 -118zM663 240c31 0 46 13 46 41c0 27 -15 38 -46 38s-46 -11 -46 -38c0 -28 15 -41 46 -41z
M663 75c35 0 53 12 53 40c0 29 -18 42 -53 42s-53 -13 -53 -42c0 -28 18 -40 53 -40z" />
    <glyph glyph-name="seveneighths" unicode="&#x215e;" horiz-adv-x="846" 
d="M161 -12l367 704h103l-367 -704h-103zM77 286c6 130 58 231 150 303h-199v91h308v-95c-99 -88 -140 -174 -146 -299h-113zM663 -12c-107 0 -159 39 -159 118c0 49 21 82 62 98v2c-35 15 -52 43 -52 86c0 75 52 114 149 114s149 -39 149 -114c0 -43 -17 -71 -52 -86v-2
c41 -16 62 -49 62 -98c0 -79 -52 -118 -159 -118zM663 240c31 0 46 13 46 41c0 27 -15 38 -46 38s-46 -11 -46 -38c0 -28 15 -41 46 -41zM663 75c35 0 53 12 53 40c0 29 -18 42 -53 42s-53 -13 -53 -42c0 -28 18 -40 53 -40z" />
    <glyph glyph-name="arrowleft" unicode="&#x2190;" horiz-adv-x="800" 
d="M376 18l-322 322l322 322l80 -80l-182 -179h472v-126h-472l182 -179z" />
    <glyph glyph-name="arrowup" unicode="&#x2191;" horiz-adv-x="800" 
d="M334 0v469l-183 -186l-80 80l329 329l329 -329l-80 -80l-183 186v-469h-132z" />
    <glyph glyph-name="arrowright" unicode="&#x2192;" horiz-adv-x="800" 
d="M424 18l-80 80l182 179h-472v126h472l-182 179l80 80l322 -322z" />
    <glyph glyph-name="arrowdown" unicode="&#x2193;" horiz-adv-x="800" 
d="M400 -12l-329 329l80 80l183 -186v469h132v-469l183 186l80 -80z" />
    <glyph glyph-name="arrowboth" unicode="&#x2194;" horiz-adv-x="1000" 
d="M355 39l-301 301l301 301l80 -80l-161 -158h452l-161 158l80 80l301 -301l-301 -301l-80 80l161 158h-452l161 -158z" />
    <glyph glyph-name="arrowupdn" unicode="&#x2195;" horiz-adv-x="800" 
d="M400 -84l-296 296l80 80l150 -153v402l-150 -153l-80 80l296 296l296 -296l-80 -80l-150 153v-402l150 153l80 -80z" />
    <glyph glyph-name="uni2196" unicode="&#x2196;" horiz-adv-x="800" 
d="M609 42l-362 362l2 -253h-116v457h457v-109l-260 2l369 -369z" />
    <glyph glyph-name="uni2197" unicode="&#x2197;" horiz-adv-x="800" 
d="M191 42l-90 90l369 369l-260 -2v109h457v-457h-116l2 253z" />
    <glyph glyph-name="uni2198" unicode="&#x2198;" horiz-adv-x="800" 
d="M210 72v109l260 -2l-369 369l90 90l362 -362l-2 253h116v-457h-457z" />
    <glyph glyph-name="uni2199" unicode="&#x2199;" horiz-adv-x="800" 
d="M133 72v457h116l-2 -253l362 362l90 -90l-369 -369l260 2v-109h-457z" />
    <glyph glyph-name="partialdiff" unicode="&#x2202;" horiz-adv-x="601" 
d="M259 -12c-143 0 -225 86 -225 229c0 152 93 257 236 257c57 0 101 -17 135 -53c-5 130 -37 201 -154 201c-49 0 -89 -12 -127 -39v125c43 23 96 34 157 34c187 0 271 -103 271 -341c0 -264 -104 -413 -293 -413zM268 108c73 0 116 56 131 172c-18 49 -54 74 -102 74
c-70 0 -115 -53 -115 -141c0 -71 30 -105 86 -105z" />
    <glyph glyph-name="emptyset" unicode="&#x2205;" horiz-adv-x="810" 
d="M137 -12l-85 85l62 62c-39 57 -62 127 -62 205c0 201 151 352 353 352c78 0 148 -22 205 -62l62 62l86 -85l-62 -62c39 -57 62 -127 62 -205c0 -201 -151 -352 -353 -352c-78 0 -149 23 -206 62zM203 223l321 322c-34 19 -74 30 -119 30c-134 0 -229 -97 -229 -235
c0 -44 9 -83 27 -117zM405 105c134 0 229 97 229 235c0 44 -9 83 -27 117l-322 -321c34 -20 75 -31 120 -31z" />
    <glyph glyph-name="uni2206" unicode="&#x2206;" horiz-adv-x="605" 
d="M2 0l221 680h159l221 -680h-601zM191 125h216l-108 366z" />
    <glyph glyph-name="product" unicode="&#x220f;" horiz-adv-x="767" 
d="M78 -183v954h611v-954h-139v828h-333v-828h-139z" />
    <glyph glyph-name="summation" unicode="&#x2211;" horiz-adv-x="633" 
d="M23 -183v129l283 348l-283 348v129h587v-124h-415l287 -353l-287 -353h415v-124h-587z" />
    <glyph glyph-name="minus" unicode="&#x2212;" horiz-adv-x="596" 
d="M52 250v118h492v-118h-492z" />
    <glyph glyph-name="uni2215" unicode="&#x2215;" horiz-adv-x="423" 
d="M-16 -12l320 704h135l-320 -704h-135z" />
    <glyph glyph-name="uni2219" unicode="&#x2219;" horiz-adv-x="293" 
d="M69 231v155h155v-155h-155z" />
    <glyph glyph-name="radical" unicode="&#x221a;" horiz-adv-x="596" 
d="M223 -183l-93 321h-78v116h167l65 -239l206 756h125l-265 -954h-127z" />
    <glyph glyph-name="infinity" unicode="&#x221e;" horiz-adv-x="904" 
d="M251 100c-128 0 -207 86 -207 219s79 219 210 219c104 0 162 -55 205 -119c45 69 97 119 194 119c128 0 207 -87 207 -220s-80 -218 -210 -218c-105 0 -162 55 -204 119c-50 -75 -103 -119 -195 -119zM642 221c55 0 88 39 88 101s-34 99 -98 99c-56 0 -84 -29 -121 -91
c34 -59 69 -109 131 -109zM272 217c56 0 83 28 122 91c-34 60 -69 109 -131 109c-56 0 -89 -40 -89 -102s33 -98 98 -98z" />
    <glyph glyph-name="integral" unicode="&#x222b;" horiz-adv-x="325" 
d="M60 -194c-24 0 -46 3 -67 10v111c15 -6 28 -9 43 -9c46 0 65 28 65 90v581c0 133 51 196 162 196c24 0 47 -3 69 -9v-112c-16 6 -29 9 -44 9c-46 0 -65 -28 -65 -90v-581c0 -133 -52 -196 -163 -196z" />
    <glyph glyph-name="approxequal" unicode="&#x2248;" horiz-adv-x="596" 
d="M398 315c-46 0 -81 14 -129 51c-31 24 -50 33 -71 33c-34 0 -53 -25 -54 -71h-104c1 121 58 190 158 190c46 0 81 -14 129 -51c31 -24 50 -33 71 -33c34 0 53 25 54 71h104c-1 -121 -58 -190 -158 -190zM398 80c-46 0 -81 14 -129 51c-31 24 -50 33 -71 33
c-34 0 -53 -25 -54 -71h-104c1 121 58 190 158 190c46 0 81 -14 129 -51c31 -24 50 -33 71 -33c34 0 53 25 54 71h104c-1 -121 -58 -190 -158 -190z" />
    <glyph glyph-name="notequal" unicode="&#x2260;" horiz-adv-x="596" 
d="M544 364h-150l-64 -110h214v-118h-283l-71 -122h-128l71 122h-81v118h150l64 110h-214v118h283l71 121h128l-71 -121h81v-118z" />
    <glyph glyph-name="lessequal" unicode="&#x2264;" horiz-adv-x="596" 
d="M544 148l-492 166v111l492 166v-127l-298 -94l298 -95v-127zM52 0v118h492v-118h-492z" />
    <glyph glyph-name="greaterequal" unicode="&#x2265;" horiz-adv-x="596" 
d="M52 148v127l298 95l-298 94v127l492 -166v-111zM52 0v118h492v-118h-492z" />
    <glyph glyph-name="lozenge" unicode="&#x25ca;" horiz-adv-x="596" 
d="M298 -32l-275 372l275 372l275 -372zM298 169l126 171l-126 171l-126 -171z" />
    <glyph glyph-name="uniF8FF" unicode="&#xf8ff;" horiz-adv-x="649" 
d="M263 50c-134 0 -225 88 -225 224c0 130 83 225 250 225h50v116h157v-116h132v-149h-132v-51c0 -156 -94 -249 -232 -249zM266 205c43 0 72 28 72 92v53h-49c-62 0 -89 -31 -89 -76c0 -43 24 -69 66 -69z" />
    <glyph glyph-name="Iacute_J.loclNLD" horiz-adv-x="853" 
d="M53 742l113 140h160l-143 -140h-130zM620 742l113 140h160l-143 -140h-130zM75 0v680h150v-680h-150zM552 -12c-165 0 -237 72 -237 239v19h144v-19c0 -77 26 -110 91 -110c66 0 92 35 92 116v447h150v-453c0 -166 -73 -239 -240 -239z" />
    <glyph glyph-name="iacute_j.loclNLD" horiz-adv-x="552" 
d="M41 590l113 140h160l-143 -140h-130zM317 590l113 140h160l-143 -140h-130zM64 0v522h148v-522h-148zM273 -182v116h30c27 0 37 11 37 43v545h148v-548c0 -109 -41 -156 -139 -156h-76z" />
    <glyph glyph-name="i.loclTRK" horiz-adv-x="276" 
d="M60 596v126h156v-126h-156zM64 0v522h148v-522h-148z" />
    <glyph glyph-name="germandbls.calt" horiz-adv-x="643" 
d="M63 0v457c0 153 75 223 240 223h266v-114l-125 -172c123 -17 174 -79 174 -197c0 -141 -72 -197 -247 -197h-102v127h90c78 0 108 15 108 74c0 62 -33 76 -113 76h-71v108l120 168h-86c-72 0 -104 -30 -104 -96v-457h-150z" />
    <glyph glyph-name="zero.pf" horiz-adv-x="622" 
d="M311 -12c-161 0 -246 79 -246 229v246c0 151 85 229 246 229s246 -78 246 -229v-246c0 -150 -85 -229 -246 -229zM311 113c69 0 98 33 98 110v234c0 77 -29 110 -98 110s-98 -33 -98 -110v-234c0 -77 29 -110 98 -110z" />
    <glyph glyph-name="one.pf" horiz-adv-x="457" 
d="M221 0v499c-58 -13 -122 -16 -182 -17v110c95 2 151 27 190 88h140v-680h-148z" />
    <glyph glyph-name="two.pf" horiz-adv-x="571" 
d="M39 0v70c0 129 58 206 210 277c102 48 136 82 136 139c0 49 -30 81 -95 81c-67 0 -100 -33 -100 -103v-19h-140v32c0 141 85 215 241 215c158 0 241 -75 241 -205c0 -113 -59 -185 -208 -252c-92 -41 -127 -67 -136 -108h344v-127h-493z" />
    <glyph glyph-name="three.pf" horiz-adv-x="593" 
d="M298 -12c-165 0 -249 66 -249 196v35h143v-16c0 -60 34 -90 106 -90c65 0 102 25 102 84c0 58 -34 84 -114 84h-65v124h62c70 0 103 23 103 80c0 55 -31 82 -91 82c-63 0 -95 -31 -95 -88v-13h-141v21c0 134 82 205 239 205c152 0 234 -66 234 -190
c0 -71 -27 -120 -85 -147v-2c70 -27 101 -81 101 -163c0 -136 -84 -202 -250 -202z" />
    <glyph glyph-name="four.pf" horiz-adv-x="599" 
d="M352 0v139h-317v130l307 411h158v-420h70v-121h-70v-139h-148zM177 260h175v243z" />
    <glyph glyph-name="five.pf" horiz-adv-x="573" 
d="M286 -12c-158 0 -244 68 -245 202h142c3 -49 40 -77 102 -77c72 0 107 37 107 108s-35 108 -101 108c-43 0 -76 -16 -101 -41h-129l25 392h423v-127h-300l-9 -142c36 28 80 40 132 40c135 0 208 -79 208 -226c0 -159 -85 -237 -254 -237z" />
    <glyph glyph-name="six.pf" horiz-adv-x="619" 
d="M316 -12c-162 0 -248 78 -248 230v239c0 155 87 235 253 235c157 0 232 -72 236 -198h-142c-4 41 -33 73 -96 73c-70 0 -103 -39 -103 -116v-67c38 38 85 55 146 55c129 0 200 -77 200 -219c0 -152 -81 -232 -246 -232zM317 113c66 0 97 37 97 103c0 64 -29 98 -89 98
c-51 0 -87 -25 -109 -75v-15c0 -73 34 -111 101 -111z" />
    <glyph glyph-name="seven.pf" horiz-adv-x="539" 
d="M107 0c10 227 97 410 257 550h-347v130h500v-134c-165 -160 -242 -323 -252 -546h-158z" />
    <glyph glyph-name="eight.pf" horiz-adv-x="612" 
d="M306 -12c-171 0 -260 70 -260 200c0 81 35 137 104 165v2c-58 27 -87 76 -87 146c0 123 87 191 244 191c156 0 243 -68 243 -190c0 -71 -29 -120 -88 -147v-2c69 -28 104 -84 104 -165c0 -130 -89 -200 -260 -200zM306 406c62 0 98 28 98 83c0 54 -34 80 -98 80
s-98 -26 -98 -80c0 -55 36 -83 98 -83zM305 111c76 0 113 26 113 84c0 60 -39 88 -113 88c-73 0 -112 -28 -112 -88c0 -58 36 -84 112 -84z" />
    <glyph glyph-name="nine.pf" horiz-adv-x="619" 
d="M298 -12c-157 0 -232 72 -236 198h142c4 -41 33 -73 96 -73c70 0 103 39 103 116v67c-38 -38 -85 -55 -146 -55c-129 0 -200 77 -200 219c0 152 81 232 246 232c162 0 248 -78 248 -230v-239c0 -155 -87 -235 -253 -235zM294 366c51 0 87 25 109 75v15
c0 73 -34 111 -101 111c-66 0 -97 -37 -97 -103c0 -64 29 -98 89 -98z" />
    <glyph glyph-name="zero.numr" 
d="M183 274c-99 0 -152 46 -152 134v150c0 88 53 134 152 134s152 -46 152 -134v-150c0 -88 -53 -134 -152 -134zM183 362c31 0 46 16 46 51v141c0 34 -15 50 -46 50s-46 -16 -46 -50v-141c0 -35 15 -51 46 -51z" />
    <glyph glyph-name="one.numr" 
d="M61 286v87h91v186c-35 -7 -71 -8 -103 -8v78c58 1 90 15 111 51h98v-307h91v-87h-288z" />
    <glyph glyph-name="two.numr" 
d="M30 286v48c0 78 36 126 125 166c51 23 70 41 70 68c0 23 -15 36 -43 36c-32 0 -46 -17 -46 -49v-8h-99v18c0 82 52 127 148 127c94 0 146 -44 146 -121c0 -66 -37 -110 -125 -149c-46 -20 -63 -31 -69 -47h194v-89h-301z" />
    <glyph glyph-name="three.numr" 
d="M184 274c-100 0 -152 39 -152 116v19h100v-7c0 -26 18 -40 51 -40c31 0 48 13 48 40c0 29 -18 40 -56 40h-44v83h40c35 0 52 13 52 40c0 26 -16 39 -43 39s-43 -13 -43 -38v-6h-99v11c0 80 50 121 146 121c93 0 144 -38 144 -115c0 -42 -16 -70 -50 -85v-2
c41 -15 59 -46 59 -94c0 -82 -52 -122 -153 -122z" />
    <glyph glyph-name="four.numr" 
d="M203 286v80h-180v89l175 225h111v-232h40v-82h-40v-80h-106zM115 448h88v118z" />
    <glyph glyph-name="five.numr" 
d="M182 274c-98 0 -149 41 -149 122h101c2 -21 19 -34 49 -34c32 0 48 15 48 48s-16 51 -49 51c-19 0 -36 -6 -46 -20h-91l14 239h258v-89h-175l-4 -70c20 14 46 21 77 21c80 0 122 -47 122 -130c0 -92 -52 -138 -155 -138z" />
    <glyph glyph-name="six.numr" 
d="M187 274c-100 0 -153 47 -153 134v146c0 91 54 138 154 138c101 0 147 -48 147 -118h-101c-2 16 -14 30 -45 30c-34 0 -49 -17 -49 -54v-35c21 18 47 26 80 26c76 0 118 -45 118 -128c0 -92 -50 -139 -151 -139zM187 362c31 0 45 15 45 50s-13 49 -41 49
c-23 0 -39 -11 -51 -32v-16c0 -34 15 -51 47 -51z" />
    <glyph glyph-name="seven.numr" 
d="M77 286c6 130 58 231 150 303h-199v91h308v-95c-99 -88 -140 -174 -146 -299h-113z" />
    <glyph glyph-name="eight.numr" 
d="M183 274c-107 0 -159 39 -159 118c0 49 21 82 62 98v2c-35 15 -52 43 -52 86c0 75 52 114 149 114s149 -39 149 -114c0 -43 -17 -71 -52 -86v-2c41 -16 62 -49 62 -98c0 -79 -52 -118 -159 -118zM183 526c31 0 46 13 46 41c0 27 -15 38 -46 38s-46 -11 -46 -38
c0 -28 15 -41 46 -41zM183 361c35 0 53 12 53 40c0 29 -18 42 -53 42s-53 -13 -53 -42c0 -28 18 -40 53 -40z" />
    <glyph glyph-name="nine.numr" 
d="M178 274c-101 0 -147 48 -147 118h101c2 -16 14 -30 45 -30c34 0 49 17 49 54v35c-21 -18 -47 -26 -80 -26c-76 0 -118 45 -118 128c0 92 50 139 151 139c100 0 153 -47 153 -134v-146c0 -91 -54 -138 -154 -138zM175 505c23 0 39 11 51 32v16c0 34 -15 51 -47 51
c-31 0 -45 -15 -45 -50s13 -49 41 -49z" />
    <glyph glyph-name="zero.dnom" 
d="M183 -12c-99 0 -152 46 -152 134v150c0 88 53 134 152 134s152 -46 152 -134v-150c0 -88 -53 -134 -152 -134zM183 76c31 0 46 16 46 51v141c0 34 -15 50 -46 50s-46 -16 -46 -50v-141c0 -35 15 -51 46 -51z" />
    <glyph glyph-name="one.dnom" 
d="M61 0v87h91v186c-35 -7 -71 -8 -103 -8v78c58 1 90 15 111 51h98v-307h91v-87h-288z" />
    <glyph glyph-name="two.dnom" 
d="M30 0v48c0 78 36 126 125 166c51 23 70 41 70 68c0 23 -15 36 -43 36c-32 0 -46 -17 -46 -49v-8h-99v18c0 82 52 127 148 127c94 0 146 -44 146 -121c0 -66 -37 -110 -125 -149c-46 -20 -63 -31 -69 -47h194v-89h-301z" />
    <glyph glyph-name="three.dnom" 
d="M184 -12c-100 0 -152 39 -152 116v19h100v-7c0 -26 18 -40 51 -40c31 0 48 13 48 40c0 29 -18 40 -56 40h-44v83h40c35 0 52 13 52 40c0 26 -16 39 -43 39s-43 -13 -43 -38v-6h-99v11c0 80 50 121 146 121c93 0 144 -38 144 -115c0 -42 -16 -70 -50 -85v-2
c41 -15 59 -46 59 -94c0 -82 -52 -122 -153 -122z" />
    <glyph glyph-name="four.dnom" 
d="M203 0v80h-180v89l175 225h111v-232h40v-82h-40v-80h-106zM115 162h88v118z" />
    <glyph glyph-name="five.dnom" 
d="M182 -12c-98 0 -149 41 -149 122h101c2 -21 19 -34 49 -34c32 0 48 15 48 48s-16 51 -49 51c-19 0 -36 -6 -46 -20h-91l14 239h258v-89h-175l-4 -70c20 14 46 21 77 21c80 0 122 -47 122 -130c0 -92 -52 -138 -155 -138z" />
    <glyph glyph-name="six.dnom" 
d="M187 -12c-100 0 -153 47 -153 134v146c0 91 54 138 154 138c101 0 147 -48 147 -118h-101c-2 16 -14 30 -45 30c-34 0 -49 -17 -49 -54v-35c21 18 47 26 80 26c76 0 118 -45 118 -128c0 -92 -50 -139 -151 -139zM187 76c31 0 45 15 45 50s-13 49 -41 49
c-23 0 -39 -11 -51 -32v-16c0 -34 15 -51 47 -51z" />
    <glyph glyph-name="seven.dnom" 
d="M77 0c6 130 58 231 150 303h-199v91h308v-95c-99 -88 -140 -174 -146 -299h-113z" />
    <glyph glyph-name="eight.dnom" 
d="M183 -12c-107 0 -159 39 -159 118c0 49 21 82 62 98v2c-35 15 -52 43 -52 86c0 75 52 114 149 114s149 -39 149 -114c0 -43 -17 -71 -52 -86v-2c41 -16 62 -49 62 -98c0 -79 -52 -118 -159 -118zM183 240c31 0 46 13 46 41c0 27 -15 38 -46 38s-46 -11 -46 -38
c0 -28 15 -41 46 -41zM183 75c35 0 53 12 53 40c0 29 -18 42 -53 42s-53 -13 -53 -42c0 -28 18 -40 53 -40z" />
    <glyph glyph-name="nine.dnom" 
d="M178 -12c-101 0 -147 48 -147 118h101c2 -16 14 -30 45 -30c34 0 49 17 49 54v35c-21 -18 -47 -26 -80 -26c-76 0 -118 45 -118 128c0 92 50 139 151 139c100 0 153 -47 153 -134v-146c0 -91 -54 -138 -154 -138zM175 219c23 0 39 11 51 32v16c0 34 -15 51 -47 51
c-31 0 -45 -15 -45 -50s13 -49 41 -49z" />
    <glyph glyph-name="exclamdown.case" horiz-adv-x="309" 
d="M77 525v155h155v-155h-155zM77 0l3 194l21 262h107l21 -262l3 -194h-155z" />
    <glyph glyph-name="questiondown.case" horiz-adv-x="467" 
d="M178 525v155h154v-155h-154zM237 -12c-138 0 -216 65 -216 182c0 69 26 115 95 162c55 38 74 66 74 109v15h129v-21c0 -78 -27 -129 -93 -176c-44 -31 -58 -51 -58 -84c0 -40 26 -62 71 -62c51 0 77 30 77 88h139c0 -142 -73 -213 -218 -213z" />
    <glyph glyph-name="at.case" horiz-adv-x="752" 
d="M408 -22c-233 0 -379 141 -379 359s146 364 365 364c210 0 347 -134 347 -326c0 -134 -66 -209 -174 -209c-54 0 -92 18 -112 56c-26 -37 -62 -56 -110 -56c-77 0 -118 48 -118 134v71c0 88 41 134 118 134c44 0 79 -16 105 -48l4 36h88v-193c0 -31 10 -46 33 -46
c37 0 59 40 59 112c0 149 -92 240 -238 240c-159 0 -255 -107 -255 -265c0 -164 104 -267 267 -267c67 0 129 17 180 50l36 -92c-56 -34 -128 -54 -216 -54zM377 256c22 0 41 10 54 37v85c-12 27 -33 38 -55 38c-26 0 -39 -15 -39 -47v-68c0 -29 13 -45 40 -45z" />
    <glyph glyph-name="parenleft.case" horiz-adv-x="343" 
d="M328 -96c-176 39 -276 198 -276 436s100 397 276 436v-109c-92 -45 -137 -148 -137 -327s45 -282 137 -327v-109z" />
    <glyph glyph-name="parenright.case" horiz-adv-x="343" 
d="M15 -96v109c92 45 137 148 137 327s-45 282 -137 327v109c176 -39 276 -198 276 -436s-100 -397 -276 -436z" />
    <glyph glyph-name="braceleft.case" horiz-adv-x="343" 
d="M248 -84c-113 0 -162 49 -162 183v116c0 56 -17 72 -67 72v106c50 0 67 16 67 72v116c0 134 49 183 162 183h80v-107h-43c-51 0 -62 -17 -62 -81v-106c0 -73 -24 -115 -76 -129v-2c52 -14 76 -56 76 -129v-106c0 -64 11 -81 62 -81h43v-107h-80z" />
    <glyph glyph-name="braceright.case" horiz-adv-x="343" 
d="M15 -84v107h43c51 0 62 17 62 81v106c0 73 24 115 76 129v2c-52 14 -76 56 -76 129v106c0 64 -11 81 -62 81h-43v107h80c113 0 162 -49 162 -183v-116c0 -56 17 -72 67 -72v-106c-50 0 -67 -16 -67 -72v-116c0 -134 -49 -183 -162 -183h-80z" />
    <glyph glyph-name="bracketleft.case" horiz-adv-x="343" 
d="M72 -84v848h256v-107h-118v-634h118v-107h-256z" />
    <glyph glyph-name="bracketright.case" horiz-adv-x="343" 
d="M15 -84v107h118v634h-118v107h256v-848h-256z" />
    <glyph glyph-name="bar.case" horiz-adv-x="290" 
d="M86 -160v1000h118v-1000h-118z" />
    <glyph glyph-name="brokenbar.case" horiz-adv-x="290" 
d="M86 440v400h118v-400h-118zM86 -160v400h118v-400h-118z" />
    <glyph glyph-name="periodcentered.case" horiz-adv-x="293" 
d="M69 262v155h155v-155h-155z" />
    <glyph glyph-name="bullet.case" horiz-adv-x="500" 
d="M121 211v258h258v-258h-258z" />
    <glyph glyph-name="hyphen.case" horiz-adv-x="383" 
d="M33 276v128h317v-128h-317z" />
    <glyph glyph-name="uni00AD.case" horiz-adv-x="383" 
d="M33 276v128h317v-128h-317z" />
    <glyph glyph-name="figuredash.case" horiz-adv-x="596" 
d="M30 283v114h536v-114h-536z" />
    <glyph glyph-name="endash.case" horiz-adv-x="500" 
d="M30 283v114h440v-114h-440z" />
    <glyph glyph-name="emdash.case" horiz-adv-x="900" 
d="M30 283v114h840v-114h-840z" />
    <glyph glyph-name="guillemotleft.case" horiz-adv-x="557" 
d="M147 160l-132 180l132 180h149l-132 -180l132 -180h-149zM393 160l-132 180l132 180h149l-132 -180l132 -180h-149z" />
    <glyph glyph-name="guillemotright.case" horiz-adv-x="557" 
d="M15 160l132 180l-132 180h149l132 -180l-132 -180h-149zM261 160l132 180l-132 180h149l132 -180l-132 -180h-149z" />
    <glyph glyph-name="guilsinglleft.case" horiz-adv-x="311" 
d="M147 160l-132 180l132 180h149l-132 -180l132 -180h-149z" />
    <glyph glyph-name="guilsinglright.case" horiz-adv-x="311" 
d="M15 160l132 180l-132 180h149l132 -180l-132 -180h-149z" />
    <glyph glyph-name="caron.alt" horiz-adv-x="185" 
d="M16 508l38 222h138l-81 -222h-95z" />
    <glyph glyph-name="ringacute" horiz-adv-x="500" 
d="M153 822l113 140h160l-143 -140h-130zM250 563c-71 0 -123 48 -123 116c0 67 52 117 123 117s123 -50 123 -117c0 -68 -52 -116 -123 -116zM250 637c23 0 38 16 38 42c0 25 -15 41 -38 41s-38 -16 -38 -41c0 -26 15 -42 38 -42z" />
    <glyph glyph-name="NULL" horiz-adv-x="0" 
 />
    <glyph glyph-name="CR" unicode="&#xd;" horiz-adv-x="240" 
 />
    </font>
</defs>
</svg>
